#TITLE:begin;
#SUBTITLE:;
#ARTIST:小坂りゆ;
#TITLETRANSLIT:;
#SUBTITLETRANSLIT:;
#ARTISTTRANSLIT:KOSAKA RIYU;
#GENRE:;
#CREDIT:Chewi☆;
#MENUCOLOR:;
#METERTYPE:DDR X;
#BANNER:begin.png;
#BACKGROUND:begin-bg.png;
#LYRICSPATH:;
#CDTITLE:;
#MUSIC:begin.mp3;
#OFFSET:-0.453;
#SAMPLESTART:53.739;
#SAMPLELENGTH:15.000;
#SELECTABLE:YES;
#LISTSORT:;
#DISPLAYBPM:148.000;
#BPMS:0.000=148.000;
#STOPS:;
#BGCHANGES:;
#ATTACKS:;

//---------------dance-single - Chewi----------------
#NOTES:
     dance-single:
     Chewi:
     Beginner:
     2:
     0.149,0.172,0.011,0.000,0.000: // measure 1
0000
0000
0000
0000
,  // measure 2
0000
0000
0000
0000
,  // measure 3
0000
0000
0000
0000
,  // measure 4
0000
0000
0000
0000
,  // measure 5
1000
0000
1000
0000
,  // measure 6
0001
0000
0001
0000
,  // measure 7
0100
0000
0100
0000
,  // measure 8
0010
0000
0010
0000
,  // measure 9
0010
0000
0100
0000
,  // measure 10
0010
0000
0100
0000
,  // measure 11
0010
0000
0100
0000
,  // measure 12
0010
0000
0100
0000
,  // measure 13
0010
0000
0001
0000
,  // measure 14
0010
0000
1000
0000
,  // measure 15
0010
0000
0010
0000
,  // measure 16
0100
0000
0100
0000
,  // measure 17
1000
0000
1000
0000
,  // measure 18
0001
0000
0001
0000
,  // measure 19
0010
0000
0010
0000
,  // measure 20
0100
0000
0100
0000
,  // measure 21
0001
0000
0010
0000
,  // measure 22
0100
0000
1000
0000
,  // measure 23
1000
0000
0100
0000
,  // measure 24
0010
0000
0001
0000
,  // measure 25
1000
0000
0000
0000
,  // measure 26
0001
0000
0000
0000
,  // measure 27
0100
0000
0000
0000
,  // measure 28
0010
0000
0000
0000
,  // measure 29
1000
0000
0010
0000
,  // measure 30
0001
0000
0100
0000
,  // measure 31
1000
0000
1000
0000
,  // measure 32
0001
0000
0001
0000
,  // measure 33
1001
0000
0000
0000
,  // measure 34
0001
0000
1000
0000
,  // measure 35
0001
0000
0001
0000
,  // measure 36
0010
0000
0100
0000
,  // measure 37
0010
0000
0010
0000
,  // measure 38
0010
0000
0001
0000
,  // measure 39
0100
0000
1000
0000
,  // measure 40
0010
0000
0001
0000
,  // measure 41
0010
0000
1000
0000
,  // measure 42
1000
0000
0100
0000
,  // measure 43
1000
0000
1000
0000
,  // measure 44
0001
0000
0100
0000
,  // measure 45
0001
0000
0001
0000
,  // measure 46
0001
0000
0010
0000
,  // measure 47
0100
0000
0001
0000
,  // measure 48
0010
0000
1000
0000
,  // measure 49
0100
0000
0010
0000
,  // measure 50
0100
0000
0100
0000
,  // measure 51
0010
0000
0010
0000
,  // measure 52
0001
0000
0001
0000
,  // measure 53
1000
0000
1000
0000
,  // measure 54
0001
0001
0000
0001
,  // measure 55
0001
0000
0000
0000
;

//---------------dance-single - Chewi----------------
#NOTES:
     dance-single:
     Chewi:
     Easy:
     5:
     0.214,0.258,0.074,0.149,0.000: // measure 1
0000
0000
0000
0000
,  // measure 2
0000
0000
0000
0000
,  // measure 3
0000
0000
0000
0000
,  // measure 4
0000
0000
0000
0000
,  // measure 5
2000
3000
1000
0000
,  // measure 6
0002
0003
0001
0000
,  // measure 7
0200
0300
0100
0000
,  // measure 8
0020
0030
0010
0000
,  // measure 9
0010
1000
0100
0000
,  // measure 10
0010
1000
0100
0000
,  // measure 11
0010
0001
0100
0000
,  // measure 12
0010
0001
0100
0000
,  // measure 13
0010
0100
0001
0000
,  // measure 14
0010
0100
1000
0000
,  // measure 15
0010
1000
0010
0000
,  // measure 16
0100
0001
0100
0000
,  // measure 17
1001
0000
1000
0000
,  // measure 18
0001
1000
0001
0000
,  // measure 19
0110
0000
0010
0000
,  // measure 20
0100
0010
0100
0000
,  // measure 21
0001
0000
0010
0000
,  // measure 22
0100
0000
1000
0000
,  // measure 23
1000
0000
0100
0000
,  // measure 24
0010
0000
0001
0000
,  // measure 25
2000
0000
0000
3000
,  // measure 26
0002
0000
0000
0003
,  // measure 27
0200
0000
0000
0300
,  // measure 28
0020
0000
0000
0030
,  // measure 29
1000
0100
0010
0000
,  // measure 30
0001
0010
0100
0000
,  // measure 31
1000
0001
1000
0000
,  // measure 32
0001
1000
0001
0000
,  // measure 33
2002
0000
0000
3003
,  // measure 34
0001
0000
1000
0000
,  // measure 35
0001
1000
1001
0000
,  // measure 36
0010
0000
0100
0000
,  // measure 37
0010
0100
0110
0000
,  // measure 38
0010
0000
0001
0000
,  // measure 39
0100
0000
1000
0000
,  // measure 40
0010
0000
0001
0000
,  // measure 41
0010
0000
1000
0000
,  // measure 42
1000
0000
0100
0000
,  // measure 43
1000
0001
1001
0000
,  // measure 44
0001
0000
0100
0000
,  // measure 45
0001
1000
1001
0000
,  // measure 46
0001
0000
0010
0000
,  // measure 47
0100
0000
0001
0000
,  // measure 48
0010
0000
1000
0000
,  // measure 49
0100
0000
0010
0000
,  // measure 50
0100
0100
0200
0300
,  // measure 51
0010
0010
0020
0030
,  // measure 52
0001
1000
0002
0003
,  // measure 53
1000
0001
2000
3000
,  // measure 54
0001
1000
0010
1000
,  // measure 55
0001
0000
0000
0000
;

//---------------dance-single - Chewi----------------
#NOTES:
     dance-single:
     Chewi:
     Medium:
     8:
     0.397,0.430,0.276,0.329,0.000: // measure 1
0000
0000
0000
0000
,  // measure 2
0000
0000
0000
0000
,  // measure 3
0000
0000
0000
0000
,  // measure 4
0000
0000
0000
0000
,  // measure 5
2000
3001
0001
0101
,  // measure 6
0002
1003
1000
1100
,  // measure 7
0002
0013
1000
1100
,  // measure 8
2000
3010
0001
0101
,  // measure 9
0100
0010
0100
0000
0010
0000
0100
0000
,  // measure 10
0010
1100
0010
0101
,  // measure 11
1000
0001
1000
0000
0001
0000
1000
0000
,  // measure 12
0100
0110
0010
0110
,  // measure 13
0010
0001
0010
0000
0001
0000
1000
0000
,  // measure 14
0100
1000
0100
0000
1000
0000
0001
0000
,  // measure 15
1000
0010
0100
0000
0001
0100
0010
0000
,  // measure 16
1000
0001
1000
1001
,  // measure 17
0001
0010
0001
0000
1000
0100
1000
0000
,  // measure 18
0001
0100
0001
0000
0101
0000
0000
0000
,  // measure 19
1000
0010
1000
0000
0001
0100
0001
0000
,  // measure 20
1000
0100
1000
0000
1100
0000
0000
0000
,  // measure 21
0002
0023
0230
2300
,  // measure 22
0001
0100
3001
0000
,  // measure 23
2000
3020
0230
0302
,  // measure 24
0100
1000
0103
0000
,  // measure 25
2000
0000
0000
0000
,  // measure 26
3200
0000
0000
0000
,  // measure 27
0302
0000
0000
0000
,  // measure 28
0023
0000
0000
0000
,  // measure 29
1030
0010
0001
0010
,  // measure 30
1000
0100
0001
0010
,  // measure 31
1000
0100
0001
0100
,  // measure 32
1000
0010
0001
0100
,  // measure 33
0220
0000
0000
0330
,  // measure 34
0010
0001
1000
0000
0100
1000
0001
0000
,  // measure 35
0010
0100
0010
0110
,  // measure 36
0100
0001
0100
0000
0010
1000
0010
0000
,  // measure 37
0100
1000
0100
0000
1100
0000
0000
0000
,  // measure 38
0010
0001
0010
0000
0100
1000
0100
0000
,  // measure 39
0010
1000
0010
0000
1010
0000
0000
0000
,  // measure 40
0100
0110
1000
1001
,  // measure 41
0002
0023
0230
0300
,  // measure 42
1000
0010
0100
0000
0001
0100
0010
0000
,  // measure 43
1000
0001
1000
1001
,  // measure 44
0001
0010
0001
0000
1000
0100
1000
0000
,  // measure 45
0001
0100
0001
0000
0101
0000
0000
0000
,  // measure 46
1000
0010
1000
0000
0001
0100
0001
0000
,  // measure 47
1000
0100
1000
0000
1100
0000
0000
0000
,  // measure 48
0100
0110
0001
1001
,  // measure 49
0002
0023
0230
2300
,  // measure 50
3010
0000
0100
0010
0100
0000
0101
0000
,  // measure 51
0001
0000
1000
0001
1000
0000
1100
0000
,  // measure 52
0020
0032
0023
0230
,  // measure 53
1300
1001
0001
1001
,  // measure 54
0200
0000
0320
0000
,  // measure 55
0130
0000
0000
0000
;

//---------------dance-single - Chewi----------------
#NOTES:
     dance-single:
     Chewi:
     Hard:
     11:
     0.577,0.516,0.212,0.106,0.117: // measure 1
0000
0000
0000
0000
,  // measure 2
0000
0000
0000
0000
,  // measure 3
0000
0000
0000
0000
,  // measure 4
0000
0000
0000
0000
,  // measure 5
1000
0000
0000
0001
0100
0000
0000
0000
1000
0000
0000
0000
1100
0000
0000
0000
,  // measure 6
0001
0000
0000
1000
0100
0000
0000
0000
1000
0000
0000
0000
1100
0000
0000
0000
,  // measure 7
1000
0000
0000
0001
1000
0000
0000
0000
0010
0000
0000
0000
0101
0000
0000
0000
,  // measure 8
1000
0000
0000
0001
1000
0000
0000
0000
0100
0000
0000
0000
0011
0000
0000
0000
,  // measure 9
1000
0100
1000
0010
1000
0100
0001
0010
,  // measure 10
1000
0100
0010
0100
1000
0100
1100
0000
,  // measure 11
1000
0001
0100
0010
0100
0001
0010
1000
,  // measure 12
0100
0001
0010
1000
0100
0010
1100
0000
,  // measure 13
1000
0010
1000
0100
0010
0001
0100
0010
,  // measure 14
0100
0001
1000
0100
0010
0001
0011
0000
,  // measure 15
0001
1000
0001
0100
0001
0010
0100
1000
,  // measure 16
0010
1000
0001
0010
0011
0000
1001
0000
,  // measure 17
1000
0000
0010
1000
0000
0000
0100
0000
0010
0000
0001
0100
0000
0000
0001
0000
,  // measure 18
0010
0000
0100
1000
0000
0000
0001
0000
1000
0000
0100
0000
1100
0000
0000
0000
,  // measure 19
1000
0000
0001
1000
0000
0000
0010
0000
0100
0000
0001
0100
0000
0000
0010
0000
,  // measure 20
1000
0000
0001
0010
0000
0000
0100
0000
1000
0000
0100
0000
1100
0000
0000
0000
,  // measure 21
1000
0001
1000
0001
0010
0100
0010
0100
,  // measure 22
0010
0001
0010
0001
0100
0001
0100
0001
,  // measure 23
0100
0010
2000
0000
3100
0010
0002
0000
,  // measure 24
1003
0100
0001
0010
1000
0100
0001
0010
,  // measure 25
1000
0100
1000
0010
0000
1000
1100
0000
,  // measure 26
0001
0010
0001
0100
0000
0001
0101
0000
,  // measure 27
0100
0010
1000
0001
0000
1000
1100
0000
,  // measure 28
0001
0010
0100
1000
0010
0100
0001
1000
,  // measure 29
0010
1000
0010
1000
0010
0100
0010
0100
,  // measure 30
0010
0001
0010
0001
0010
0100
0010
0100
,  // measure 31
0010
0100
0001
0010
0100
1000
0010
1000
,  // measure 32
0100
0010
0100
1000
0001
0100
0010
1000
,  // measure 33
2002
0000
0000
3003
,  // measure 34
0001
0000
0100
0001
0000
0000
0010
0000
0100
0000
1000
0010
0000
0000
1000
0000
,  // measure 35
0100
0000
0010
0001
0000
0000
1000
0000
0001
0000
0010
0000
0011
0000
0000
0000
,  // measure 36
0001
0000
1000
0001
0000
0000
0100
0000
0010
0000
1000
0010
0000
0000
0100
0000
,  // measure 37
0001
0000
1000
0100
0000
0000
0010
0000
0001
0000
0010
0000
0011
0000
0000
0000
,  // measure 38
0001
1000
0001
1000
0100
0010
0100
0010
,  // measure 39
0100
1000
0100
1000
0010
1000
0010
1000
,  // measure 40
0010
0100
0002
0000
0013
0100
2000
0000
,  // measure 41
3001
0010
1000
0100
0001
0010
1000
0100
,  // measure 42
0010
0000
0001
0010
0000
0000
0100
0000
1000
0000
0010
1000
0000
0000
0100
0000
,  // measure 43
1000
0000
0001
1000
0000
0000
0010
0000
0100
0000
0001
0000
0101
0000
0000
0000
,  // measure 44
1000
0000
0100
0010
0000
0000
0100
0000
1000
0000
0010
0100
0000
0000
0001
0000
,  // measure 45
0100
0000
0010
1000
0000
0000
0001
0000
1000
0000
0100
0000
1100
0000
0000
0000
,  // measure 46
0001
0010
0001
0010
0100
1000
0100
1000
,  // measure 47
0001
0100
1000
0100
0001
0010
1000
0010
,  // measure 48
0001
0010
0100
1000
0010
0100
0001
0100
,  // measure 49
0010
1000
0100
0001
0010
1000
0100
0010
,  // measure 50
0001
0100
0001
0010
0200
0000
1300
0000
,  // measure 51
0010
1000
0100
1000
0020
0000
0130
0000
,  // measure 52
0100
0010
1000
0001
0020
0000
0031
0000
,  // measure 53
0001
0010
0100
1000
0010
0100
0001
0100
,  // measure 54
0020
1000
0001
1030
,  // measure 55
1001
0000
0000
0000
;
