#TITLE:bass 2 bass;
#SUBTITLE:;
#ARTIST:Ryu☆;
#TITLETRANSLIT:;
#SUBTITLETRANSLIT:;
#ARTISTTRANSLIT:Ryu*;
#GENRE:;
#CREDIT:yamamoto_;
#MENUCOLOR:;
#METERTYPE:DDR X;
#BANNER:bass 2 bass.png;
#BACKGROUND:bass 2 bass-bg.png;
#LYRICSPATH:;
#CDTITLE:;
#MUSIC:bass 2 bass.mp3;
#OFFSET:-2.117;
#SAMPLESTART:32.974;
#SAMPLELENGTH:15.000;
#SELECTABLE:YES;
#LISTSORT:;
#DISPLAYBPM:140.000;
#BPMS:0.000=140.000;
#STOPS:;
#BGCHANGES:;
#ATTACKS:;

//---------------dance-single - yamamoto_----------------
#NOTES:
     dance-single:
     yamamoto_:
     Beginner:
     2:
     0.096,0.131,0.010,0.177,0.000: // measure 1
0000
0000
0000
0000
,  // measure 2
0000
0000
0000
0000
,  // measure 3
0000
0000
0000
0000
,  // measure 4
0000
0000
0000
0000
,  // measure 5
2000
0000
0000
3000
,  // measure 6
1000
0000
0000
0000
,  // measure 7
0002
0000
0000
0003
,  // measure 8
0001
0000
0000
0000
,  // measure 9
0100
0000
0000
0000
,  // measure 10
0100
0000
0000
0000
,  // measure 11
0010
0000
0000
0000
,  // measure 12
0010
0000
0000
0000
,  // measure 13
1000
0000
0000
0000
,  // measure 14
1000
0000
0000
0000
,  // measure 15
0001
0000
0000
0000
,  // measure 16
0001
0000
0000
0000
,  // measure 17
0001
0000
0000
0000
,  // measure 18
0001
0000
0000
0000
,  // measure 19
2000
0000
0000
3000
,  // measure 20
1000
0000
0000
0000
,  // measure 21
0002
0000
0000
0003
,  // measure 22
0001
0000
0000
0000
,  // measure 23
0200
0000
0000
0300
,  // measure 24
0100
0000
0000
0000
,  // measure 25
0020
0000
0000
0030
,  // measure 26
0010
0000
0000
0000
,  // measure 27
1000
0000
0000
0000
,  // measure 28
0100
0000
0000
0000
,  // measure 29
0001
0000
0000
0000
,  // measure 30
0010
0000
0000
0000
,  // measure 31
1000
0000
0000
0000
,  // measure 32
0010
0000
0000
0000
,  // measure 33
0001
0000
0000
0000
,  // measure 34
0100
0000
0000
0000
,  // measure 35
1000
0000
0000
0000
,  // measure 36
1000
0000
0000
0000
,  // measure 37
0002
0000
0000
0003
,  // measure 38
2000
0000
0000
3000
,  // measure 39
0020
0000
0000
0030
,  // measure 40
0200
0000
0000
0300
,  // measure 41
0200
0000
0000
0300
,  // measure 42
0020
0000
0000
0030
,  // measure 43
2000
0000
0000
3000
,  // measure 44
0002
0000
0000
0003
,  // measure 45
0000
0000
0000
0000
,  // measure 46
2000
0000
0000
3000
,  // measure 47
1000
0000
0000
0000
,  // measure 48
0002
0000
0000
0003
,  // measure 49
0001
0000
0000
0000
,  // measure 50
0200
0000
0000
0300
,  // measure 51
0100
0000
0000
0000
,  // measure 52
0020
0000
0000
0030
,  // measure 53
0010
0000
0000
0000
,  // measure 54
1001
0000
0000
0000
;

//---------------dance-single - yamamoto_----------------
#NOTES:
     dance-single:
     yamamoto_:
     Easy:
     4:
     0.172,0.235,0.069,0.177,0.000: // measure 1
0000
0000
0000
0000
,  // measure 2
0000
0000
0000
0000
,  // measure 3
0000
0000
0000
0000
,  // measure 4
0000
0000
0000
0000
,  // measure 5
2000
0000
0000
3000
,  // measure 6
1000
0001
1001
0000
,  // measure 7
0002
0000
0000
0003
,  // measure 8
1000
0001
1001
0000
,  // measure 9
0100
0000
0100
0000
,  // measure 10
0100
0000
0100
0000
,  // measure 11
0010
0000
0010
0000
,  // measure 12
0010
0000
0010
0000
,  // measure 13
1000
0000
1000
0000
,  // measure 14
1000
0000
1000
0000
,  // measure 15
0001
0000
0001
0000
,  // measure 16
0001
0000
0001
0000
,  // measure 17
0001
0010
0100
1000
,  // measure 18
0001
0010
0100
1000
,  // measure 19
2000
0000
0000
3000
,  // measure 20
0001
1000
1001
0000
,  // measure 21
0002
0000
0000
0003
,  // measure 22
1000
0001
1001
0000
,  // measure 23
0200
0000
0000
0300
,  // measure 24
0010
0100
0110
0000
,  // measure 25
0020
0000
0000
0030
,  // measure 26
0100
0010
0110
0000
,  // measure 27
1000
0000
1000
0000
,  // measure 28
0100
0000
0100
0000
,  // measure 29
0001
0000
0001
0000
,  // measure 30
0010
0000
0010
0000
,  // measure 31
1000
0000
1000
0000
,  // measure 32
0010
0000
0010
0000
,  // measure 33
0001
0000
0001
0000
,  // measure 34
0100
0000
0100
0000
,  // measure 35
1000
0100
0010
0001
,  // measure 36
1000
0100
0010
0001
,  // measure 37
0002
0000
0000
0003
,  // measure 38
2000
0000
0000
3000
,  // measure 39
0020
0000
0000
0030
,  // measure 40
0200
0000
0000
0300
,  // measure 41
0200
0000
0000
0300
,  // measure 42
0020
0000
0000
0030
,  // measure 43
2000
0000
0000
3000
,  // measure 44
0002
0000
0000
0003
,  // measure 45
0000
0000
0000
0000
,  // measure 46
1000
1000
0001
0000
,  // measure 47
2000
0000
0000
3000
,  // measure 48
0001
0001
1000
0000
,  // measure 49
0002
0000
0000
0003
,  // measure 50
0100
0100
0010
0000
,  // measure 51
0020
0000
0000
0030
,  // measure 52
0010
0010
0100
0000
,  // measure 53
0200
0000
0000
0300
,  // measure 54
1001
0000
0000
0000
;

//---------------dance-single - yamamoto_----------------
#NOTES:
     dance-single:
     yamamoto_:
     Medium:
     7:
     0.301,0.313,0.158,0.049,0.000: // measure 1
0000
0000
0000
0000
,  // measure 2
0000
0000
0000
0000
,  // measure 3
0000
0000
0000
0000
,  // measure 4
0000
0000
0000
0000
,  // measure 5
1000
0000
1000
1000
0000
0000
0100
0000
,  // measure 6
0010
0001
0101
0000
,  // measure 7
0001
0000
0001
0001
0000
1000
0001
1000
,  // measure 8
0000
0010
0000
0100
0000
0001
0000
1000
,  // measure 9
0001
0001
1000
1000
,  // measure 10
0100
0010
0001
0010
,  // measure 11
0100
0100
1000
1000
,  // measure 12
0010
0100
0001
0100
,  // measure 13
0010
1001
0100
1001
,  // measure 14
1000
0100
0010
0001
,  // measure 15
1000
1100
0001
0101
,  // measure 16
0100
0010
1000
0001
,  // measure 17
1000
1000
0001
0001
,  // measure 18
1000
0100
1000
0000
0001
0100
0001
0000
,  // measure 19
0100
0000
0100
0100
0000
0000
0100
0000
,  // measure 20
0010
1000
1001
0000
,  // measure 21
0001
0000
0001
0001
0000
0001
1000
0001
,  // measure 22
1000
0100
0010
0011
,  // measure 23
0001
0000
1000
1000
0000
0000
0010
0000
,  // measure 24
0100
0001
0100
0000
,  // measure 25
0010
0000
1000
0010
0000
0000
1000
0100
,  // measure 26
0000
0010
0100
1000
,  // measure 27
0001
0001
1000
1000
,  // measure 28
0100
0010
0001
0010
,  // measure 29
0100
0100
1000
1000
,  // measure 30
0010
0100
0001
0100
,  // measure 31
0010
1001
0100
1001
,  // measure 32
1000
0100
0010
0001
,  // measure 33
1000
1100
0001
0101
,  // measure 34
0100
0010
1000
0001
,  // measure 35
1000
1000
0001
0001
,  // measure 36
1000
0100
1000
0000
0001
0100
0001
0000
,  // measure 37
0202
0000
0000
0003
,  // measure 38
0020
0000
0000
0300
,  // measure 39
2000
0000
0000
0030
,  // measure 40
0002
0000
0000
3003
,  // measure 41
1000
0000
0001
0000
0100
0010
0100
0000
,  // measure 42
0001
1000
0100
1100
,  // measure 43
1000
0000
0100
0000
0010
0001
0100
0000
,  // measure 44
0010
0000
0100
0000
0010
0100
0001
0000
,  // measure 45
0000
1000
0000
1000
0000
1000
0000
1000
,  // measure 46
0100
0000
0100
0100
0000
0000
0100
0000
,  // measure 47
0010
1000
1001
0000
,  // measure 48
0001
0000
0001
0001
0000
0001
1000
0001
,  // measure 49
1000
0100
0010
0011
,  // measure 50
0001
0000
1000
1000
0000
0000
0010
0000
,  // measure 51
0100
0001
0100
0000
,  // measure 52
0010
0000
1000
0010
0000
0000
1000
0100
,  // measure 53
0000
0010
0100
1000
,  // measure 54
1001
0000
0000
0000
;

//---------------dance-single - yamamoto_----------------
#NOTES:
     dance-single:
     yamamoto_:
     Hard:
     12:
     0.383,0.392,0.059,0.000,0.158: // measure 1
0000
0000
0000
0000
,  // measure 2
0000
0000
0000
0000
,  // measure 3
0000
0000
0000
0000
,  // measure 4
0000
0000
0000
0000
,  // measure 5
1000
0010
1000
0010
0000
0100
0001
0100
,  // measure 6
0001
0010
0100
1000
0010
0000
0000
0000
,  // measure 7
1000
0100
1000
0100
0000
0010
0001
0100
,  // measure 8
0000
0010
0010
0010
0100
0010
0000
1000
,  // measure 9
0001
0000
0000
0001
0000
0000
0001
0000
0000
0000
0001
0000
0000
0000
0000
0000
,  // measure 10
0100
0000
0000
0100
0000
0000
0100
0000
0000
0000
0100
0000
0000
0100
0000
0000
,  // measure 11
0010
0000
0000
1000
0000
0000
0010
0000
0000
0000
0001
0000
0000
0010
0000
0000
,  // measure 12
0100
0000
0000
1000
0000
0000
0010
0000
0000
0000
1000
0000
0000
0100
0000
0000
,  // measure 13
0010
0000
0000
0001
0000
0000
1000
0000
0000
0000
0010
0000
0000
0000
0000
0000
,  // measure 14
0100
0000
0000
0100
0000
0000
0100
0000
0000
0000
0001
0000
0000
0010
0000
0000
,  // measure 15
0100
0000
0000
1000
0000
0000
0100
0000
0000
0000
1000
0000
0000
0001
0000
0000
,  // measure 16
0100
0000
0000
0100
0000
0000
0100
0000
0000
0000
0010
0000
0000
1000
0000
0000
,  // measure 17
0100
0010
0100
1000
,  // measure 18
0001
0101
1000
1010
,  // measure 19
0010
0100
0010
0100
0000
0010
0100
0001
,  // measure 20
1000
0100
0010
0001
0001
0000
0000
0000
,  // measure 21
0001
0010
0100
1000
0000
0010
1000
0100
,  // measure 22
1000
0010
0100
0001
0000
0100
0000
0001
,  // measure 23
0100
0010
1000
0001
0000
1000
0100
0010
,  // measure 24
0001
0010
0100
1000
0010
0000
0000
0000
,  // measure 25
1000
0100
0010
0100
0000
1000
0001
0100
,  // measure 26
0000
0010
0100
0001
0100
0010
0000
0010
,  // measure 27
1000
0000
0000
1000
0000
0000
1000
0000
0000
0000
1000
0000
0000
0000
0000
0000
,  // measure 28
0010
0000
0000
0010
0000
0000
0010
0000
0000
0000
0010
0000
0000
0010
0000
0000
,  // measure 29
0100
0000
0000
0001
0000
0000
0100
0000
0000
0000
1000
0000
0000
0100
0000
0000
,  // measure 30
0010
0000
0000
0001
0000
0000
0100
0000
0000
0000
0001
0000
0000
0010
0000
0000
,  // measure 31
0100
0000
0000
1000
0000
0000
0001
0000
0000
0000
0100
0000
0000
0000
0000
0000
,  // measure 32
0010
0000
0000
0010
0000
0000
0010
0000
0000
0000
1000
0000
0000
0100
0000
0000
,  // measure 33
0010
0000
0000
0001
0000
0000
0010
0000
0000
0000
0001
0000
0000
1000
0000
0000
,  // measure 34
0010
0000
0000
0010
0000
0000
0010
0000
0000
0000
0100
0000
0000
0001
0000
0000
,  // measure 35
0010
0100
0010
0001
,  // measure 36
1000
1010
0001
0101
,  // measure 37
0100
0000
0000
0100
0000
0000
0100
0000
0000
0000
0100
0000
0000
0000
0000
0000
,  // measure 38
0010
0000
0000
0010
0000
0000
0010
0000
0000
0000
0010
0000
0000
0000
0000
0000
,  // measure 39
1000
0000
0000
1000
0000
0000
1000
0000
0000
0000
1000
0000
0000
0000
0000
0000
,  // measure 40
0001
0000
0000
0001
0000
0000
0001
0000
0000
0000
0001
0000
0000
0000
0000
0000
,  // measure 41
1000
0100
1000
0100
0010
0001
0100
0000
,  // measure 42
0001
0100
0001
0100
0010
1000
0100
0000
,  // measure 43
1000
0001
1000
0000
0001
1000
0001
0000
,  // measure 44
1000
0010
0100
0001
1000
0010
0100
0001
,  // measure 45
0000
1000
0000
1100
0000
0001
0000
0101
,  // measure 46
0100
0010
0100
0010
0000
0100
0010
1000
,  // measure 47
0001
0010
0100
1000
1000
0000
0000
0000
,  // measure 48
1000
0100
0010
0001
0000
0100
0001
0010
,  // measure 49
0001
0100
0010
1000
0000
0010
0000
1000
,  // measure 50
0010
0100
0001
1000
0000
0001
0010
0100
,  // measure 51
1000
0100
0010
0001
0100
0000
0000
0000
,  // measure 52
0001
0010
0100
0010
0000
0001
1000
0010
,  // measure 53
0000
0100
0010
1000
0010
0100
0000
0001
,  // measure 54
1000
0000
0000
0000
;
