#TITLE:残念系隣人部★★☆ (星ふたつ半);
#SUBTITLE:;
#ARTIST:友達つくり隊;
#TITLETRANSLIT:Zannenkei Rinjinbu (Hoshi Futatsuhan);
#SUBTITLETRANSLIT:;
#ARTISTTRANSLIT:Tomodachi Tsukuritai;
#GENRE:;
#CREDIT:Chewi☆;
#MENUCOLOR:;
#METERTYPE:DDR X;
#BANNER:Zannenkei Rinjinbu (Hoshi Futatsuhan).png;
#BACKGROUND:Zannenkei Rinjinbu (Hoshi Futatsuhan)-bg.png;
#LYRICSPATH:;
#CDTITLE:;
#MUSIC:Zannenkei Rinjinbu (Hoshi Futatsuhan).mp3;
#OFFSET:-2.610;
#SAMPLESTART:59.903;
#SAMPLELENGTH:15.000;
#SELECTABLE:YES;
#LISTSORT:;
#DISPLAYBPM:133.000;
#BPMS:0.000=133.000;
#STOPS:;
#BGCHANGES:;
#ATTACKS:;

//---------------dance-single - Chewi----------------
#NOTES:
     dance-single:
     Chewi:
     Beginner:
     2:
     0.153,0.184,0.090,0.000,0.000:
0000
0000
0000
0000
,
0000
0000
0000
0000
,
0000
0000
0000
0000
,
0000
0000
0000
0000
,
1000
0000
1000
0000
,
0001
0000
0001
0000
,
0100
0000
0100
0000
,
0010
0000
0010
0000
,
0110
0000
0000
0000
,
1001
0000
0000
0000
,
1000
1000
1000
0000
,
0001
0000
1000
0000
,
0001
0001
0001
0000
,
1000
0000
0001
0000
,
1001
0000
0000
0000
,
1000
0000
1000
0000
,
1000
0000
1000
0000
,
1000
1000
1000
0000
,
0001
0001
0001
0000
,
0001
0000
0001
0000
,
0001
0000
0001
0000
,
0001
0001
0001
0000
,
1000
1000
1000
0000
,
0010
0000
0010
0000
,
0010
0000
0010
0000
,
0100
0000
0100
0000
,
0100
0000
0100
0000
,
0100
0000
0010
0000
,
1000
0000
0001
0000
,
1000
0000
0100
0000
,
0010
0000
0001
0000
,
1001
0000
0000
0000
,
1000
1000
1000
0000
,
0001
0000
1000
0000
,
0001
0001
0001
0000
,
1000
0000
0001
0000
,
0100
0100
0100
0000
,
0010
0010
0010
0000
,
0100
0000
0010
0000
,
0110
0000
0000
0000
,
1001
0000
0000
0000
,
1001
0000
0000
0000
,
1000
0000
1000
0000
,
0001
0000
0010
0000
,
0001
0000
0000
0000
,
1000
0000
0010
0000
,
1000
0000
0000
0000
,
1001
0000
0000
0000
;

//---------------dance-single - Chewi----------------
#NOTES:
     dance-single:
     Chewi:
     Easy:
     4:
     0.205,0.267,0.134,0.022,0.000:
0000
0000
0000
0000
,
0000
0000
0000
0000
,
0000
0000
0000
0000
,
0000
0000
0000
0000
,
1000
0001
1000
0000
,
0001
1000
0001
0000
,
0100
0010
0100
0000
,
0010
0100
0010
0000
,
0110
0000
0000
0000
,
1001
0000
0000
0000
,
1000
0100
0010
0001
,
0010
0000
0010
0000
,
0001
0010
0100
1000
,
0100
0000
0100
0000
,
1001
0000
0000
0000
,
1000
0000
0010
0000
,
0100
0000
0001
0000
,
0001
0001
0001
0000
,
1000
1000
1000
0000
,
0001
0000
0010
0000
,
0100
0000
1000
0000
,
1000
1000
1000
0000
,
0001
0001
0001
0000
,
1000
0000
0010
0000
,
0100
0000
0001
0000
,
0100
0100
0100
0100
,
0100
0100
0100
0100
,
0001
0001
0001
0001
,
1000
1000
1000
1000
,
0100
0100
0100
0100
,
1001
0000
0100
0000
,
0100
0100
0100
0100
,
0010
1000
0010
0000
,
1000
0001
1000
0000
,
0100
1000
0100
0000
,
0110
0000
0110
0000
,
0010
0001
0010
0000
,
0001
0100
0001
0000
,
0100
0010
0100
0000
,
0110
0000
0110
0000
,
1001
0000
0000
0000
,
1000
0000
0001
0000
,
1000
0000
0001
0000
,
0100
0100
0100
0000
,
0000
0000
0000
0110
,
0010
0010
0010
0010
,
0000
0000
0000
0110
,
2002
0000
0000
3003
;

//---------------dance-single - Chewi----------------
#NOTES:
     dance-single:
     Chewi:
     Medium:
     8:
     0.350,0.401,0.313,0.179,0.000: // measure 1
0000
0000
0000
0000
,  // measure 2
0000
0000
0000
0000
,  // measure 3
0000
0000
0000
0000
,  // measure 4
0000
0000
0000
0000
,  // measure 5
1000
0100
0001
0010
,  // measure 6
1000
0100
0001
0100
,  // measure 7
1000
0010
0001
0100
,  // measure 8
0200
0320
2030
3002
,  // measure 9
2003
0100
0100
3100
,  // measure 10
1100
0000
0101
0000
,  // measure 11
0100
0100
0010
0010
,  // measure 12
1000
0001
1000
0000
0001
1000
0001
0000
,  // measure 13
2000
3200
0320
0032
,  // measure 14
0013
0001
0010
0001
0010
0000
0000
0000
,  // measure 15
1001
0000
0000
0000
,  // measure 16
1000
0000
0010
0000
1000
0100
1000
0000
,  // measure 17
0001
0000
0100
0000
0010
1000
0001
0000
,  // measure 18
1001
0000
0110
0000
,  // measure 19
1001
0000
0110
0000
,  // measure 20
0100
0000
0010
0000
1000
0100
0010
0000
,  // measure 21
0001
0000
0010
0000
0100
1000
0001
0000
,  // measure 22
1100
0000
0101
0000
,  // measure 23
0011
0000
1010
0000
,  // measure 24
1000
0100
0010
0000
0001
0000
0100
0000
,  // measure 25
0010
0100
0001
0000
1000
0000
0010
0000
,  // measure 26
0100
0010
0100
0000
0010
0100
0010
0000
,  // measure 27
1000
0010
1000
0000
0010
1000
0010
0000
,  // measure 28
1000
0000
1100
0000
0001
0010
0100
0000
,  // measure 29
1000
0000
1001
0000
1000
0010
0100
0000
,  // measure 30
0001
0000
0101
0000
0100
0010
0100
0000
,  // measure 31
0002
0023
0230
2300
,  // measure 32
3020
0000
0000
0030
,  // measure 33
1000
0010
1000
0000
0010
0000
1100
0000
,  // measure 34
1000
0100
1000
0000
0001
0000
1001
0000
,  // measure 35
1000
0100
0010
0001
,  // measure 36
1000
1100
0001
0101
,  // measure 37
1000
0010
1000
0000
1000
0000
1010
0000
,  // measure 38
0001
0100
0001
0000
0001
0000
0101
0000
,  // measure 39
0100
0010
1000
0001
,  // measure 40
1000
1010
0001
0101
,  // measure 41
0100
0100
0100
0100
,  // measure 42
0010
0000
0000
0110
0000
0000
0100
0000
,  // measure 43
1000
1000
1000
0000
0001
0001
0001
0000
,  // measure 44
0001
0010
0100
0000
1000
0000
1100
0000
,  // measure 45
0000
0000
0000
1001
,  // measure 46
1000
0001
1000
0000
0010
0000
0100
0000
,  // measure 47
0101
0000
0000
0011
,  // measure 48
2002
0000
0000
3003
;

//---------------dance-single - Chewi----------------
#NOTES:
     dance-single:
     Chewi:
     Hard:
     11:
     0.452,0.508,0.067,0.246,0.084:
0000
0000
0000
0000
,
0000
0000
0000
0000
,
0000
0000
0000
0000
,
0000
0000
0000
0000
,
1000
0100
0100
1000
0010
0100
0001
0000
,
0001
0100
0100
0001
0010
0100
1000
0100
,
0000
1000
0001
1000
0001
0100
0010
1000
,
0020
2030
3200
0320
,
0032
0000
1000
0000
0100
0000
1003
0100
,
0010
0001
0010
0001
0100
0010
1000
0000
,
1000
0000
0010
0000
0100
0001
0100
0000
,
0001
0000
0010
0000
0100
1000
0100
0000
,
2000
3200
0320
0032
,
1003
0000
0100
0000
1000
0000
0000
0100
0000
0000
1000
0000
0001
0000
0100
0000
,
0220
0000
0000
0330
,
0010
0000
1000
0000
0100
0010
0001
0010
,
0002
0100
0010
1003
,
1000
0000
0000
0010
0000
0000
0100
0000
0001
0000
0000
0001
0000
0000
0001
0000
,
0010
0000
0000
0100
0000
0000
1000
0000
0010
0000
0000
0010
0000
0000
0010
0000
,
0100
0000
0010
0000
0001
0010
0100
1000
,
0020
1000
0100
1030
,
1000
0000
0000
0001
0000
0000
1000
0000
0010
0000
0000
0010
0000
0000
0010
0000
,
0100
0000
0000
0001
0000
0000
0100
0000
0001
0000
0000
0001
0000
0000
0001
0000
,
0010
0100
1000
0000
1000
0001
0100
0000
,
0010
1000
0010
0000
1000
0100
0010
0000
,
0001
0001
0001
0000
1000
0010
0001
0100
,
1000
1000
1000
0000
1100
0000
0101
0000
,
0010
1000
0010
0000
1000
0100
0010
0000
,
0001
0010
0100
0000
1000
0100
1000
0000
,
1000
1000
0001
0001
0100
0100
0010
0020
,
0000
0001
0100
1000
,
0200
0000
0000
0000
0330
0000
1000
1000
,
0001
1000
1000
0001
0010
0100
1000
0000
,
0010
0100
0100
0010
1000
0100
0010
0001
,
0000
1000
0001
0100
0010
1000
0001
1000
,
0002
0010
1000
0103
,
1000
0100
0010
0100
1000
0010
1000
0000
,
0100
1000
0010
0100
0001
0100
0010
1000
,
0000
0100
0010
0100
1000
0001
0100
0010
,
0200
0302
0023
0230
,
1300
0000
0100
0000
1000
0000
0100
0000
1000
0000
0100
0000
1000
0000
0100
0000
1000
0000
0100
0000
0000
0100
0000
0000
,
0010
0001
0100
0010
1000
0100
0010
0000
,
0100
0100
0100
0100
0100
0100
0100
0000
,
1000
0001
0001
1000
0010
0100
0001
0000
,
0100
0010
1000
1010
,
1000
0100
0100
1000
0100
0100
1000
0010
,
0100
0001
0100
0110
,
2002
0000
0000
3003
;
