#TITLE:Your Love Is My Drug;
#SUBTITLE:;
#ARTIST:Ke$ha;
#TITLETRANSLIT:;
#SUBTITLETRANSLIT:;
#ARTISTTRANSLIT:;
#GENRE:;
#CREDIT:Chewphoria~;
#MENUCOLOR:;
#METERTYPE:DDR;
#BANNER:Your Love Is My Drug.PNG;
#BACKGROUND:Your Love Is My Drug-bg.PNG;
#LYRICSPATH:;
#CDTITLE:;
#MUSIC:Your Love Is My Drug.mp3;
#OFFSET:-8.390;
#SAMPLESTART:40.146;
#SAMPLELENGTH:12.000;
#SELECTABLE:YES;
#LISTSORT:;
#BPMS:0.000=120.010;
#STOPS:;
#BGCHANGES:;
#ATTACKS:;

//---------------dance-single - Chewphoria~----------------
#NOTES:
     dance-single:
     Chewphoria~:
     Hard:
     7:
     0.263,0.301,0.047,0.047,0.000: // measure 1
0001
0000
1000
0000
,  // measure 2
0001
0000
1000
0000
0001
0010
0100
0000
,  // measure 3
1000
0000
0100
0000
,  // measure 4
1000
0100
0001
0010
,  // measure 5
1000
1000
0100
0100
,  // measure 6
0001
0100
1000
0010
,  // measure 7
0001
0001
0010
0010
,  // measure 8
1000
0100
0001
0010
,  // measure 9
2000
0000
3200
0000
,  // measure 10
0302
0000
0203
0000
,  // measure 11
1300
0010
1000
0001
,  // measure 12
1000
0000
0001
0010
0100
0000
1100
0000
,  // measure 13
1000
0100
0001
0100
,  // measure 14
0010
0000
0010
0000
0010
0000
0100
0010
,  // measure 15
0100
0100
0100
0100
,  // measure 16
0010
1000
0001
0000
,  // measure 17
1000
0000
1000
0010
0100
0000
0101
0000
,  // measure 18
0000
0000
0001
1000
0100
0000
0000
0000
,  // measure 19
0001
0000
0001
0010
0100
0000
0100
1000
,  // measure 20
0010
0010
0110
0000
,  // measure 21
0001
0100
0010
0000
0010
1000
0100
0000
,  // measure 22
0100
0010
0100
1000
0001
1000
0001
0000
,  // measure 23
0001
0101
0100
1100
,  // measure 24
0010
0100
0010
0000
1000
0001
1000
0001
,  // measure 25
0002
0000
0100
0103
,  // measure 26
0010
0001
0010
0000
,  // measure 27
0100
1000
0100
0001
,  // measure 28
0010
1000
0010
0000
,  // measure 29
0100
0001
0100
1000
,  // measure 30
0010
0001
0010
0000
,  // measure 31
0100
1000
0100
0001
,  // measure 32
0010
1000
0010
0000
,  // measure 33
0100
0001
0100
1000
,  // measure 34
0001
1000
0001
1000
,  // measure 35
0001
0010
0100
0000
1000
0000
0100
0000
,  // measure 36
0001
0010
0001
0010
,  // measure 37
0001
0100
1000
0010
,  // measure 38
1000
0010
0001
0010
,  // measure 39
1000
0001
1000
0001
0100
0000
0010
0000
,  // measure 40
0100
0010
0100
0010
1000
0000
0000
0000
,  // measure 41
1000
0100
0001
0010
,  // measure 42
1000
0010
1000
0010
,  // measure 43
0100
0001
0100
1000
,  // measure 44
0010
0001
0010
0010
,  // measure 45
0100
1000
0100
0001
,  // measure 46
0010
1000
0010
0010
;

//---------------dance-single - Chewphoria~----------------
#NOTES:
     dance-single:
     Chewphoria~:
     Beginner:
     1:
     0.068,0.085,0.000,0.000,0.000:
1000
0000
0000
0000
,
0001
0000
0000
0000
,
1000
0000
0000
0000
,
0001
0000
0000
0000
,
0001
0000
0100
0000
,
0000
0000
0000
0000
,
1000
0000
0100
0000
,
0000
0000
0000
0000
,
0010
0000
0000
0000
,
0100
0000
0000
0000
,
1000
0000
0000
0000
,
0001
0000
0000
0000
,
0010
0000
0000
0000
,
0100
0000
0000
0000
,
1000
0000
0000
0000
,
1000
0000
0000
0000
,
0000
0001
0000
0000
,
0001
0000
0000
0000
,
0000
1000
0000
0000
,
1000
0000
0000
0000
,
0001
0000
0000
0000
,
0100
0000
1000
0000
,
1000
0000
0000
0000
,
0100
0000
0001
0000
,
0001
0000
0000
0000
,
1000
0000
0000
0000
,
0010
0000
0000
0000
,
0100
0000
0000
0000
,
0001
0000
0000
0000
,
0010
0000
0000
0000
,
0010
0000
0000
0000
,
0001
0000
0000
0000
,
0100
0000
0000
0000
,
1000
0000
0000
0000
,
0001
0000
0010
0000
,
0001
0000
0000
0000
,
1000
0000
0000
0000
,
0100
0000
1000
0000
,
0100
0000
0000
0000
,
0010
0000
0100
0000
,
0010
0000
0000
0000
,
0100
0000
0000
0000
,
0001
0000
0000
0000
,
0001
0000
0000
0000
,
1000
0000
0000
0000
,
1000
0000
0000
0000
;

//---------------dance-single - Chewphoria~----------------
#NOTES:
     dance-single:
     Chewphoria~:
     Easy:
     3:
     0.137,0.150,0.019,0.132,0.000: // measure 1
1000
0000
0001
0000
,  // measure 2
1000
0000
0001
0000
,  // measure 3
1000
0000
0010
0000
,  // measure 4
1000
0000
0010
0000
,  // measure 5
0001
0000
1000
0000
,  // measure 6
0001
0000
1000
0000
,  // measure 7
0001
0000
0100
0000
,  // measure 8
0001
0000
0100
0000
,  // measure 9
0002
0000
0003
0000
,  // measure 10
2000
0000
3000
0000
,  // measure 11
0001
0000
0100
0000
,  // measure 12
1000
0001
1001
0000
,  // measure 13
2000
0000
3000
0000
,  // measure 14
0002
0000
0003
0000
,  // measure 15
0001
0000
1000
0001
,  // measure 16
1001
0000
0000
0000
,  // measure 17
0100
0100
0100
0000
,  // measure 18
2000
0000
3000
0000
,  // measure 19
0100
0100
0100
0000
,  // measure 20
0002
0000
0003
0000
,  // measure 21
0010
0010
0010
0000
,  // measure 22
2000
0000
3000
0000
,  // measure 23
0010
0010
0010
0000
,  // measure 24
0002
0000
0003
0000
,  // measure 25
0000
0001
0000
0000
,  // measure 26
1000
0000
0001
0000
,  // measure 27
1000
0000
0001
0000
,  // measure 28
0010
0000
0010
0000
,  // measure 29
1000
0000
0001
0000
,  // measure 30
0010
0000
0010
0000
,  // measure 31
0001
0000
1000
0000
,  // measure 32
0100
0000
0000
0000
,  // measure 33
2000
0000
3000
0000
,  // measure 34
0002
0000
0003
0000
,  // measure 35
2000
0000
3000
0000
,  // measure 36
0020
0000
0000
0030
,  // measure 37
0010
0010
0010
0000
,  // measure 38
2000
0000
3000
0000
,  // measure 39
0010
0010
0010
0000
,  // measure 40
0002
0000
0003
0000
,  // measure 41
1000
0000
1000
0010
,  // measure 42
1000
0000
0010
0000
,  // measure 43
0001
0000
0001
0100
,  // measure 44
0001
0000
0100
0000
,  // measure 45
1000
0000
1000
0100
,  // measure 46
1000
0000
0100
0000
;

//---------------dance-single - Chewphoria~----------------
#NOTES:
     dance-single:
     Chewphoria~:
     Medium:
     5:
     0.224,0.236,0.047,0.085,0.000: // measure 1
0001
0000
1000
0000
,  // measure 2
0001
0001
1000
1000
,  // measure 3
0001
0000
1000
0000
,  // measure 4
1000
1000
0001
0001
,  // measure 5
0001
1000
0001
0010
,  // measure 6
0001
0000
0010
0000
,  // measure 7
1000
0001
1000
0100
,  // measure 8
1000
0000
0010
0000
,  // measure 9
2000
0000
3002
0000
,  // measure 10
2003
0000
3002
0000
,  // measure 11
1003
0100
1000
0000
,  // measure 12
1000
0100
0010
0000
0011
0000
0000
0000
,  // measure 13
0002
0000
2003
0000
,  // measure 14
3002
0000
2003
0000
,  // measure 15
3001
0000
0100
0000
0001
0100
0001
0000
,  // measure 16
1000
0000
0010
0000
1000
0010
1000
0000
,  // measure 17
1000
0100
0010
0000
0011
0000
0011
0000
,  // measure 18
0000
0000
0100
0000
,  // measure 19
0001
0100
0010
0000
1010
0000
1010
0000
,  // measure 20
0000
0000
0010
0000
,  // measure 21
1000
0100
0010
0010
,  // measure 22
1000
0001
1000
0000
,  // measure 23
0001
0100
0010
0010
,  // measure 24
0100
0001
1000
0000
,  // measure 25
0000
0100
0010
0000
0100
0000
0000
0000
,  // measure 26
0001
0001
1000
1000
,  // measure 27
0000
0001
1000
0000
0100
0000
0100
0000
,  // measure 28
0000
1000
0100
0010
0001
1000
0000
0000
,  // measure 29
1000
0001
0100
0000
,  // measure 30
0001
0100
0010
0000
,  // measure 31
1000
1000
0001
0000
,  // measure 32
0001
0010
0000
0000
,  // measure 33
1000
0000
0100
1000
0000
0000
0000
0000
,  // measure 34
0001
0000
0010
0001
1000
0000
0000
0000
,  // measure 35
0000
0100
0010
0000
0000
0001
0100
0000
,  // measure 36
0000
0010
0100
0000
1000
0001
1000
0000
,  // measure 37
1000
0100
0010
0001
1000
0000
0000
0000
,  // measure 38
0001
0001
0010
0000
,  // measure 39
0001
0001
0001
1000
,  // measure 40
1000
0010
0010
0001
,  // measure 41
1000
0100
0001
0100
,  // measure 42
1000
0000
0100
1000
0001
0000
0000
0000
,  // measure 43
0010
1000
0100
0001
,  // measure 44
0010
0001
0010
0000
,  // measure 45
0010
0001
0100
2000
,  // measure 46
0000
0000
0000
3000
;
