#TITLE:Young Forever;
#SUBTITLE:;
#ARTIST:The Ready Set;
#TITLETRANSLIT:;
#SUBTITLETRANSLIT:;
#ARTISTTRANSLIT:;
#GENRE:;
#CREDIT:Chewi☆;
#MENUCOLOR:;
#METERTYPE:DDR X;
#BANNER:Young Forever.png;
#BACKGROUND:Young Forever-bg.png;
#LYRICSPATH:;
#CDTITLE:;
#MUSIC:Young Forever.mp3;
#OFFSET:-0.549;
#SAMPLESTART:46.604;
#SAMPLELENGTH:15.000;
#SELECTABLE:YES;
#LISTSORT:;
#BPMS:0.000=125.000;
#STOPS:;
#BGCHANGES:;
#ATTACKS:;

//---------------dance-single - Chewi----------------
#NOTES:
     dance-single:
     Chewi:
     Hard:
     12:
     0.513,0.566,0.645,0.075,0.172: // measure 1
0000
0000
0000
0000
,  // measure 2
0000
0000
0000
0000
,  // measure 3
0000
0000
0000
0000
,  // measure 4
0000
0000
0000
0000
,  // measure 5
1000
0100
0010
0001
,  // measure 6
1000
0100
0001
0100
,  // measure 7
0001
0100
0010
1000
,  // measure 8
1000
0010
0001
0010
,  // measure 9
0001
0000
0010
0001
0000
0000
0010
0000
0100
0000
1000
0000
0010
0000
1000
0000
,  // measure 10
0100
0000
0010
0100
0000
0000
1000
0000
1100
0000
0000
0000
0000
0000
0000
0000
,  // measure 11
1000
0001
1000
0010
0100
0001
0100
0010
,  // measure 12
1000
0001
1000
0100
1100
0000
0000
0000
,  // measure 13
1000
0000
0100
0010
0000
0000
0100
0000
1000
0000
0010
0000
0100
0000
0001
0000
,  // measure 14
0100
0010
0000
0000
1000
0000
0001
0000
1001
0000
0000
0000
0000
0000
0000
0000
,  // measure 15
0001
1000
0010
0100
0010
1000
0001
1000
,  // measure 16
0100
0010
0001
0010
1100
0101
1100
0000
,  // measure 17
1100
0000
0000
0011
0000
0000
0000
0000
0101
0000
0000
1010
0000
0000
0000
0000
,  // measure 18
1000
0001
1000
0000
0001
1000
0001
0000
0100
0000
0010
0000
0010
0000
0000
0000
,  // measure 19
1010
0000
0000
0101
0000
0000
0000
0000
1100
0000
0000
0011
0000
0000
0000
0000
,  // measure 20
0001
0010
0100
0000
1000
0100
1000
0000
0010
0000
0100
0000
0100
0000
0000
0000
,  // measure 21
1010
0000
0000
0101
0000
0000
0000
0000
1001
0000
0000
1001
0000
0000
0000
0000
,  // measure 22
1000
1100
0010
0011
1000
0001
1001
0100
,  // measure 23
1100
0000
1001
0010
0011
0000
0002
0023
,  // measure 24
0230
2300
3020
0230
0302
0000
0003
0000
,  // measure 25
0101
0000
0101
0000
0001
0010
0100
1000
,  // measure 26
0010
1000
0000
0000
1000
0100
0010
0001
,  // measure 27
0010
0000
0100
0000
1000
0000
0010
0000
1001
0000
0000
0101
0000
0000
0110
0000
,  // measure 28
0000
0000
0000
0000
0000
1000
0010
0100
,  // measure 29
0101
0000
0011
0000
0100
0001
0010
0100
,  // measure 30
1000
1010
0000
0000
1000
0100
0010
0001
,  // measure 31
0010
0000
0100
0000
1000
0000
0001
0000
1001
0000
0000
1001
0000
0000
1100
0000
,  // measure 32
0000
0101
0000
1010
0000
0011
1010
0010
,  // measure 33
1100
0000
1010
0010
0101
0000
0100
0010
,  // measure 34
1000
0000
0001
0000
1000
0100
0010
0001
0010
0000
0000
0000
0101
0000
0010
0000
,  // measure 35
0011
0000
1100
0010
1010
0000
0100
0010
,  // measure 36
1000
0000
0100
0000
0010
0001
0010
0100
1000
0000
0100
0000
1000
0000
0010
0000
,  // measure 37
1100
0000
0011
0000
1000
1100
0001
0101
,  // measure 38
0100
0110
0000
0000
0100
0010
1000
1010
,  // measure 39
0001
0011
1000
0100
0011
1100
0000
0101
,  // measure 40
0000
1001
1001
0000
0000
0110
0110
0000
,  // measure 41
0001
0000
0000
0010
0100
0000
1000
0000
0010
1000
0100
0000
1000
0000
0000
0000
,  // measure 42
0010
0000
0000
0010
0100
0000
0001
0000
0100
0001
0010
0000
0100
0000
0000
0000
,  // measure 43
1000
0000
0000
1000
0001
0000
1000
0000
0010
0100
0001
0000
0100
0000
0000
0000
,  // measure 44
0010
0000
0000
0010
1000
0000
0001
0000
1000
0100
0010
0000
0001
0000
0000
0000
,  // measure 45
1000
0100
1000
0000
0001
0000
0000
0000
1000
0010
1000
0000
0001
0000
0000
0000
,  // measure 46
0001
0100
0001
0000
1000
0000
0000
0000
0001
1000
0001
0000
0010
0000
0000
0000
;

//---------------dance-single - Chewi----------------
#NOTES:
     dance-single:
     Chewi:
     Medium:
     7:
     0.299,0.344,0.204,0.000,0.032: // measure 1
0000
0000
0000
0000
,  // measure 2
0000
0000
0000
0000
,  // measure 3
0000
0000
0000
0000
,  // measure 4
0000
0000
0000
0000
,  // measure 5
1000
0100
1000
0100
,  // measure 6
1000
0010
1000
0010
,  // measure 7
0100
0010
0100
0010
,  // measure 8
0100
0001
0100
0001
,  // measure 9
1001
0000
1000
0000
1000
0100
1000
0000
,  // measure 10
0001
0010
0100
0000
,  // measure 11
0110
0000
0100
0000
0010
0100
0010
0000
,  // measure 12
0001
0010
0100
0000
,  // measure 13
1100
0000
0100
0000
1000
0100
1000
0000
,  // measure 14
0010
0100
0001
0000
,  // measure 15
0101
0000
0100
0000
0010
0100
0001
0000
,  // measure 16
1000
0100
0010
0000
,  // measure 17
0001
0000
0000
1000
0000
0000
0000
0000
1000
0000
0000
0001
0000
0000
0000
0000
,  // measure 18
0100
0000
0010
0000
0100
0010
0100
0000
,  // measure 19
0010
0000
0000
0100
0000
0000
0000
0000
0100
0000
0000
0010
0000
0000
0000
0000
,  // measure 20
1000
0000
0010
0000
0100
0001
0100
0000
,  // measure 21
0001
0000
0000
1000
0000
0000
0000
0000
1000
0000
0000
0001
0000
0000
0000
0000
,  // measure 22
1000
0100
1000
0000
0100
0000
0010
0000
,  // measure 23
0011
1000
1100
1000
,  // measure 24
1001
1001
1001
0000
,  // measure 25
1000
0000
0001
0000
1000
0001
1000
0001
,  // measure 26
1000
0001
0000
0000
0100
0000
0010
0100
,  // measure 27
0010
0000
1000
0010
0000
0100
0000
0001
,  // measure 28
0000
0000
0000
0000
,  // measure 29
1000
0000
0001
0000
0010
0100
0010
0001
,  // measure 30
0010
0001
0000
0000
0001
0000
0010
0000
,  // measure 31
0100
0000
1000
0010
0100
0000
0001
0000
,  // measure 32
0101
1100
0101
1100
,  // measure 33
0010
0100
1000
0010
,  // measure 34
0100
0001
0100
0000
0010
0000
0000
0000
,  // measure 35
1000
0100
0010
0001
,  // measure 36
0010
0000
0100
0000
1000
0001
0100
0000
,  // measure 37
0010
0000
0010
0000
0100
0010
0100
0000
,  // measure 38
0100
0000
0100
0000
0010
0100
0010
0000
,  // measure 39
0010
1000
0100
0001
,  // measure 40
0010
0100
1000
0010
,  // measure 41
0110
0000
0000
0000
0100
0010
1000
0000
,  // measure 42
0100
1001
0010
1001
,  // measure 43
0110
0000
0010
0000
,  // measure 44
0100
0010
0001
0000
0010
0100
1000
0000
,  // measure 45
0001
1001
0010
0100
,  // measure 46
1000
1100
0010
0001
;

//---------------dance-single - Chewi----------------
#NOTES:
     dance-single:
     Chewi:
     Beginner:
     2:
     0.100,0.147,0.097,0.000,0.000: // measure 1
0000
0000
0000
0000
,  // measure 2
0000
0000
0000
0000
,  // measure 3
0000
0000
0000
0000
,  // measure 4
0000
0000
0000
0000
,  // measure 5
1000
0000
0000
0000
,  // measure 6
0001
0000
0000
0000
,  // measure 7
0100
0000
0000
0000
,  // measure 8
0010
0000
0000
0000
,  // measure 9
0010
0000
1000
0000
,  // measure 10
0010
0000
0000
0000
,  // measure 11
0010
0000
0001
0000
,  // measure 12
0010
0000
0000
0000
,  // measure 13
1000
0000
0001
0000
,  // measure 14
0100
0000
0000
0000
,  // measure 15
0010
0000
0100
0000
,  // measure 16
0001
0000
0000
0000
,  // measure 17
1001
0000
0000
0000
,  // measure 18
1000
0000
0000
0000
,  // measure 19
0110
0000
0000
0000
,  // measure 20
0010
0000
0000
0000
,  // measure 21
0110
0000
0000
0000
,  // measure 22
0010
0000
0000
0000
,  // measure 23
0001
0000
0000
0000
,  // measure 24
0100
0000
0000
0000
,  // measure 25
1001
0000
0000
0000
,  // measure 26
0100
0000
0000
0000
,  // measure 27
0110
0000
0000
0000
,  // measure 28
0010
0000
0000
0000
,  // measure 29
1001
0000
0000
0000
,  // measure 30
1000
0000
0000
0000
,  // measure 31
0110
0000
0000
0000
,  // measure 32
0100
0000
0000
0000
,  // measure 33
1000
0000
0001
0000
,  // measure 34
1000
0000
1000
0000
,  // measure 35
0100
0000
0010
0000
,  // measure 36
0001
0000
0001
0000
,  // measure 37
0001
0000
1000
0000
,  // measure 38
0010
0000
0010
0000
,  // measure 39
0100
0000
0010
0000
,  // measure 40
1000
0000
0001
0000
,  // measure 41
1001
0000
0000
0000
,  // measure 42
0100
0000
0000
0000
,  // measure 43
1001
0000
0000
0000
,  // measure 44
0010
0000
0000
0000
,  // measure 45
0100
0000
0100
0000
,  // measure 46
0100
0000
0100
0000
;

//---------------dance-single - Chewi----------------
#NOTES:
     dance-single:
     Chewi:
     Easy:
     3:
     0.155,0.220,0.097,0.043,0.000: // measure 1
0000
0000
0000
0000
,  // measure 2
0000
0000
0000
0000
,  // measure 3
0000
0000
0000
0000
,  // measure 4
0000
0000
0000
0000
,  // measure 5
1000
1000
1000
0000
,  // measure 6
0001
0001
0001
0000
,  // measure 7
0100
0100
0100
0000
,  // measure 8
0010
0010
0010
0000
,  // measure 9
0010
0000
1000
0000
,  // measure 10
0010
0001
0010
0000
,  // measure 11
0010
0000
0001
0000
,  // measure 12
0010
1000
0010
0000
,  // measure 13
1000
0000
0001
0000
,  // measure 14
0100
0010
0100
0000
,  // measure 15
0010
0000
0100
0000
,  // measure 16
0001
1000
0001
0000
,  // measure 17
1001
0000
1000
0000
,  // measure 18
1000
0001
1000
0001
,  // measure 19
0110
0000
0100
0000
,  // measure 20
0010
0100
0010
0100
,  // measure 21
0110
0000
0010
0000
,  // measure 22
0010
0100
0010
0100
,  // measure 23
0001
0000
0010
0000
,  // measure 24
0100
0000
1000
0000
,  // measure 25
1001
0000
0000
0000
,  // measure 26
0100
0000
0000
0000
,  // measure 27
0110
0000
0000
0000
,  // measure 28
0010
0000
0000
0000
,  // measure 29
1001
0000
0000
0000
,  // measure 30
1000
0000
0000
0000
,  // measure 31
0110
0000
0000
0000
,  // measure 32
0100
0000
0000
0000
,  // measure 33
1000
0000
0001
0000
,  // measure 34
1000
0100
1000
0000
,  // measure 35
0100
0000
0010
0000
,  // measure 36
0001
0010
0001
0000
,  // measure 37
0001
0000
1000
0000
,  // measure 38
0010
0100
0010
0000
,  // measure 39
0100
0000
0010
0000
,  // measure 40
1000
0010
0001
0000
,  // measure 41
2002
0000
0000
0000
,  // measure 42
0000
0000
0000
3003
,  // measure 43
2002
0000
0000
0000
,  // measure 44
0000
0000
0000
3003
,  // measure 45
0100
0000
0100
0000
,  // measure 46
0100
0000
0100
0000
;
