#TITLE:You Belong With Me;
#SUBTITLE:;
#ARTIST:Taylor Swift;
#TITLETRANSLIT:;
#SUBTITLETRANSLIT:;
#ARTISTTRANSLIT:;
#CREDIT:Chewi☆;
#BANNER:You Belong With Me.png;
#BACKGROUND:You Belong With Me-bg.png;
#LYRICSPATH:;
#CDTITLE:;
#MUSIC:You Belong With Me.mp3;
#OFFSET:-0.352;
#SAMPLESTART:51.346;
#SAMPLELENGTH:15.000;
#SELECTABLE:YES;
#DISPLAYBPM:130.000;
#BPMS:0.000=130.000;
#STOPS:;
#BGCHANGES:;

//---------------dance-single - Chewi----------------
#NOTES:
     dance-single:
     Chewi:
     Hard:
     10:
     0.387,0.464,0.156,0.074,0.000: // measure 1
0000
0000
0000
0000
,  // measure 2
0000
0000
0000
0000
,  // measure 3
0000
0000
0000
0000
,  // measure 4
0000
0000
0000
0000
,  // measure 5
2000
0000
3001
1000
0010
0000
0100
0001
,  // measure 6
1000
0000
0001
0000
1000
0100
0000
0100
,  // measure 7
0000
0000
0100
1000
0010
0100
0001
0000
,  // measure 8
0100
0100
0000
0010
0000
1000
0000
0001
,  // measure 9
0000
0000
0001
0000
0010
0100
0000
0000
,  // measure 10
1000
0010
0000
0100
0000
0010
1000
0000
,  // measure 11
1001
0000
0110
0000
,  // measure 12
0000
0000
0000
0000
,  // measure 13
0002
0000
0013
0100
1000
0000
0010
0100
,  // measure 14
0001
0100
0010
0000
1000
0010
0000
0100
,  // measure 15
0000
0001
0010
0100
1000
0010
1000
0100
,  // measure 16
0010
0100
1000
0000
0010
0010
0000
0100
,  // measure 17
0000
0001
0100
0000
0010
1000
0000
0000
,  // measure 18
0001
1000
0000
1000
0000
0001
0010
0000
,  // measure 19
0110
0000
1001
0000
,  // measure 20
0000
0000
0000
0000
,  // measure 21
1000
0100
0010
0000
0001
0100
0010
0000
,  // measure 22
1000
0001
1000
0000
0001
1000
0001
0000
,  // measure 23
0100
1000
0010
0000
0001
0100
0010
0000
,  // measure 24
0001
0100
0010
0000
0100
0001
0010
0000
,  // measure 25
0100
0010
0100
0010
0001
0000
1000
0000
,  // measure 26
0010
0100
0010
0100
0001
0000
1000
0000
,  // measure 27
1001
0000
0110
0000
,  // measure 28
1001
0000
0110
0000
,  // measure 29
0002
0100
1000
0103
,  // measure 30
1000
0100
0001
0100
1000
0100
0001
0100
,  // measure 31
2000
0010
0001
3010
,  // measure 32
0001
0010
1000
0010
0001
0010
1000
0010
,  // measure 33
1000
0010
1010
0000
0001
0010
0011
0000
,  // measure 34
1000
0100
0010
0000
0001
0100
0010
0000
,  // measure 35
1000
0001
1001
0000
0001
1000
1001
0000
,  // measure 36
1000
0100
0010
0000
0001
0100
0010
0000
,  // measure 37
0020
0001
0100
1030
,  // measure 38
1000
0100
0010
0100
1000
0010
1000
0000
,  // measure 39
0200
0001
1000
0301
,  // measure 40
0100
1000
0010
0001
0010
1000
0010
0100
,  // measure 41
0001
0100
0101
0000
1000
0100
1100
0000
,  // measure 42
0001
1000
0010
0000
1000
0001
0010
0000
,  // measure 43
0100
0010
0110
0000
0010
0100
0110
0000
,  // measure 44
0100
0010
0001
0100
0010
1000
0001
1000
,  // measure 45
0001
0100
0010
0100
0001
0100
0010
0100
,  // measure 46
0001
0010
0100
1000
0001
0010
0100
1000
,  // measure 47
0010
1000
0100
1000
0010
1000
0100
1000
,  // measure 48
0100
0010
0001
1000
0100
0010
0001
1000
,  // measure 49
0010
1000
0100
1000
0010
1000
0100
1000
,  // measure 50
0010
0100
0001
1000
0010
0100
0001
0100
,  // measure 51
0010
0100
0001
0100
0010
0100
0001
0010
,  // measure 52
0100
1000
0001
0010
0100
1000
0001
1000
,  // measure 53
2002
0000
0000
0000
,  // measure 54
0000
0000
0000
0000
,  // measure 55
0000
0000
0000
0000
,  // measure 56
0000
0000
0000
0000
,  // measure 57
3003
0000
0000
0000
;

//---------------dance-single - Chewi----------------
#NOTES:
     dance-single:
     Chewi:
     Medium:
     7:
     0.302,0.361,0.138,0.341,0.000: // measure 1
0000
0000
0000
0000
,  // measure 2
0000
0000
0000
0000
,  // measure 3
0000
0000
0000
0000
,  // measure 4
0000
0000
0000
0000
,  // measure 5
1000
0100
0001
0010
,  // measure 6
1000
0100
1000
0100
,  // measure 7
1000
0010
0001
0100
,  // measure 8
1000
0010
1000
0010
,  // measure 9
0100
0010
1001
0000
,  // measure 10
0010
0100
1001
0000
,  // measure 11
2000
3000
0002
0003
,  // measure 12
0000
0000
0000
0000
,  // measure 13
0001
0100
1000
0010
,  // measure 14
0001
0010
0001
0010
,  // measure 15
1000
0100
0001
0010
,  // measure 16
0001
0010
0001
0010
,  // measure 17
0100
0010
1001
0000
,  // measure 18
0100
0010
1001
0000
,  // measure 19
0020
0030
0200
0300
,  // measure 20
0000
0000
0000
0000
,  // measure 21
2000
3100
0002
0103
,  // measure 22
2000
3010
0002
0013
,  // measure 23
2000
3001
0002
1003
,  // measure 24
0010
0100
0010
0100
,  // measure 25
0002
0103
2000
3100
,  // measure 26
0002
0013
2000
3010
,  // measure 27
0020
0130
0200
0310
,  // measure 28
0110
0000
1001
0000
,  // measure 29
1000
0000
1000
0000
1000
0000
1000
0100
,  // measure 30
0010
0000
0010
0000
0010
0000
0010
0001
,  // measure 31
0100
0000
0100
0000
0100
0000
0100
0010
,  // measure 32
1000
1000
1000
1000
,  // measure 33
2002
0000
0000
3003
0000
0000
1001
0000
,  // measure 34
0000
1000
0100
0010
,  // measure 35
0022
0000
0000
0033
0000
0000
0011
0000
,  // measure 36
1000
0001
1000
1001
,  // measure 37
0001
0000
0001
0000
0001
0000
0001
0100
,  // measure 38
0010
0000
0010
0000
0010
0000
0010
1000
,  // measure 39
0100
0000
0100
0000
0100
0000
0100
0010
,  // measure 40
0100
0100
0100
1000
,  // measure 41
2002
0000
0000
3003
0000
0000
1001
0000
,  // measure 42
0000
1000
0010
0100
,  // measure 43
0202
0000
0000
0303
0000
0000
0101
0000
,  // measure 44
0000
0100
0010
1000
,  // measure 45
0001
0000
0001
1000
0001
0000
1000
0001
,  // measure 46
1000
2000
3020
0230
,  // measure 47
0301
0000
0001
0100
0001
0000
0001
0100
,  // measure 48
0001
0200
0320
2030
,  // measure 49
3001
0000
1000
0001
1000
0000
1000
0001
,  // measure 50
1000
0002
0023
0230
,  // measure 51
1300
0000
0100
1000
0100
0000
1000
0100
,  // measure 52
1000
0200
2300
3020
,  // measure 53
0230
0000
0000
0000
,  // measure 54
0000
0000
0000
0000
,  // measure 55
0000
0000
0000
0000
,  // measure 56
0000
0000
0000
0000
,  // measure 57
0000
0300
0000
0000
0000
0000
0000
0000
0000
0000
0000
0000
0000
0000
0000
0000
0000
0000
0000
0000
0000
0000
0000
0000
0000
0000
0000
0000
0000
0000
0000
0000
0000
0000
0000
0000
0000
0000
0000
0000
0000
0000
0000
0000
0000
0000
0000
0000
0000
0000
0000
0000
0000
0000
0000
0000
0000
0000
0000
0000
0000
0000
0000
0000
0000
0000
0000
0000
0000
0000
0000
0000
0000
0000
0000
0000
0000
0000
0000
0000
0000
0000
0000
0000
0000
0000
0000
0000
0000
0000
0000
0000
0000
0000
0000
0000
0000
0000
0000
0000
0000
0000
0000
0000
0000
0000
0000
0000
0000
0000
0000
0000
0000
0000
0000
0000
0000
0000
0000
0000
0000
0000
0000
0000
0000
0000
0000
0000
0000
0000
0000
0000
0000
0000
0000
0000
0000
0000
0000
0000
0000
0000
0000
0000
0000
0000
0000
0000
0000
0000
0000
0000
0000
0000
0000
0000
0000
0000
0000
0000
0000
0000
0000
0000
0000
0000
0000
0000
0000
0000
0000
0000
0000
0000
0000
0000
0000
0000
0000
0000
0000
0000
0000
0000
0000
0000
0000
0000
0000
0000
0000
0000
;

//---------------dance-single - Chewi----------------
#NOTES:
     dance-single:
     Chewi:
     Easy:
     4:
     0.183,0.258,0.009,0.101,0.000: // measure 1
0000
0000
0000
0000
,  // measure 2
0000
0000
0000
0000
,  // measure 3
0000
0000
0000
0000
,  // measure 4
0000
0000
0000
0000
,  // measure 5
2000
0000
0000
3000
,  // measure 6
1000
0001
1000
0000
,  // measure 7
0002
0000
0000
0003
,  // measure 8
0001
1000
0001
0000
,  // measure 9
1000
0000
0100
0000
,  // measure 10
0001
0000
0010
0000
,  // measure 11
1000
0000
0001
0000
,  // measure 12
0000
0000
0000
0000
,  // measure 13
0002
0000
0000
0003
,  // measure 14
0001
1000
0001
0000
,  // measure 15
2000
0000
0000
3000
,  // measure 16
1000
0001
1000
0000
,  // measure 17
0001
0000
0100
0000
,  // measure 18
1000
0000
0010
0000
,  // measure 19
0001
0000
0100
0000
,  // measure 20
0000
0000
0000
0000
,  // measure 21
0010
1000
0100
0000
,  // measure 22
0010
0001
0100
0000
,  // measure 23
0010
1000
0100
0000
,  // measure 24
0010
0001
0100
0000
,  // measure 25
1000
1000
1000
1000
,  // measure 26
0001
0001
0001
0001
,  // measure 27
2002
0000
0000
0000
,  // measure 28
0000
0000
0000
3003
,  // measure 29
0001
0100
0010
0001
,  // measure 30
0100
0010
0001
0100
,  // measure 31
1000
0010
0100
1000
,  // measure 32
0010
0100
1000
0010
,  // measure 33
0200
0000
0000
0300
,  // measure 34
0000
0010
0100
0010
,  // measure 35
0020
0000
0000
0030
,  // measure 36
0000
0000
0000
0000
,  // measure 37
1000
0100
0010
1000
,  // measure 38
0100
0010
1000
0100
,  // measure 39
0001
0010
0100
0001
,  // measure 40
0010
0100
0001
0010
,  // measure 41
0020
0000
0000
0030
,  // measure 42
0000
0100
0010
0100
,  // measure 43
0200
0000
0000
0300
,  // measure 44
0000
1000
0100
0010
,  // measure 45
0001
0001
0001
0001
,  // measure 46
0001
0001
0001
0001
,  // measure 47
1000
1000
1000
1000
,  // measure 48
1000
1000
1000
1000
,  // measure 49
0010
0010
0010
0010
,  // measure 50
0010
0010
0010
0010
,  // measure 51
0100
0100
0100
0100
,  // measure 52
0100
0100
0100
0100
,  // measure 53
0200
0000
0000
0000
,  // measure 54
0000
0000
0000
0000
,  // measure 55
0000
0000
0000
0000
,  // measure 56
0000
0000
0000
0000
,  // measure 57
0300
0000
0000
0000
;

//---------------dance-single - Chewi----------------
#NOTES:
     dance-single:
     Chewi:
     Beginner:
     2:
     0.105,0.155,0.009,0.101,0.000: // measure 1
0000
0000
0000
0000
,  // measure 2
0000
0000
0000
0000
,  // measure 3
0000
0000
0000
0000
,  // measure 4
0000
0000
0000
0000
,  // measure 5
2000
0000
0000
3000
,  // measure 6
1000
0000
0000
0000
,  // measure 7
0002
0000
0000
0003
,  // measure 8
0001
0000
0000
0000
,  // measure 9
1000
0000
0000
0000
,  // measure 10
0001
0000
0000
0000
,  // measure 11
1000
0000
0000
0000
,  // measure 12
0001
0000
0000
0000
,  // measure 13
0002
0000
0000
0003
,  // measure 14
0001
0000
0000
0000
,  // measure 15
2000
0000
0000
3000
,  // measure 16
1000
0000
0000
0000
,  // measure 17
0001
0000
0000
0000
,  // measure 18
1000
0000
0000
0000
,  // measure 19
0001
0000
0000
0000
,  // measure 20
1000
0000
0000
0000
,  // measure 21
0010
0000
0000
0000
,  // measure 22
0010
0000
0000
0000
,  // measure 23
0010
0000
0000
0000
,  // measure 24
0010
0000
0000
0000
,  // measure 25
1000
0000
0000
0000
,  // measure 26
0001
0000
0000
0000
,  // measure 27
2002
0000
0000
0000
,  // measure 28
0000
0000
0000
3003
,  // measure 29
0001
0000
0010
0000
,  // measure 30
0100
0000
0001
0000
,  // measure 31
1000
0000
0100
0000
,  // measure 32
0010
0000
1000
0000
,  // measure 33
0200
0000
0000
0300
,  // measure 34
0100
0000
0000
0000
,  // measure 35
0020
0000
0000
0030
,  // measure 36
0010
0000
0000
0000
,  // measure 37
1000
0000
0010
0000
,  // measure 38
0100
0000
1000
0000
,  // measure 39
0001
0000
0100
0000
,  // measure 40
0010
0000
0001
0000
,  // measure 41
0020
0000
0000
0030
,  // measure 42
0010
0000
0000
0000
,  // measure 43
0200
0000
0000
0300
,  // measure 44
0100
0000
0000
0000
,  // measure 45
0001
0001
0001
0000
,  // measure 46
0001
0000
0001
0000
,  // measure 47
1000
1000
1000
0000
,  // measure 48
1000
0000
1000
0000
,  // measure 49
0010
0010
0010
0000
,  // measure 50
0010
0000
0010
0000
,  // measure 51
0100
0100
0100
0000
,  // measure 52
0100
0000
0100
0000
,  // measure 53
0200
0000
0000
0000
,  // measure 54
0000
0000
0000
0000
,  // measure 55
0000
0000
0000
0000
,  // measure 56
0000
0000
0000
0000
,  // measure 57
0300
0000
0000
0000
;
