#TITLE:Yeah 3x;
#SUBTITLE:;
#ARTIST:Chris Brown;
#TITLETRANSLIT:;
#SUBTITLETRANSLIT:;
#ARTISTTRANSLIT:;
#GENRE:;
#CREDIT:Chewi☆;
#MENUCOLOR:#FFFF00;
#METERTYPE:DDR X;
#BANNER:Yeah 3x.png;
#BACKGROUND:Yeah 3x-bg.png;
#LYRICSPATH:;
#CDTITLE:./CDTITLES/DanceDanceRevolution skyMIX2 -FREEDOM-.png;
#MUSIC:Yeah 3x.mp3;
#OFFSET:-0.521;
#SAMPLESTART:52.233;
#SAMPLELENGTH:15.000;
#SELECTABLE:YES;
#LISTSORT:;
#DISPLAYBPM:130.000;
#BPMS:0.000=130.000;
#STOPS:;
#BGCHANGES:;
#ATTACKS:;

//---------------dance-single - Chewi----------------
#NOTES:
     dance-single:
     Chewi:
     Beginner:
     2:
     0.156,0.210,0.035,0.053,0.000:
0000
0000
0000
0000
,
0000
0000
0000
0000
,
0000
0000
0000
0000
,
0000
0000
0000
0000
,
1000
0000
0100
0000
,
0001
0000
0010
0000
,
0001
0000
0100
0000
,
1000
0000
0010
0000
,
0100
0000
0010
0000
,
0100
0000
0010
0000
,
1000
0000
0001
0000
,
1000
0000
0001
0000
,
0001
0000
0010
0000
,
1000
0000
0100
0000
,
1000
0000
0010
0000
,
0001
0000
0100
0000
,
0010
0000
0100
0000
,
0010
0000
0100
0000
,
0100
0000
0010
0000
,
0100
0000
0010
0000
,
2000
0000
0000
3000
,
1000
1000
1000
0000
,
0002
0000
0000
0003
,
0001
0001
0001
0000
,
0100
0000
0010
0000
,
1000
0000
0001
0000
,
0010
0010
0010
0000
,
0010
0010
0010
0000
,
0020
0000
0000
0030
,
0010
0000
0100
0000
,
0200
0000
0000
0300
,
0100
0000
0010
0000
,
2000
0000
0000
3000
,
1000
0000
0001
0000
,
0002
0000
0000
0003
,
0001
0000
1000
0000
,
0100
0100
0100
1000
,
0000
1000
1000
0000
,
0010
0010
0010
0000
,
0001
0001
0001
0000
,
0100
0100
0100
0000
,
0001
0001
0001
0000
,
0010
0010
0010
0000
,
1000
1000
1000
0000
,
1001
0000
1000
0000
,
0001
1000
0001
0000
,
0100
0000
0010
0000
,
0010
0010
0010
0000
,
0110
0000
0100
0000
,
0100
0010
0100
0000
,
1000
0000
0001
0000
,
1000
1000
1000
0000
,
1001
0000
0000
0000
,
0000
0000
0000
0000
,
0110
0000
0000
0000
,
0000
0000
0000
0000
,
1000
0000
0100
0000
,
0000
0000
0000
0000
,
0001
0000
0010
0000
,
0000
0000
1000
1000
,
1000
0000
0000
0000
;

//---------------dance-single - Chewphoria~----------------
#NOTES:
     dance-single:
     Chewphoria~:
     Easy:
     4:
     0.246,0.289,0.070,0.175,0.000:
0000
0000
0000
0000
,
0000
0000
0000
0000
,
0000
0000
0000
0000
,
0000
0000
0000
0000
,
2000
3100
0002
0103
,
0010
0100
0010
0100
,
0020
1030
0020
0031
,
0100
0010
0100
0010
,
0001
1000
0100
1000
,
1000
0001
0100
0001
,
0100
0010
1000
0001
,
0010
0100
1000
0001
,
0200
0000
0000
0300
,
0010
1000
0100
0001
,
0020
0000
0000
0030
,
0100
0010
0001
0100
,
1000
0100
1000
0100
,
0010
0001
0010
0001
,
1000
0001
1000
0001
,
0100
0010
0100
0010
,
0110
0010
0010
0010
,
0010
0010
0010
0010
,
1001
0001
0001
0001
,
0001
0001
0001
0001
,
0110
0100
0010
0100
,
1000
0001
1000
0001
,
1001
0001
1000
0001
,
0100
0010
0100
0010
,
0020
0000
1000
0200
,
0000
0000
0000
0330
,
0020
0000
0001
0200
,
0000
0000
0000
0330
,
2000
0000
0100
0002
,
0000
0000
0000
3003
,
0002
0000
0100
2000
,
0000
0000
0000
3003
,
0001
0010
1000
0010
,
0001
0010
1000
0010
,
0001
0100
1000
0100
,
0001
0100
1000
0100
,
0001
0010
0100
0001
,
0010
0100
0001
0010
,
1000
0100
0010
1000
,
0100
0010
1000
0100
,
2002
0000
0000
3003
,
0001
1000
0010
0000
,
0100
0100
1000
1000
,
0001
1000
0010
0000
,
0010
0010
0001
0001
,
0100
0010
0001
0100
,
0010
0010
0100
0010
,
0100
0110
1001
0000
,
2000
0000
0000
3001
,
0000
0000
0000
0000
,
0002
0000
0000
1003
,
0000
0000
0000
0000
,
0200
0000
0000
0310
,
0000
0000
0000
0000
,
0020
0000
0000
0130
,
0000
0000
0000
0000
,
0110
0000
0000
0000
;

//---------------dance-single - Chewphoria~----------------
#NOTES:
     dance-single:
     Chewphoria~:
     Medium:
     7:
     0.296,0.372,0.140,0.026,0.000:
0000
0000
0000
0000
,
0000
0000
0000
0000
,
0000
0000
0000
0000
,
0000
0000
0000
0000
,
0010
0000
0010
0000
0010
0100
0010
0000
,
1000
0100
0001
0010
,
0100
0000
0100
0000
0100
0010
0100
0000
,
0001
0010
1000
0100
,
0001
0000
0001
0000
0001
1000
0001
0000
,
0100
1000
0010
0001
,
1000
0000
1000
0000
1000
0001
1000
0000
,
0001
0100
1000
0010
,
0100
0011
0100
1010
,
0001
1000
0100
0000
1000
0001
0100
0000
,
0010
1000
0010
0001
,
0100
0001
0100
1000
,
0001
0000
0101
0000
1000
0001
0100
0000
,
1000
0000
1100
0000
1000
0001
0100
0000
,
0010
0000
0100
0000
0010
0010
0010
0000
,
0100
0000
0010
0000
0100
0100
0100
0000
,
1002
0010
0010
0010
,
0100
0100
0100
0103
,
2001
0100
0100
0100
,
0010
0010
0010
3010
,
0010
0100
0001
1000
,
0100
0010
0001
1000
,
1000
1000
1000
0000
0010
0010
0010
0000
,
0100
0100
0100
0000
0001
0001
0001
0000
,
1001
0000
0000
0100
0000
0000
0010
0000
,
0000
0000
0010
1000
,
0100
0000
0000
0001
0000
0000
0100
0000
,
1000
0010
0001
0100
,
1001
0000
0000
0100
0000
0000
0010
0000
,
0000
0010
0001
0100
,
1000
0000
0000
0001
0000
0000
1000
0000
,
0000
0001
1000
0100
,
0010
0001
0010
0000
0100
0000
1000
0000
,
0100
1000
0100
0000
1000
0000
0100
0000
,
0001
1000
0100
0000
1000
0000
0100
0000
,
1000
0001
0100
0000
0001
0000
0100
0000
,
0010
0000
1001
0000
0100
0100
0100
0000
,
0100
0000
1001
0000
0010
0010
0010
0000
,
1000
0100
0010
1000
,
0100
0000
0001
0000
0010
0010
0010
0000
,
0001
1000
0001
1000
,
0000
0000
0010
0010
0010
0000
0000
0000
,
0100
0010
0100
0001
,
0100
1000
0010
0000
,
0100
0100
0010
0010
,
0100
0010
1001
0000
,
1000
0100
0001
0100
,
0101
1100
1010
0001
,
0010
0000
0000
0100
0000
0000
1100
0000
,
0000
0000
0000
0000
,
0100
0000
0000
0001
0000
0000
0010
0000
,
0000
0000
0000
0000
,
0010
0000
0000
1000
0000
0000
0001
0000
,
0000
0000
0000
0000
,
0010
0000
0000
0110
0000
0000
0100
0000
,
0000
0000
1000
0000
0001
0000
0100
0020
,
0000
0000
0000
0030
;

//---------------dance-single - Chewphoria~----------------
#NOTES:
     dance-single:
     Chewphoria~:
     Hard:
     12:
     0.525,0.691,0.131,0.149,0.197: // measure 1
0000
0000
0000
0000
,  // measure 2
0000
0000
0000
0000
,  // measure 3
0000
0000
0000
0000
,  // measure 4
0000
0000
0000
0000
,  // measure 5
1000
0000
0000
0010
0100
0000
0001
0000
0100
0000
0010
0000
1000
0000
0001
0000
,  // measure 6
0010
0000
0000
0100
0010
0000
0001
0000
0100
0000
1000
0000
0010
0000
0100
0000
,  // measure 7
1000
0000
0000
0001
1000
0000
0010
0000
0100
0000
0001
0000
0100
0000
0010
0000
,  // measure 8
1000
0001
1000
0001
0010
0100
0010
0100
,  // measure 9
0010
0000
0000
0001
0100
0000
0010
0000
1000
0000
0100
0000
0010
0000
0001
0000
,  // measure 10
1000
0000
0000
0100
0010
0000
0100
0000
1000
0000
0010
0000
0100
0000
0001
0000
,  // measure 11
0100
0000
0000
0100
0010
0000
0001
0000
0010
0000
0100
0000
1000
0000
0001
0000
,  // measure 12
0010
0100
0010
0100
0010
0001
0010
0001
,  // measure 13
1000
0010
0100
0001
0100
0010
1001
0000
,  // measure 14
1000
0100
0001
0010
0100
0001
0010
0100
,  // measure 15
1000
0001
0010
0100
1000
0010
0101
0000
,  // measure 16
0100
0010
1000
0001
0010
0100
1000
0001
,  // measure 17
0010
1000
0100
0001
0010
0100
0010
0001
,  // measure 18
0010
0100
0001
0010
0100
0001
0010
0100
,  // measure 19
1000
0001
1000
0100
1000
0001
2000
3000
,  // measure 20
0001
0100
0001
1000
0001
0100
0002
0003
,  // measure 21
0110
1000
0001
1000
0001
1000
0001
1000
,  // measure 22
0100
0010
0100
0010
0100
0010
0100
0010
,  // measure 23
0001
0010
0001
0010
0001
0010
0001
0010
,  // measure 24
0100
1000
0100
1000
0100
1000
0100
1000
,  // measure 25
0001
0010
0100
1000
0001
0100
0010
1000
,  // measure 26
0001
1000
0010
0100
0001
1000
0100
0010
,  // measure 27
0001
0010
0001
0000
1000
0100
1000
0000
1000
0010
1000
0000
0001
0100
0001
0000
,  // measure 28
0001
0100
0010
0000
1000
0100
0010
0000
0001
1000
0100
0000
1000
0001
0010
0000
,  // measure 29
0012
0000
0000
0100
0000
0000
2000
0000
,  // measure 30
0000
0000
3003
0000
1000
0010
0100
0001
,  // measure 31
0102
0000
0000
1000
0000
0000
0020
0000
,  // measure 32
0033
0000
0001
0010
0100
1000
0010
0100
,  // measure 33
0201
0000
0000
0010
0000
0000
0020
0000
,  // measure 34
0330
0000
0010
1000
0100
0010
0001
0010
,  // measure 35
0210
0000
0000
1000
0000
0000
0002
0000
,  // measure 36
0000
0000
0000
0303
,  // measure 37
0010
0000
1000
0100
1000
0000
0010
0000
0100
0000
0001
0000
0100
0000
0010
0000
,  // measure 38
0100
0000
0001
0010
0001
0000
0010
0000
0100
0000
1000
0000
0001
0000
1000
0000
,  // measure 39
0010
0000
0100
0010
0100
0000
0001
0000
1000
0000
0100
0000
0010
0000
0001
0000
,  // measure 40
0010
0000
0100
1000
0100
0000
1000
0000
0001
0000
0010
0000
0100
0000
1000
0000
,  // measure 41
0001
0000
1000
0000
0010
0000
0100
0001
0100
0000
0010
0000
1000
0000
0001
0000
,  // measure 42
0010
0000
0100
0000
1000
0000
0100
1000
0100
0000
1000
0000
0010
0000
0100
0000
,  // measure 43
0001
0000
0100
0000
0010
0000
1000
0001
1000
0000
0100
0000
0010
0000
0001
0000
,  // measure 44
0010
0110
1000
1001
0100
0110
0001
1001
,  // measure 45
0000
0000
1000
0100
0010
0001
0010
0100
1000
0000
0001
1000
0010
0000
1000
0000
,  // measure 46
0000
0000
0001
0100
0010
0100
0001
0000
0020
0000
0000
0000
0030
0000
0000
0000
,  // measure 47
0000
1000
0010
1000
0100
0000
0001
0010
0100
0000
1000
0010
0001
0000
0100
0000
,  // measure 48
0000
0000
0001
1000
0010
0100
0001
0000
0020
0000
0000
0000
0030
0000
0000
0000
,  // measure 49
0001
0010
0100
1000
0010
0001
0100
0000
,  // measure 50
0001
0010
1000
0100
0001
0010
0100
0000
,  // measure 51
0010
0001
0100
0001
0010
0000
0000
0000
0100
1000
0010
1000
0100
0000
0000
0000
,  // measure 52
1010
1001
0110
0000
,  // measure 53
1010
0000
0000
0100
0000
0000
0001
0000
0000
0010
0000
0000
0200
0000
0000
0000
,  // measure 54
0000
0000
0000
0000
0000
0000
0310
0001
,  // measure 55
0100
0000
0000
1000
0000
0000
0010
0000
0000
0100
0000
0000
2000
0000
0000
0000
,  // measure 56
0000
0000
0000
0000
,  // measure 57
3001
0000
0000
1000
0000
0000
0010
0000
0000
0100
0000
0000
0020
0000
0000
0000
,  // measure 58
0000
0000
0000
0000
0000
0000
1030
0100
,  // measure 59
0010
0000
0000
0001
0000
0000
0010
0000
0000
0100
0000
0000
1000
0000
0000
0000
,  // measure 60
1000
0001
0010
0100
1000
0010
0200
0002
,  // measure 61
0000
0000
0000
0303
;
