#TITLE:Work Bitch;
#SUBTITLE:;
#ARTIST:Britney Spears;
#TITLETRANSLIT:;
#SUBTITLETRANSLIT:;
#ARTISTTRANSLIT:;
#GENRE:Pop;
#CREDIT:chewi;
#BANNER:Work Bitch.png;
#BACKGROUND:Work Bitch-bg.png;
#LYRICSPATH:;
#CDTITLE:cdtitle.png;
#MUSIC:Work Bitch.ogg;
#OFFSET:-0.001000;
#SAMPLESTART:46.874588;
#SAMPLELENGTH:12.000000;
#SELECTABLE:YES;
#BPMS:0.000000=128.000000
;
#STOPS:
;
#BGCHANGES:0.000=Work Bitch.avi=1.000=1=0=1===CrossFade==,
99999=-nosongbg-=1.000=0=0=0 // don't automatically add -songbackground-
;
#KEYSOUNDS:;
#ATTACKS:;

//---------------dance-single - ----------------
#NOTES:
     dance-single:
     :
     Challenge:
     13:
     0.561979,0.651078,0.549993,0.000000,0.480079,422.000000,363.000000,59.000000,0.000000,0.000000,0.000000,0.561979,0.651078,0.549993,0.000000,0.480079,422.000000,363.000000,59.000000,0.000000,0.000000,0.000000:
0000
0000
0000
0000
,
0000
0000
0000
0000
,
0000
0000
0000
0000
,
0000
0000
0000
0000
,
0010
0010
0010
0010
0010
0010
0010
0010
,
1000
1000
1000
1000
1000
1000
1000
1000
,
0010
1000
0010
1000
0010
1000
0010
1000
0100
1000
0100
1000
0100
1000
0100
4000
,
0400
0000
3300
0000
,
1001
0000
0000
0010
0000
1000
0000
0100
0000
1000
0000
0010
1000
0000
0100
0000
,
0011
0000
0000
0001
0000
0100
0000
0001
0000
0010
0000
0100
1000
0000
0001
0000
,
0101
0000
0000
0010
0000
0100
0000
0001
0000
0100
0000
0010
1000
0000
0001
0000
,
1100
0000
0000
0000
0000
0000
0101
0000
0000
1000
0100
0010
0001
0000
0010
0000
,
1100
0000
0000
1000
0000
0010
0000
1000
0000
0100
0000
1000
0010
0000
0100
0000
,
0011
0000
0000
0010
0000
0100
0000
0010
0000
0001
0000
0100
0010
0000
0100
0000
,
0101
0000
0000
1000
0000
0010
0000
1000
0000
0100
0000
1000
0010
0000
0100
0000
,
0101
0000
0000
1100
0000
0000
0000
0000
,
0101
0000
0000
0110
0000
0000
1010
0000
0000
0000
0000
0000
0000
0000
0000
0000
,
1010
0000
0000
0101
0000
0000
1001
0000
0000
0000
0000
0000
0000
0000
0000
0000
,
0011
0000
0000
1100
0000
0000
1010
0000
0000
0000
0100
0000
0010
0000
1000
0000
,
0101
0000
0000
1100
0000
0000
1001
0000
0000
0000
0000
0000
0110
0000
0000
0000
,
1010
0000
0000
0101
0000
0000
1001
0000
0000
0000
0001
0000
0010
0000
0100
0000
,
0011
0000
0000
1001
0000
0000
1100
0000
0000
0000
0000
0000
0000
0000
0000
0000
,
1001
0000
0000
0101
0000
0000
0110
0000
0000
0000
0000
0000
0000
0000
1000
0000
,
0100
0000
0000
0010
0000
0000
0100
0000
0000
0000
0000
0000
1100
0000
0000
0000
,
1000
0100
1000
0100
1000
0010
1000
0010
,
0100
0000
0001
0000
0100
0000
0001
0000
1000
0000
0000
1000
0000
0000
1000
0000
,
0010
0100
0010
0100
0001
0100
0001
0100
,
0001
0010
0001
0010
0001
0000
1001
0000
,
0010
0100
1000
0010
1000
0100
1000
0010
,
1000
0000
0100
0000
1000
0000
0010
0000
1000
0000
0000
1000
0000
0000
1000
0000
,
0010
0100
0001
1000
0100
0010
0001
1000
,
0010
0000
0000
0100
0000
0010
0000
1000
0000
0001
0000
0010
0100
0000
1000
0000
,
0001
0000
0001
0000
0001
1000
0100
1000
,
0001
0000
0001
0000
0001
1000
0100
1000
,
0001
0000
0001
0000
0001
1000
0100
1000
,
0001
0100
0010
1000
0001
0010
0100
1000
,
0100
0000
0100
0000
0100
1000
0100
0010
,
0100
0000
0100
0000
0100
1000
0100
0010
,
0100
0000
0100
0000
0100
1000
0100
0010
,
0100
1000
0010
0100
0001
1000
0100
0010
,
0011
0000
0101
0000
0110
1000
0110
0001
,
0011
0000
1100
0000
0110
0001
0110
1000
,
1001
0000
0101
0000
1001
0010
1001
0100
,
1010
0000
0101
0000
1001
0010
1001
0100
,
0010
0010
0010
0010
0010
0010
0010
0010
,
0100
0100
0100
0100
0100
0100
0100
0100
,
0001
1000
0001
1000
0001
1000
0001
1000
0001
1000
0001
1000
0001
1000
0001
4000
,
0004
0000
3003
0000
,
1010
0000
0000
0100
0000
0001
0000
0010
0000
0100
0000
1000
0010
0000
1000
0000
,
1001
0000
0010
0100
0000
0010
0000
0001
0000
0100
0000
0010
1000
0000
0001
0000
,
0101
0000
0010
1000
0000
0100
0000
0010
0000
0100
0000
1000
0100
0000
0010
0000
,
0011
0000
0010
0001
0000
0100
0000
0010
0000
1000
0000
0001
0010
0000
0100
0000
,
1100
0000
0001
0100
0000
0010
0000
1000
0000
0100
0000
0010
0100
0000
1000
0000
,
1001
0000
0010
0100
0000
0010
0000
0100
0000
0001
0000
0010
0100
0000
1000
0000
,
1001
0000
0100
0001
0000
1000
0000
0010
0000
0100
0000
0001
0100
0000
0010
0000
,
1010
0000
1000
0010
0000
0100
0000
0010
0000
1000
0000
0001
0010
0000
0011
0000
;

//---------------dance-single - ----------------
#NOTES:
     dance-single:
     :
     Hard:
     11:
     0.444789,0.494819,0.326267,0.037288,0.069914,334.000000,299.000000,35.000000,4.000000,0.000000,0.000000,0.444789,0.494819,0.326267,0.037288,0.069914,334.000000,299.000000,35.000000,4.000000,0.000000,0.000000:
// measure 0
0000
0000
0000
0000
,  // measure 1
0000
0000
0000
0000
,  // measure 2
0000
0000
0000
0000
,  // measure 3
0000
0000
0000
0000
,  // measure 4
1000
0001
1000
0001
1000
0001
1000
0001
,  // measure 5
0010
0100
0010
0100
0010
0100
0010
0100
,  // measure 6
0010
0001
0010
0001
0010
0001
0010
0002
,  // measure 7
2000
0000
3003
0000
,  // measure 8
1001
0000
1000
0000
0100
0001
1000
0010
,  // measure 9
0011
0000
0010
0000
0100
1000
0010
0100
,  // measure 10
0101
0000
0100
0000
0010
1000
0001
1000
,  // measure 11
0100
0010
0001
1000
0010
0100
0001
0000
,  // measure 12
1001
0000
0001
0000
0010
1000
0001
0100
,  // measure 13
1100
0000
0100
0000
0010
0001
0100
0010
,  // measure 14
1010
0000
0010
0000
0100
0001
1000
0001
,  // measure 15
0010
0100
1000
0001
0100
0010
1000
0000
,  // measure 16
0100
0000
0000
0100
0000
0000
0100
0000
0000
0000
0000
0000
0000
0000
0000
0000
,  // measure 17
0010
0000
0000
0010
0000
0000
0010
0000
0000
0000
0000
0000
0000
0000
0000
0000
,  // measure 18
0001
0000
0000
1000
0000
0000
0001
0000
0000
0000
0100
0000
0010
0000
1000
0000
,  // measure 19
0010
0000
0000
0010
0000
0000
0010
0000
0000
0000
0000
0000
0000
0000
0000
0000
,  // measure 20
0100
0000
0000
0001
0000
0000
0010
0000
0000
0000
0100
0000
0001
0000
0100
0000
,  // measure 21
0010
0000
0000
0010
0000
0000
0010
0000
0000
0000
0000
0000
0000
0000
0000
0000
,  // measure 22
0100
0000
0000
1000
0000
0000
0010
0000
0000
0000
0000
0000
0000
0000
0100
0000
,  // measure 23
0001
0000
0000
0001
0000
0000
0001
0000
0000
0000
0000
0000
1001
0000
0000
0000
,  // measure 24
0001
0100
0001
0000
0100
1000
0100
0000
,  // measure 25
0001
0000
0100
0000
0001
0000
0000
0000
0100
0000
0000
0100
0000
0000
0100
0000
,  // measure 26
0001
0010
0001
0000
0010
1000
0010
0000
,  // measure 27
0001
0010
0001
0000
0110
0000
1001
0000
,  // measure 28
1000
0100
1000
0000
0100
0001
0100
0000
,  // measure 29
1000
0000
0100
0000
1000
0000
0000
0000
0100
0000
0000
0100
0000
0000
0100
0000
,  // measure 30
1000
0010
1000
0000
0010
0001
0010
0000
,  // measure 31
1000
0010
1000
0010
1000
0001
1000
0001
,  // measure 32
1000
0000
0100
0000
1000
0001
0100
0000
,  // measure 33
1000
0000
0100
0000
1000
0001
0100
0000
,  // measure 34
1000
0000
0100
0000
1000
0001
0100
0000
,  // measure 35
0100
0001
1000
0000
1001
0001
1001
0000
,  // measure 36
0001
0000
0010
0000
0001
1000
0010
0000
,  // measure 37
0001
0000
0010
0000
0001
1000
0010
0000
,  // measure 38
0001
0000
0010
0000
0001
1000
0010
0000
,  // measure 39
0010
1000
0001
0000
1001
1000
1001
0000
,  // measure 40
0101
0101
1010
1010
,  // measure 41
1001
1001
0110
0110
,  // measure 42
1100
1100
0011
0011
,  // measure 43
1001
1001
0101
0101
,  // measure 44
0001
0100
0001
0100
0001
0100
0001
0100
,  // measure 45
0010
1000
0010
1000
0010
1000
0010
1000
,  // measure 46
0001
1000
0001
1000
0001
1000
0001
2000
,  // measure 47
0002
0000
3003
0000
,  // measure 48
1001
1000
1000
1000
0100
0001
1000
0000
,  // measure 49
0011
0010
0010
0010
0100
1000
0010
0000
,  // measure 50
0101
0100
0100
0100
0010
1000
0001
1000
,  // measure 51
0100
0010
0001
1000
0010
0100
0001
0000
,  // measure 52
1001
0001
0001
0001
0010
1000
0001
0000
,  // measure 53
1100
0100
0100
0100
0010
0001
0100
0000
,  // measure 54
1010
0010
0010
0010
0100
0001
1000
0001
,  // measure 55
0010
0000
0010
0100
0000
1000
0000
0100
0000
0010
0000
0001
0010
0000
0001
0000
;

//---------------dance-single - ----------------
#NOTES:
     dance-single:
     :
     Medium:
     8:
     0.348906,0.363788,0.223726,0.018644,0.046610,262.000000,238.000000,24.000000,2.000000,0.000000,0.000000,0.348906,0.363788,0.223726,0.018644,0.046610,262.000000,238.000000,24.000000,2.000000,0.000000,0.000000:
0000
0000
0000
0000
,
0000
0000
0000
0000
,
0000
0000
0000
0000
,
0000
0000
0000
0000
,
1000
0010
1000
0000
0010
0100
0010
0000
,
0100
0001
0100
0000
0001
1000
0001
0000
,
1000
0001
1000
0000
0001
1000
0001
0000
,
1000
0001
1000
0001
1000
0000
0000
0000
,
1001
1000
0100
0010
,
1001
0001
0100
0010
,
0110
0100
0001
1000
,
0001
1000
0100
0010
0000
0100
0010
0000
,
0110
1000
0001
0010
,
0011
0010
0001
0100
,
0101
0100
0010
1000
,
0001
0100
0010
1000
0000
0010
1000
0000
,
1000
0000
0000
1000
0000
0000
1000
0000
0000
0000
0000
0000
0000
0000
0000
0000
,
0001
0000
0000
0001
0000
0000
0001
0000
0000
0000
0000
0000
0000
0000
0000
0000
,
1000
0000
0000
0001
0000
0000
0010
0000
0000
0000
0000
0000
0100
0000
0000
0000
,
1000
0000
0000
0001
0000
0000
0100
0000
0000
0000
0000
0000
0000
0000
0000
0000
,
0100
0000
0000
0100
0000
0000
0100
0000
0000
0000
0000
0000
0000
0000
0000
0000
,
0010
0000
0000
0010
0000
0000
0010
0000
0000
0000
0000
0000
0000
0000
0000
0000
,
0010
0000
0000
1000
0000
0000
0001
0000
0000
0000
0000
0000
0000
0000
0000
0000
,
1000
0000
0000
0001
0000
0000
0010
0000
0000
0000
0000
0000
0011
0000
0000
0000
,
0001
1000
0001
0000
0001
0100
0001
0000
,
0001
0000
1000
0000
0001
0000
0000
0000
1000
0000
0000
1000
0000
0000
1000
0000
,
1000
0001
1000
0000
1000
0100
1000
0000
,
1000
0001
1000
0000
1000
0000
1001
0000
,
0100
0001
0100
0000
0100
0010
0100
0000
,
0100
0000
1000
0000
0100
0000
0000
0000
0100
0000
0000
0100
0000
0000
0100
0000
,
0010
0100
0010
0000
0010
0001
0010
0000
,
0010
1000
0010
0000
0010
0000
0110
0000
,
1000
0100
0001
0010
,
1000
0100
0001
0100
,
1000
0010
0001
0100
,
1000
0010
0001
0010
,
0100
0000
0001
0000
1000
0010
1000
0000
,
0001
0000
1000
0000
0100
0010
0100
0000
,
0010
0000
0001
0000
1000
0100
1000
0000
,
0001
0100
0001
0000
0100
0100
0100
0000
,
0001
0101
1000
1100
,
0001
0011
1000
1010
,
0001
1001
1000
1001
,
0010
0110
0100
0110
,
0001
0100
0001
0000
0100
0010
0100
0000
,
0010
1000
0010
0000
1000
0001
1000
0000
,
0001
1000
0001
0000
1000
0001
1000
0000
,
0001
1000
0001
1000
0001
0000
0000
0000
,
1001
0001
0010
0100
,
1001
1000
0010
0100
,
0110
0010
1000
0001
,
1000
0001
0010
0100
0000
0010
0100
0000
,
0110
0001
1000
0100
,
1100
0100
1000
0010
,
1010
0010
0100
0001
,
2002
0000
0000
3003
;

//---------------dance-single - ----------------
#NOTES:
     dance-single:
     :
     Easy:
     5:
     0.227721,0.284552,0.093219,0.000000,0.000000,171.000000,161.000000,10.000000,0.000000,0.000000,0.000000,0.227721,0.284552,0.093219,0.000000,0.000000,171.000000,161.000000,10.000000,0.000000,0.000000,0.000000:
0000
0000
0000
0000
,
0000
0000
0000
0000
,
0000
0000
0000
0000
,
0000
0000
0000
0000
,
1000
0000
0010
0000
,
0001
0000
0100
0000
,
1000
0010
0001
0100
,
1000
0000
0000
0000
,
1001
0000
0001
0000
,
1000
0001
0010
0000
,
1001
0000
1000
0000
,
0010
1000
0001
0000
,
1000
0100
0001
0000
,
0001
0100
1000
0000
,
1000
0100
0001
0100
,
1000
0000
0001
0000
,
1001
1000
0001
0000
,
0110
0100
0010
0000
,
0100
0001
1000
0010
,
0010
1000
0001
0100
,
0001
1000
0100
0000
,
0100
1000
0001
0000
,
0001
0010
0001
0000
,
1000
0000
0010
0000
,
1000
1000
0001
0001
,
1000
0001
1000
1001
,
0001
0001
1000
1000
,
0001
1000
0001
1001
,
0100
0100
0010
0010
,
0100
0010
0100
0110
,
0010
0010
0100
0100
,
0010
0100
0010
0110
,
1000
0100
1000
0000
,
0001
0010
0001
0000
,
1000
0010
1000
0000
,
0001
0100
0001
0000
,
0100
0010
1000
0000
,
0100
0010
0001
0000
,
1000
0100
1000
0000
,
0001
0010
0001
0000
,
0010
0010
0010
0010
,
0100
0100
0100
0100
,
1000
1000
1000
1000
,
0001
0001
0001
0001
,
1000
0000
1000
0000
,
0001
0000
0001
0000
,
0100
0100
0100
0100
,
0010
0010
0010
0000
,
1001
0000
1000
0000
,
0001
1000
0100
0000
,
1001
0000
0001
0000
,
0100
0001
1000
0000
,
0001
0010
1000
0000
,
1000
0010
0001
0000
,
0001
0010
1000
0010
,
0001
0000
1000
0000
;

//---------------dance-single - ----------------
#NOTES:
     dance-single:
     :
     Beginner:
     2:
     0.145156,0.181078,0.055932,0.000000,0.000000,109.000000,103.000000,6.000000,0.000000,0.000000,0.000000,0.145156,0.181078,0.055932,0.000000,0.000000,109.000000,103.000000,6.000000,0.000000,0.000000,0.000000:
0000
0000
0000
0000
,
0000
0000
0000
0000
,
0000
0000
0000
0000
,
0000
0000
0000
0000
,
1000
0000
0010
0000
,
0001
0000
0100
0000
,
1000
0000
0001
0000
,
1000
0000
0000
0000
,
1001
0000
0001
0000
,
1000
0000
0010
0000
,
1001
0000
1000
0000
,
0010
0000
0001
0000
,
1000
0000
0001
0000
,
0001
0000
1000
0000
,
1000
0000
0001
0000
,
1000
0000
0001
0000
,
1001
0000
0001
0000
,
0110
0000
0010
0000
,
0100
0000
1000
0000
,
0010
0000
0001
0000
,
0001
0000
0100
0000
,
0100
0000
0001
0000
,
0001
0000
0001
0000
,
1000
0000
0010
0000
,
1000
0000
0001
0000
,
1000
0000
1000
0000
,
0001
0000
1000
0000
,
0001
0000
0001
0000
,
0100
0000
0010
0000
,
0100
0000
0100
0000
,
0010
0000
0100
0000
,
0010
0000
0010
0000
,
1000
0000
1000
0000
,
0001
0000
0001
0000
,
1000
0000
1000
0000
,
0001
0000
0001
0000
,
0100
0000
1000
0000
,
0100
0000
0001
0000
,
1000
0000
1000
0000
,
0001
0000
0001
0000
,
0010
0000
0010
0000
,
0100
0000
0100
0000
,
1000
0000
1000
0000
,
0001
0000
0001
0000
,
1000
0000
1000
0000
,
0001
0000
0001
0000
,
0100
0000
0100
0000
,
0010
0000
0010
0000
,
1001
0000
1000
0000
,
0001
0000
0100
0000
,
1001
0000
0001
0000
,
0100
0000
1000
0000
,
0001
0000
1000
0000
,
1000
0000
0001
0000
,
0001
0000
1000
0000
,
0001
0000
1000
0000
;
