#TITLE:Won't Go Quietly;
#SUBTITLE:;
#ARTIST:Example;
#TITLETRANSLIT:;
#SUBTITLETRANSLIT:;
#ARTISTTRANSLIT:;
#CREDIT:Chewphoria~;
#BANNER:Won't Go Quietly.png;
#BACKGROUND:Won't Go Quietly-bg.png;
#LYRICSPATH:;
#CDTITLE:;
#MUSIC:Won't Go Quietly.mp3;
#OFFSET:-8.086;
#SAMPLESTART:45.679;
#SAMPLELENGTH:15.000;
#SELECTABLE:YES;
#BPMS:0.000=124.950,176.000=62.470;
#STOPS:;
#BGCHANGES:;

//---------------dance-single - Chewphoria~----------------
#NOTES:
     dance-single:
     Chewphoria~:
     Beginner:
     1:
     0.117,0.157,0.090,0.000,0.000: // measure 1
0010
0000
0000
0000
,  // measure 2
1000
0000
0000
0000
,  // measure 3
0100
0000
0000
0000
,  // measure 4
0001
0000
0000
0000
,  // measure 5
1000
0000
1001
0000
,  // measure 6
0001
0000
0000
0000
,  // measure 7
0100
0000
0110
0000
,  // measure 8
0010
0000
0000
0000
,  // measure 9
1000
0000
1000
0000
,  // measure 10
1000
0000
1000
0000
,  // measure 11
0100
0000
0010
0000
,  // measure 12
0010
0000
0010
0000
,  // measure 13
0001
0000
0001
0000
,  // measure 14
0001
0000
0001
0000
,  // measure 15
0100
0000
0010
0000
,  // measure 16
0010
0000
0010
0000
,  // measure 17
1000
0000
1001
0000
,  // measure 18
0001
0000
1001
0000
,  // measure 19
1000
0000
1000
0000
,  // measure 20
1001
0000
0000
0000
,  // measure 21
1000
1000
0000
0000
,  // measure 22
0100
0000
0010
0000
,  // measure 23
0000
0001
0001
0000
,  // measure 24
0000
1000
1000
0000
,  // measure 25
0100
0000
0000
0000
,  // measure 26
0010
0000
0000
0000
,  // measure 27
1000
1000
0000
0000
,  // measure 28
0001
0001
0000
0000
,  // measure 29
1001
0000
0000
0000
,  // measure 30
0100
0000
0000
0000
,  // measure 31
0110
0000
0000
0000
,  // measure 32
0001
0001
0001
0000
,  // measure 33
1000
0000
0000
0000
,  // measure 34
1000
0000
0000
0000
,  // measure 35
0001
0000
0000
0000
,  // measure 36
0100
0100
0100
0000
,  // measure 37
0010
0000
1000
0000
,  // measure 38
0010
0000
0000
0000
,  // measure 39
0100
0000
0001
0000
,  // measure 40
0100
0000
0000
0000
,  // measure 41
1000
0000
0001
0000
,  // measure 42
1000
0000
0000
0000
,  // measure 43
0010
0000
0010
0000
,  // measure 44
0010
0000
0000
0000
,  // measure 45
1001
0000
0000
0000
,  // measure 46
0110
0000
0000
0000
;

//---------------dance-single - Chewphoria~----------------
#NOTES:
     dance-single:
     Chewphoria~:
     Easy:
     3:
     0.185,0.179,0.080,0.040,0.000: // measure 1
1000
0000
1000
0000
,  // measure 2
0001
0000
0001
0000
,  // measure 3
1000
0000
1000
0000
,  // measure 4
2002
0000
0000
3003
,  // measure 5
0100
0000
1000
1000
,  // measure 6
1000
0000
0010
0000
,  // measure 7
0001
0000
0001
0001
,  // measure 8
0001
0000
1000
0000
,  // measure 9
1001
0000
0100
0000
,  // measure 10
0010
0010
0010
0000
,  // measure 11
0100
0010
0100
0010
,  // measure 12
0010
0000
0000
0000
,  // measure 13
1000
1000
1000
0000
,  // measure 14
0001
0001
0001
0000
,  // measure 15
0100
0010
0100
0000
,  // measure 16
0010
0100
0010
0000
,  // measure 17
1000
0100
1000
0000
,  // measure 18
0001
0100
0001
0000
,  // measure 19
0200
0000
0000
0300
,  // measure 20
0020
0000
0000
0030
,  // measure 21
1000
1000
1000
0000
,  // measure 22
1000
0001
1001
0000
,  // measure 23
0001
1000
0001
0000
,  // measure 24
1000
1000
1000
0000
,  // measure 25
1000
0100
0010
0001
,  // measure 26
0001
0000
1001
0000
,  // measure 27
0001
0010
0100
1000
,  // measure 28
1000
0000
1001
0000
,  // measure 29
0100
0000
0010
0100
,  // measure 30
0010
0000
0010
0100
,  // measure 31
0010
0000
0100
0010
,  // measure 32
1000
1000
0001
0001
,  // measure 33
0010
0000
0010
0000
,  // measure 34
0100
0000
0100
0000
,  // measure 35
0010
0000
0010
0001
,  // measure 36
0010
1000
0100
0001
,  // measure 37
0100
0000
0110
0000
,  // measure 38
1001
0000
0000
1000
,  // measure 39
0100
0010
0001
0000
,  // measure 40
0001
0000
0000
0000
,  // measure 41
0001
0000
1001
1000
,  // measure 42
1000
0000
0000
0001
,  // measure 43
0100
0010
1000
0010
,  // measure 44
0100
0000
0000
0100
,  // measure 45
0010
1000
1000
0000
,  // measure 46
1000
0000
0000
0000
;

//---------------dance-single - Chewphoria~----------------
#NOTES:
     dance-single:
     Chewphoria~:
     Medium:
     5:
     0.243,0.291,0.080,0.070,0.000: // measure 1
0010
0000
0000
0000
0100
0010
0000
0000
,  // measure 2
0010
0000
0000
0000
0100
0010
0000
0000
,  // measure 3
1000
0000
0000
0000
0001
1000
0000
0000
,  // measure 4
2002
0000
0000
3003
,  // measure 5
1000
0010
0100
0100
,  // measure 6
0100
0000
0001
0100
,  // measure 7
0010
0010
0010
1000
,  // measure 8
0001
0000
0000
0000
1000
0000
0100
0001
,  // measure 9
0100
0000
0100
0000
,  // measure 10
1000
0010
0100
0001
,  // measure 11
0100
0010
0100
0000
0010
0000
1000
0001
,  // measure 12
1000
0000
0000
0000
,  // measure 13
1000
0000
0100
0000
0010
0001
0010
0000
,  // measure 14
0001
0000
0010
0000
0100
1000
0100
0000
,  // measure 15
1000
0001
1001
0000
,  // measure 16
0100
0010
0110
0000
,  // measure 17
0010
0100
0010
0010
,  // measure 18
1000
0001
1000
1000
,  // measure 19
2100
0010
0000
0010
,  // measure 20
3020
0100
0000
0100
,  // measure 21
0130
0101
0000
0001
,  // measure 22
0100
0010
1000
0001
,  // measure 23
0010
0000
0100
0110
,  // measure 24
0000
0000
0010
0110
,  // measure 25
0010
1000
0100
1000
,  // measure 26
0010
0001
0100
0001
,  // measure 27
0100
0100
0100
0000
0010
0010
0010
0000
,  // measure 28
0100
0001
2002
3003
,  // measure 29
1000
0000
0001
1000
,  // measure 30
0100
0100
0000
0000
1000
0000
0001
0000
,  // measure 31
0010
0010
0000
0000
0100
0000
0010
0000
,  // measure 32
0001
0000
0100
0000
1000
0010
0001
0000
,  // measure 33
0010
0000
0100
0010
,  // measure 34
0010
0010
0000
0000
0001
0000
1000
0000
,  // measure 35
0001
0001
0000
0000
0001
0000
0100
0000
,  // measure 36
0020
1030
0100
0001
,  // measure 37
0010
0000
0100
0000
0010
0000
1000
1000
,  // measure 38
0000
0000
0000
1000
,  // measure 39
0001
0000
0100
0000
0010
0000
1000
1000
,  // measure 40
0000
0000
0000
1000
,  // measure 41
0001
0000
0010
0000
0100
0000
0010
0010
,  // measure 42
0000
0000
0000
0100
,  // measure 43
0010
0000
0001
0000
0100
0000
1000
1000
,  // measure 44
0000
0000
0000
1000
,  // measure 45
0010
0000
0100
0001
0000
0000
0000
0000
,  // measure 46
1000
0000
0000
0000
;

//---------------dance-single - Chewphoria~----------------
#NOTES:
     dance-single:
     Chewphoria~:
     Hard:
     7:
     0.371,0.409,0.080,0.169,0.144: // measure 1
1000
0100
1000
0000
0100
0100
0000
0000
,  // measure 2
0001
0100
0001
0000
0100
0100
0000
0000
,  // measure 3
0010
1000
0010
0000
0010
0010
0000
0000
,  // measure 4
0220
0000
0000
0000
0330
0000
0000
0000
0100
0010
0000
1000
0001
0000
0000
0000
,  // measure 5
0010
0000
0000
0000
1000
0000
0100
0000
0010
0000
0000
0010
0000
0000
0020
0000
,  // measure 6
0000
0030
0001
0010
,  // measure 7
0100
0000
0000
0000
1000
0000
0010
0000
0100
0000
0000
0100
0000
0000
0200
0000
,  // measure 8
0000
0000
0300
0000
0100
0000
0010
1000
,  // measure 9
0100
0000
0100
0000
0100
0010
0001
0000
,  // measure 10
0001
0100
1000
0010
0001
0000
0010
0000
,  // measure 11
0100
0000
0110
0000
0100
1000
0010
0100
,  // measure 12
0002
0100
2000
3003
,  // measure 13
1000
0000
0000
0000
0100
0000
0000
0000
0010
0000
0000
0010
0000
0000
0000
0000
,  // measure 14
0001
0000
0000
0000
0010
0000
0000
0000
0001
0000
0000
0001
0000
0000
0000
0000
,  // measure 15
0100
0010
2000
3002
,  // measure 16
1003
0100
0010
0000
0011
0000
1100
0000
,  // measure 17
0001
0000
0000
0000
0100
0000
0000
0000
0010
0000
0000
0010
0000
0000
0000
0000
,  // measure 18
1000
0000
0000
0000
0010
0000
0000
0000
1000
0000
0000
0100
0000
0000
0100
0000
,  // measure 19
0010
0001
0000
0100
0000
1000
0000
0010
,  // measure 20
0000
0100
0000
0001
0000
0001
1000
0001
,  // measure 21
0010
0100
0010
0000
0001
0000
1100
0000
,  // measure 22
1000
0100
0001
0010
1000
0000
0100
0000
,  // measure 23
0010
0110
0100
1000
,  // measure 24
0010
0000
0110
0000
0100
0000
0001
0100
,  // measure 25
1000
0010
1000
1100
,  // measure 26
1000
0010
0001
0000
0100
0000
1000
0000
,  // measure 27
0100
0010
0001
0000
0100
0010
0001
0100
,  // measure 28
1000
0010
0200
0000
,  // measure 29
0310
0000
0000
0000
1000
0000
0000
0000
0010
0000
0000
1000
0000
0000
0100
0000
,  // measure 30
0010
0000
0001
0000
0000
0000
0000
0000
0010
0000
0000
0100
0000
0000
1000
0000
,  // measure 31
0010
0000
0100
0000
0000
0000
0000
0000
0001
0000
0000
0100
0000
0000
0010
0000
,  // measure 32
1000
0000
0000
1000
0010
0000
0000
0010
0100
0000
0000
0100
0001
0000
0000
0001
,  // measure 33
0010
0000
0000
0000
0100
0000
0000
0000
0010
0000
0000
0001
0000
0000
0010
0000
,  // measure 34
0100
0000
1000
0000
0010
0000
0000
0000
0100
0000
0000
0010
0000
0000
1000
0000
,  // measure 35
0100
0000
0010
0000
0001
0000
0000
0000
1000
0000
0000
0001
0000
0000
0100
0000
,  // measure 36
0010
0000
0000
0010
0100
0000
0000
0100
0010
0000
0000
0010
1000
0000
0000
1000
,  // measure 37
0001
0001
0010
0100
2000
0000
0001
0020
,  // measure 38
0000
0000
3030
0000
0000
1000
0010
0100
,  // measure 39
0001
0100
0010
1000
0001
0000
0010
0020
,  // measure 40
0000
0000
0030
0000
0000
0001
0010
0100
,  // measure 41
1000
0100
0010
0001
0200
0000
0010
0020
,  // measure 42
0000
0000
0330
0000
0000
0010
1000
0010
,  // measure 43
0001
0010
1000
0100
0010
0000
0001
0002
,  // measure 44
0000
0000
0000
0003
0000
0001
0010
0100
,  // measure 45
1000
0001
0100
0000
0010
0000
0010
0002
0000
0000
0000
0000
0003
0100
0001
1000
,  // measure 46
0010
0100
0010
1000
0100
0000
0001
0200
0000
0000
0300
0000
0000
0000
0000
0000
;
