#TITLE:Womanizer;
#SUBTITLE:;
#ARTIST:Britney Spears;
#TITLETRANSLIT:;
#SUBTITLETRANSLIT:;
#ARTISTTRANSLIT:;
#GENRE:;
#CREDIT:Chewphoria~;
#MENUCOLOR:;
#METERTYPE:DDR;
#BANNER:Womanizer.png;
#BACKGROUND:Womanizer-bg.png;
#LYRICSPATH:;
#CDTITLE:;
#MUSIC:Womanizer.MP3;
#OFFSET:-13.891;
#SAMPLESTART:55.329;
#SAMPLELENGTH:15.000;
#SELECTABLE:YES;
#LISTSORT:;
#BPMS:0.000=139.010;
#STOPS:;
#BGCHANGES:;
#ATTACKS:;

//---------------dance-single - Chewphoria~----------------
#NOTES:
     dance-single:
     Chewphoria~:
     Hard:
     9:
     0.384,0.400,0.144,0.000,0.488: // measure 1
0100
1000
0000
0101
0000
0000
0000
0000
0000
0010
0000
1000
,  // measure 2
0010
0000
0000
1000
0000
0100
1000
0000
0001
0000
0000
0000
,  // measure 3
1000
0000
0100
0010
0000
0000
0000
0000
0000
0001
0000
0010
,  // measure 4
0001
0000
0000
0010
0000
0100
1000
0000
0001
0000
0000
0000
,  // measure 5
0100
0000
0100
0010
0000
0010
0100
0000
0100
0001
0000
0001
,  // measure 6
0100
0000
0100
0010
0000
0010
1000
0000
1000
0001
0000
0001
,  // measure 7
0010
0000
0010
0100
0000
0000
0000
0000
0000
0000
0000
0000
,  // measure 8
0010
0000
0001
0010
0000
0000
1100
0000
0000
0101
0000
0000
,  // measure 9
0100
0000
0010
0100
0000
0000
0000
0000
0000
0001
0000
0001
,  // measure 10
0100
0000
0100
0010
0000
0010
1000
0000
1000
0001
0000
0000
,  // measure 11
1000
0000
1000
0100
0000
0000
0001
0000
0001
0100
0000
0000
,  // measure 12
0100
0000
0100
0010
0000
0010
1000
0000
1000
0001
0000
0001
,  // measure 13
0010
0000
0010
0100
0000
0100
1000
0000
1000
0100
0000
0100
,  // measure 14
0010
0000
0010
0001
0000
0001
0100
0000
0100
0010
0000
0010
,  // measure 15
0100
0000
0100
0001
0000
0000
0000
0000
0000
0000
0000
0000
,  // measure 16
0001
0000
1000
0001
0000
0000
1100
0000
0000
0101
0000
0000
,  // measure 17
1000
0000
0010
1000
0000
0000
0001
0000
0000
0010
0000
0000
,  // measure 18
0100
0000
1000
0100
0000
0000
1000
0000
0000
0001
0000
0000
,  // measure 19
0100
0000
0000
0010
0000
0100
0001
0000
0000
0100
0000
0000
,  // measure 20
0010
0000
1000
0001
0000
0010
0100
0000
1000
0100
0000
0000
,  // measure 21
0010
0000
0000
0001
0000
0100
0000
1000
0000
0000
0000
0000
,  // measure 22
1000
0000
0000
0010
1000
0000
0000
0001
0000
0000
0000
0000
,  // measure 23
0010
0000
0100
0010
0000
0000
0010
0000
0100
0010
0000
0000
,  // measure 24
0001
0000
0010
0001
0000
0000
1000
0000
0010
1000
0000
0000
,  // measure 25
0010
0000
0100
0001
0000
1000
0100
0000
0001
0100
0000
0010
,  // measure 26
1000
0000
0001
0010
0000
0100
1000
0000
0100
1001
0000
0000
,  // measure 27
0010
0000
0001
0010
0000
1000
0010
0000
0001
0010
0000
1000
,  // measure 28
0100
0000
0001
0100
0000
1000
0100
0000
0001
0101
0000
0000
,  // measure 29
0110
0000
0000
0000
0000
0000
0010
0000
1000
0100
0000
0001
,  // measure 30
0010
0000
0000
0000
0000
0000
1000
0000
0100
1000
0000
0010
,  // measure 31
1000
0000
0000
0000
0000
1000
0010
0000
0010
0100
0000
0100
,  // measure 32
0001
0000
0000
0001
0000
0000
1000
0000
0001
1000
0000
0000
,  // measure 33
0010
0000
1000
0001
0000
0000
0010
0000
0100
1000
0000
0000
,  // measure 34
0001
0000
0100
0001
0000
0100
1000
0000
0100
0001
0000
0000
,  // measure 35
0100
0000
0010
0100
0000
0000
0010
0000
1000
0010
0000
0000
,  // measure 36
1000
0000
0010
1000
0000
0010
0001
0000
0010
1000
0000
0000
,  // measure 37
1010
0000
0000
0000
0000
0000
1000
0000
0001
1000
0000
0000
,  // measure 38
1100
0000
0000
0000
0000
0000
1000
0000
0001
1000
0000
0000
,  // measure 39
1010
0000
0000
0000
0000
0000
1000
0000
0001
0100
0000
0000
,  // measure 40
0110
0000
0010
1000
,  // measure 41
1001
0000
0000
0000
;

//---------------dance-single - Chewphoria~----------------
#NOTES:
     dance-single:
     Chewphoria~:
     Medium:
     7:
     0.274,0.311,0.388,0.000,0.000: // measure 1
0010
0001
1000
0100
,  // measure 2
0001
0100
1000
0000
,  // measure 3
0010
1000
0001
0100
,  // measure 4
1000
0100
0001
0000
,  // measure 5
0100
0100
1000
0001
,  // measure 6
0100
0010
1000
1000
,  // measure 7
0001
0001
0000
0000
,  // measure 8
1000
1000
0001
1001
,  // measure 9
0010
0100
0010
1000
,  // measure 10
0001
0010
0100
0000
,  // measure 11
0010
0010
0001
1000
,  // measure 12
0010
0100
1000
0000
,  // measure 13
0010
0001
1000
0100
,  // measure 14
0010
0010
0010
0100
,  // measure 15
0100
0100
0000
0000
,  // measure 16
0010
1000
0001
0100
,  // measure 17
0001
0101
1100
1000
,  // measure 18
1100
1100
0010
0100
,  // measure 19
0011
0011
0100
0010
,  // measure 20
0110
0110
0010
1000
,  // measure 21
1000
1100
0100
0110
,  // measure 22
0010
0101
0101
0101
,  // measure 23
0010
1010
1010
0100
,  // measure 24
0010
0100
0101
0101
,  // measure 25
1000
0000
1000
0000
,  // measure 26
0001
0001
1000
1000
,  // measure 27
0001
0000
0001
0000
,  // measure 28
1000
1000
0001
0001
,  // measure 29
0001
1100
1000
0101
,  // measure 30
0001
1010
1010
0000
,  // measure 31
0100
0101
0101
0000
,  // measure 32
0010
0110
0110
0000
,  // measure 33
1000
1010
0010
0110
,  // measure 34
0100
0001
0001
0001
,  // measure 35
0100
0010
1000
0010
,  // measure 36
1000
1000
1000
1000
,  // measure 37
1001
0000
0110
0000
,  // measure 38
1001
0000
1000
0000
,  // measure 39
1001
0000
0110
0000
,  // measure 40
1001
0000
0001
0000
,  // measure 41
0110
0000
0000
0000
;

//---------------dance-single - Chewphoria~----------------
#NOTES:
     dance-single:
     Chewphoria~:
     Easy:
     4:
     0.189,0.222,0.089,0.000,0.000: // measure 1
1000
0000
0100
0000
,  // measure 2
0001
0001
0100
0000
,  // measure 3
0001
0000
0100
0000
,  // measure 4
1000
1000
0100
0000
,  // measure 5
0001
0000
1000
0000
,  // measure 6
0100
0010
0100
0000
,  // measure 7
1000
0000
1000
0000
,  // measure 8
0010
0100
0010
0000
,  // measure 9
1000
0000
0010
0000
,  // measure 10
0100
0100
0010
0000
,  // measure 11
0001
0000
0010
0000
,  // measure 12
0010
0010
0100
0000
,  // measure 13
1000
0000
0100
0000
,  // measure 14
1000
0001
1000
0000
,  // measure 15
0001
0000
0100
0000
,  // measure 16
0001
1000
1001
0000
,  // measure 17
1000
1000
1000
1000
,  // measure 18
0100
0100
0100
0100
,  // measure 19
0010
0010
0010
0010
,  // measure 20
0100
0100
0100
0100
,  // measure 21
1000
0000
1000
0000
,  // measure 22
0010
0000
0010
0000
,  // measure 23
0001
0000
0001
0000
,  // measure 24
0100
0000
0100
0000
,  // measure 25
0010
0001
1000
0001
,  // measure 26
1000
0001
1001
0000
,  // measure 27
0100
0001
1000
0001
,  // measure 28
1000
0001
1001
0000
,  // measure 29
0110
0000
0100
0010
,  // measure 30
0110
0000
0010
0100
,  // measure 31
0110
0000
0010
1000
,  // measure 32
0001
1000
1001
0000
,  // measure 33
1000
0000
0100
0000
,  // measure 34
0010
0000
0100
0100
,  // measure 35
0100
0000
0001
0000
,  // measure 36
0010
0010
0010
0000
,  // measure 37
0100
0000
0100
0000
,  // measure 38
1000
0000
0100
0000
,  // measure 39
0010
0000
0100
0000
,  // measure 40
0001
1000
0100
0100
,  // measure 41
1001
0000
0000
0000
;

//---------------dance-single - Chewphoria~----------------
#NOTES:
     dance-single:
     Chewphoria~:
     Beginner:
     2:
     0.089,0.133,0.022,0.000,0.000: // measure 1
1000
0000
0000
0000
,  // measure 2
0001
0001
0000
0000
,  // measure 3
0001
0000
0000
0000
,  // measure 4
1000
1000
0000
0000
,  // measure 5
0001
0000
0000
0000
,  // measure 6
0100
0000
0000
0000
,  // measure 7
1000
0000
0000
0000
,  // measure 8
0010
0000
0000
0000
,  // measure 9
1000
0000
0000
0000
,  // measure 10
0100
0100
0000
0000
,  // measure 11
0001
0000
0000
0000
,  // measure 12
0010
0010
0000
0000
,  // measure 13
1000
0000
0000
0000
,  // measure 14
1000
0000
0000
0000
,  // measure 15
0001
0000
0000
0000
,  // measure 16
0001
0000
0000
0000
,  // measure 17
1000
1000
1000
0000
,  // measure 18
0100
0100
0000
0000
,  // measure 19
0010
0010
0010
0000
,  // measure 20
0100
0100
0000
0000
,  // measure 21
1000
0000
0000
0000
,  // measure 22
0010
0000
0000
0000
,  // measure 23
0001
0000
0000
0000
,  // measure 24
0100
0000
0000
0000
,  // measure 25
0010
0000
0000
0000
,  // measure 26
1000
0000
0000
0000
,  // measure 27
0100
0000
0000
0000
,  // measure 28
1000
0000
0000
0000
,  // measure 29
0110
0000
0000
0000
,  // measure 30
0010
0000
0000
0000
,  // measure 31
0100
0000
0000
0000
,  // measure 32
0001
0000
0000
0000
,  // measure 33
1000
0000
0000
0000
,  // measure 34
0000
0000
0000
0000
,  // measure 35
0100
0000
0000
0000
,  // measure 36
0010
0010
0010
0000
,  // measure 37
0100
0000
0000
0000
,  // measure 38
1000
0000
0000
0000
,  // measure 39
0010
0000
0000
0000
,  // measure 40
0001
0001
0001
0000
,  // measure 41
1001
0000
0000
0000
;
