#VERSION:0.82;
#TITLE:늑대와 미녀 (Wolf);
#SUBTITLE:;
#ARTIST:EXO;
#TITLETRANSLIT:Wolf;
#SUBTITLETRANSLIT:;
#ARTISTTRANSLIT:;
#GENRE:K-Pop;
#ORIGIN:;
#CREDIT:chewi;
#BANNER:Wolf.png;
#BACKGROUND:Wolf-bg.png;
#PREVIEWVID:;
#JACKET:Wolf-jacket.png;
#CDIMAGE:;
#DISCIMAGE:;
#LYRICSPATH:;
#CDTITLE:cdtitle.png;
#MUSIC:Wolf.ogg;
#OFFSET:-0.640000;
#SAMPLESTART:34.925999;
#SAMPLELENGTH:15.000000;
#SELECTABLE:YES;
#BPMS:0.000=140.000;
#STOPS:;
#DELAYS:;
#WARPS:;
#TIMESIGNATURES:0.000=4=4;
#TICKCOUNTS:0.000=4;
#COMBOS:0.000=1;
#SPEEDS:0.000=1.000=0.000=0;
#SCROLLS:0.000=1.000;
#FAKES:;
#LABELS:0.000=Song Start;
#BGCHANGES:-0.500=Wolf.avi=1.000=1=0=0=StretchNoLoop==CrossFade==,
99999=-nosongbg-=1.000=0=0=0 // don't automatically add -songbackground-
;
#KEYSOUNDS:;
#ATTACKS:
;

//---------------dance-single - ----------------
#NOTEDATA:;
#CHARTNAME:;
#STEPSTYPE:dance-single;
#DESCRIPTION:;
#CHARTSTYLE:;
#DIFFICULTY:Beginner;
#METER:1;
#RADARVALUES:0.099720,0.143895,0.048985,0.024493,0.000000,51.000000,4.000000,2.000000,0.000000,0.000000,0.000000,0.000000,0.000000,0.099720,0.143895,0.048985,0.024493,0.000000,51.000000,4.000000,2.000000,0.000000,0.000000,0.000000,0.000000,0.000000;
#CREDIT:;
#NOTES:
0000
0000
0000
0000
,
0000
0000
0000
0000
,
0000
0000
0000
0000
,
0000
0000
0000
0000
,
1000
0000
0000
0000
,
1000
0000
0000
0000
,
0001
0000
0000
0000
,
0001
0000
0000
0000
,
1000
0000
0000
0000
,
1000
0000
0000
0000
,
0001
0000
0000
0000
,
0001
0000
0000
0000
,
0100
0000
0000
0000
,
0100
0000
0000
0000
,
0010
0000
0000
0000
,
0010
0000
0000
0000
,
0100
0000
0000
0000
,
0100
0000
0000
0000
,
0010
0000
0000
0000
,
0010
0000
0000
0000
,
1001
0000
0000
0000
,
1000
0000
1000
0000
,
1000
0000
0000
0000
,
0001
0000
0000
0000
,
1001
0000
0000
0000
,
0100
0000
0100
0000
,
0100
0000
0000
0000
,
0010
0000
0000
0000
,
2000
0000
0000
0000
,
0000
0000
0000
3000
,
1000
1000
1000
0000
,
1000
0000
0000
0000
,
0002
0000
0000
0000
,
0000
0000
0000
0003
,
0001
0001
0001
0000
,
0001
0000
0001
0000
,
1001
0000
0000
0000
,
1000
0000
0000
0000
,
0001
0000
0000
0000
,
0100
0000
0100
0000
,
0010
0000
0000
0000
,
0010
0000
0000
0000
,
0100
0000
0100
0000
,
0010
0000
0000
0000
,
1001
0000
0000
0000
,
1000
0000
0000
0000
,
0001
0000
0000
0000
,
1000
0000
0000
0000
;

//---------------dance-single - ----------------
#NOTEDATA:;
#CHARTNAME:;
#STEPSTYPE:dance-single;
#DESCRIPTION:;
#CHARTSTYLE:;
#DIFFICULTY:Easy;
#METER:4;
#RADARVALUES:0.171449,0.201452,0.097971,0.122463,0.000000,80.000000,8.000000,10.000000,0.000000,0.000000,0.000000,0.000000,0.000000,0.171449,0.201452,0.097971,0.122463,0.000000,80.000000,8.000000,10.000000,0.000000,0.000000,0.000000,0.000000,0.000000;
#CREDIT:;
#NOTES:
0000
0000
0000
0000
,
0000
0000
0000
0000
,
0000
0000
0000
0000
,
0000
0000
0000
0000
,
1000
0000
0100
0000
,
0010
0010
0010
0000
,
0001
0000
0100
0000
,
0010
0010
0010
0000
,
1000
0000
0001
0000
,
1000
0001
1000
0000
,
0001
0000
1000
0000
,
0001
1000
0001
0000
,
1000
0000
0100
0000
,
0001
0000
0010
0000
,
1000
0000
0100
0000
,
0020
0000
0000
0030
,
0001
0000
0010
0000
,
1000
0000
0100
0000
,
0001
0000
0010
0000
,
0200
0000
0300
0000
,
0110
0000
0110
0000
,
0010
0010
0010
0000
,
0100
0000
1000
0000
,
0001
0000
1000
0000
,
1001
0000
0001
0000
,
1000
1000
1000
0000
,
0010
0000
0100
0000
,
0001
0000
0100
0000
,
0020
0000
0000
0030
,
2000
0000
0000
3000
,
0002
0000
0000
0003
,
2000
0000
0000
3000
,
0200
0000
0000
0300
,
0020
0000
0000
0030
,
0200
0000
0000
0300
,
2000
0000
0000
3000
,
0001
0000
1001
0000
,
1000
0000
1000
0000
,
1000
0000
1001
0000
,
0001
0000
0001
0000
,
0100
0000
0110
0000
,
0010
0000
0010
0000
,
0010
0000
0110
0000
,
0100
0000
0100
0000
,
1001
0000
0000
0000
,
1000
0000
0000
0000
,
0001
0000
0000
0000
,
0010
0000
0000
0000
;

//---------------dance-single - ----------------
#NOTEDATA:;
#CHARTNAME:;
#STEPSTYPE:dance-single;
#DESCRIPTION:;
#CHARTSTYLE:;
#DIFFICULTY:Medium;
#METER:7;
#RADARVALUES:0.325403,0.316568,0.244927,0.048985,0.000000,162.000000,20.000000,4.000000,0.000000,0.000000,0.000000,0.000000,0.000000,0.325403,0.316568,0.244927,0.048985,0.000000,162.000000,20.000000,4.000000,0.000000,0.000000,0.000000,0.000000,0.000000;
#CREDIT:;
#NOTES:
0000
0000
0000
0000
,
0000
0000
0000
0000
,
0000
0000
0000
0000
,
0000
0000
0000
0000
,
1000
0000
1100
0000
,
1000
0100
0010
0001
,
1000
0000
1001
0000
,
0001
1000
0010
0100
,
0010
0000
0110
0000
,
0100
0010
1000
0001
,
1000
0000
1100
0000
,
0001
0100
0010
0100
,
0010
0010
0010
0000
0100
0000
0010
0000
,
0100
0100
0100
0000
0010
0000
0100
0000
,
0001
1000
0100
0010
,
0220
0000
0000
0330
,
0010
0000
0100
0000
1000
0001
0010
0000
,
0100
1000
1001
0000
,
1000
0000
0010
0000
0100
0001
0010
0000
,
0001
1000
1001
0000
,
0110
1000
0110
0001
,
0110
1000
0001
0000
,
1000
0100
0010
0001
1000
0000
0000
0000
,
0001
0010
0100
1000
0001
0000
0000
0000
,
1001
0100
1001
0100
,
1001
0010
1001
0000
,
1000
0010
0100
0001
1000
0000
0000
0000
,
0001
0010
0100
1000
0001
0000
0000
0000
,
1000
0100
0001
0010
,
1000
0100
0001
0100
,
0010
0000
0100
0010
0000
0010
0100
0000
,
0010
0000
0100
0010
0000
0010
0100
0000
,
1000
0010
0001
0100
,
1000
0010
0001
0100
,
0010
0000
0100
0010
0000
0010
0100
0000
,
0100
0000
0100
0010
0000
0010
0100
0000
,
1000
0100
1001
0000
,
0001
0100
0110
0001
,
0010
0100
0101
0000
,
1000
0100
0010
0100
,
1000
0001
1001
1000
,
0100
0010
0110
0000
,
0010
0100
1000
0001
,
0010
0100
0010
0000
0100
0010
0100
0000
,
0020
0000
0000
0000
,
0032
0000
0000
1000
,
1003
0000
0001
0000
,
1001
0000
0000
0000
;

//---------------dance-single - ----------------
#NOTEDATA:;
#CHARTNAME:;
#STEPSTYPE:dance-single;
#DESCRIPTION:;
#CHARTSTYLE:;
#DIFFICULTY:Hard;
#METER:10;
#RADARVALUES:0.498601,0.460463,0.391883,0.036739,0.000000,250.000000,32.000000,3.000000,0.000000,0.000000,0.000000,0.000000,0.000000,0.498601,0.460463,0.391883,0.036739,0.000000,250.000000,32.000000,3.000000,0.000000,0.000000,0.000000,0.000000,0.000000;
#CREDIT:;
#NOTES:
// measure 0
0000
0000
0000
0000
,  // measure 1
0000
0000
0000
0000
,  // measure 2
0000
0000
0000
0000
,  // measure 3
0000
0000
0000
0000
,  // measure 4
1000
0001
0100
0000
0110
0000
0000
0000
,  // measure 5
1000
0001
0010
0100
1000
0000
0000
0000
,  // measure 6
1000
0100
0010
0000
0110
0000
0000
0000
,  // measure 7
0100
0010
0001
1000
0100
0000
0000
0000
,  // measure 8
1000
0001
0100
0000
0101
0000
0000
0000
,  // measure 9
0100
0010
1000
0001
1000
0000
0000
0000
,  // measure 10
0001
1000
0100
0000
1100
0000
0000
0000
,  // measure 11
1000
0100
0010
0001
1000
0000
0000
0000
,  // measure 12
0001
1000
0001
1000
0100
0010
0100
0010
,  // measure 13
0001
0010
0001
0010
0100
1000
0100
1000
,  // measure 14
0001
0010
0100
1000
0001
0010
0100
1000
,  // measure 15
0002
1000
0010
1003
,  // measure 16
1000
0010
1000
0010
0100
0001
0100
0001
,  // measure 17
0100
0010
0100
0010
1000
0001
1000
0001
,  // measure 18
1000
0100
1000
0100
0010
0100
0010
0100
,  // measure 19
0020
0100
1000
0130
,  // measure 20
0110
1001
0110
1001
,  // measure 21
0010
0100
1000
0010
0100
0001
0100
0000
,  // measure 22
0001
0100
0001
0000
0100
0000
0010
0000
,  // measure 23
1000
0010
1000
0000
0010
0000
0100
0000
,  // measure 24
0110
1001
0110
1001
,  // measure 25
0110
0000
0100
0010
1000
0000
1001
0000
,  // measure 26
1000
0100
0010
0001
1000
0000
1100
0000
,  // measure 27
0001
0010
0100
1000
0001
0000
0011
0000
,  // measure 28
0010
0001
0010
0001
0100
0001
0100
0001
,  // measure 29
0010
0001
0010
0001
0100
0010
1000
0001
,  // measure 30
0100
0010
0100
0010
0000
0010
0100
0000
,  // measure 31
0001
1000
0100
0010
0100
0000
0110
0000
,  // measure 32
0010
0100
0010
0100
1000
0100
1000
0100
,  // measure 33
1000
0001
1000
0001
0100
0001
0100
0001
,  // measure 34
0100
0010
0100
0001
0000
0001
0100
0010
,  // measure 35
1000
0001
1000
0100
0010
0000
0110
0000
,  // measure 36
1001
0101
1001
1100
,  // measure 37
0001
0010
0100
1000
0001
0000
1000
0000
,  // measure 38
0101
0011
1100
1010
,  // measure 39
0001
0010
0100
1000
0001
0010
0100
1000
,  // measure 40
1001
0101
1001
1100
,  // measure 41
1000
0010
0100
0001
1000
0000
0010
0000
,  // measure 42
0100
0010
0100
0010
1000
0010
0100
0010
,  // measure 43
0200
1000
0010
0301
,  // measure 44
0001
1000
0100
0010
,  // measure 45
0100
0000
1000
0000
0001
0010
0100
1000
,  // measure 46
1001
0100
0010
0100
,  // measure 47
0110
0000
0000
0000
;
