#VERSION:0.82;
#TITLE:我只想在乎我在乎的;
#SUBTITLE:;
#ARTIST:白安;
#TITLETRANSLIT:Wo Zhi Xiang Zai Hu Wo Zai Hu De;
#SUBTITLETRANSLIT:;
#ARTISTTRANSLIT:Ann Bai;
#GENRE:Electronic Folk Pop;
#ORIGIN:;
#CREDIT:chewi;
#BANNER:Wo Zhi Xiang Zai Hu Wo Zai Hu De.png;
#BACKGROUND:Wo Zhi Xiang Zai Hu Wo Zai Hu De-bg.png;
#PREVIEWVID:;
#JACKET:Wo Zhi Xiang Zai Hu Wo Zai Hu De-jacket.png;
#CDIMAGE:;
#DISCIMAGE:;
#LYRICSPATH:;
#CDTITLE:cdtitle.png;
#MUSIC:Wo Zhi Xiang Zai Hu Wo Zai Hu De.ogg;
#OFFSET:-0.278000;
#SAMPLESTART:45.699001;
#SAMPLELENGTH:15.000000;
#SELECTABLE:YES;
#BPMS:0.000=124.000;
#STOPS:;
#DELAYS:;
#WARPS:;
#TIMESIGNATURES:0.000=4=4;
#TICKCOUNTS:0.000=4;
#COMBOS:0.000=1;
#SPEEDS:0.000=1.000=0.000=0;
#SCROLLS:0.000=1.000;
#FAKES:;
#LABELS:0.000=Song Start;
#BGCHANGES:-0.250=Wo Zhi Xiang Zai Hu Wo Zai Hu De.avi=1.000=1=0=0=StretchNoLoop==CrossFade==,
99999=-nosongbg-=1.000=0=0=0 // don't automatically add -songbackground-
;
#KEYSOUNDS:;
#ATTACKS:
;

//---------------dance-single - ----------------
#NOTEDATA:;
#CHARTNAME:;
#STEPSTYPE:dance-single;
#DESCRIPTION:;
#CHARTSTYLE:;
#DIFFICULTY:Beginner;
#METER:1;
#RADARVALUES:0.077009,0.072608,0.044005,0.000000,0.000000,45.000000,4.000000,0.000000,0.000000,0.000000,0.000000,0.000000,0.000000,0.077009,0.072608,0.044005,0.000000,0.000000,45.000000,4.000000,0.000000,0.000000,0.000000,0.000000,0.000000,0.000000;
#CREDIT:;
#NOTES:
// measure 0
0000
0000
0000
0000
,  // measure 1
0000
0000
0000
0000
,  // measure 2
0000
0000
0000
0000
,  // measure 3
0000
0000
0000
0000
,  // measure 4
1000
0000
0000
0000
,  // measure 5
0001
0000
0000
0000
,  // measure 6
1000
0000
0000
0000
,  // measure 7
0001
0000
0000
0000
,  // measure 8
0100
0000
0000
0000
,  // measure 9
0000
0000
0000
0000
,  // measure 10
0100
0000
0000
0000
,  // measure 11
0000
0000
0000
0000
,  // measure 12
0010
0000
0000
0000
,  // measure 13
0000
0000
0000
0000
,  // measure 14
0010
0000
0000
0000
,  // measure 15
0000
0000
0000
0000
,  // measure 16
1001
0000
0000
0000
,  // measure 17
1000
0000
0000
0000
,  // measure 18
1000
0000
0000
0000
,  // measure 19
1000
0000
0000
0000
,  // measure 20
1001
0000
0000
0000
,  // measure 21
0001
0000
0000
0000
,  // measure 22
0001
0000
0000
0000
,  // measure 23
0001
0000
0000
0000
,  // measure 24
0100
0000
0100
0000
,  // measure 25
0100
0000
0000
0000
,  // measure 26
0010
0000
0010
0000
,  // measure 27
0010
0000
0000
0000
,  // measure 28
1000
0000
1000
0000
,  // measure 29
1000
0000
0000
0000
,  // measure 30
0001
0000
0001
0000
,  // measure 31
0001
0000
0000
0000
,  // measure 32
0001
0000
0001
0000
,  // measure 33
0001
0000
0000
0000
,  // measure 34
1000
0000
1000
0000
,  // measure 35
1000
0000
0000
0000
,  // measure 36
0010
0000
0010
0000
,  // measure 37
0010
0000
0000
0000
,  // measure 38
0100
0000
0100
0000
,  // measure 39
0100
0000
0000
0000
,  // measure 40
0110
0000
0000
0000
,  // measure 41
0010
0000
0000
0000
,  // measure 42
0010
0000
0000
0000
,  // measure 43
0010
0000
0000
0000
,  // measure 44
0110
0000
0000
0000
;

//---------------dance-single - ----------------
#NOTEDATA:;
#CHARTNAME:;
#STEPSTYPE:dance-single;
#DESCRIPTION:;
#CHARTSTYLE:;
#DIFFICULTY:Easy;
#METER:4;
#RADARVALUES:0.152445,0.169419,0.011001,0.143016,0.000000,83.000000,1.000000,13.000000,0.000000,0.000000,0.000000,0.000000,0.000000,0.152445,0.169419,0.011001,0.143016,0.000000,83.000000,1.000000,13.000000,0.000000,0.000000,0.000000,0.000000,0.000000;
#CREDIT:;
#NOTES:
0000
0000
0000
0000
,
0000
0000
0000
0000
,
0000
0000
0000
0000
,
0000
0000
0000
0000
,
0002
0000
0000
0003
,
0001
0000
0000
0000
,
2000
0000
0000
3000
,
1000
0000
0000
0000
,
2001
0000
0000
0000
,
3002
0000
0000
0000
,
0203
0000
0000
0000
,
0320
0000
0000
0000
,
0230
0000
0000
0000
,
0302
0000
0000
0000
,
2003
0000
0000
0000
,
3001
0001
1000
1000
,
0100
0000
0100
0000
,
0200
0000
0000
0300
,
0010
0000
0010
0000
,
0020
0000
0000
0030
,
0001
0000
0001
0000
,
0002
0000
0000
0003
,
1000
0000
1000
0000
,
2000
0000
0000
3000
,
1000
1000
0001
0000
,
0001
0001
1000
0000
,
1000
1000
0001
0001
,
1000
0001
1000
0000
,
0001
1000
0001
0000
,
1000
0001
1000
0000
,
0010
0100
0010
0000
,
0100
0010
0100
0000
,
0100
0100
0010
0000
,
0010
0010
0100
0000
,
0100
0100
0010
0010
,
0100
0010
0100
0000
,
0010
0100
0010
0000
,
1000
0001
1000
0000
,
0001
1000
0001
0000
,
0010
0100
0010
0010
,
0010
0000
0000
0000
,
0001
0000
0000
0000
,
0100
0000
0000
0000
,
1000
0000
0000
0000
,
0010
0000
0000
0000
;

//---------------dance-single - ----------------
#NOTEDATA:;
#CHARTNAME:;
#STEPSTYPE:dance-single;
#DESCRIPTION:;
#CHARTSTYLE:;
#DIFFICULTY:Medium;
#METER:6;
#RADARVALUES:0.198022,0.217824,0.055006,0.099011,0.000000,112.000000,5.000000,9.000000,0.000000,0.000000,0.000000,0.000000,0.000000,0.198022,0.217824,0.055006,0.099011,0.000000,112.000000,5.000000,9.000000,0.000000,0.000000,0.000000,0.000000,0.000000;
#CREDIT:;
#NOTES:
0000
0000
0000
0000
,
0000
0000
0000
0000
,
0000
0000
0000
0000
,
0000
0000
0000
0000
,
1000
0000
0000
1000
0000
0000
1000
0000
,
0001
0000
0000
0001
0000
0000
0001
0000
,
0100
0000
0000
0100
0000
0000
0100
0000
,
0010
0000
0000
0010
0000
0000
0010
0000
,
0020
0000
0000
0000
,
2030
0000
0000
0000
,
3200
0000
0000
0000
,
0302
0000
0000
0000
,
0023
0000
0000
0000
,
0032
0000
0000
0000
,
0203
0000
0000
0000
,
2300
0000
0000
0000
,
3010
0000
0000
0010
0000
0010
0000
0000
,
0100
0000
0000
0100
0000
0100
0000
0000
,
0001
0000
0000
0001
0000
0001
0000
0000
,
1000
0000
0000
1000
0000
1000
0000
0000
,
1000
0001
0010
0000
,
0001
1000
0100
0000
,
1000
0001
0100
0000
,
0100
0100
0010
0010
,
0100
0000
0010
0000
1000
1000
0000
1000
,
0000
0000
1000
0100
,
0010
0000
0001
0000
0010
0010
0000
0010
,
0000
0000
0000
0001
,
1000
0000
0000
1001
0000
0000
0100
0000
,
0010
0000
0000
0110
0000
0000
0100
0000
,
0010
1000
0001
1000
,
0100
0100
0100
0100
,
0010
0000
0001
0000
0010
0001
0000
0001
,
0000
0000
0001
0010
,
0100
0000
1000
0000
0100
1000
0000
1000
,
0000
0000
0000
1000
,
0001
0000
0000
1001
0000
0000
1000
0000
,
0010
0000
0000
0110
0000
0000
0100
0000
,
0010
1000
0001
1000
,
0002
0010
1000
0103
,
0100
0000
0000
0100
0000
0000
0100
0000
,
0010
0000
0000
0010
0000
0000
0010
0000
,
1000
0000
0000
1000
0000
0000
1000
0000
,
0001
0000
0000
0001
0000
0000
0001
0000
,
1001
0000
0000
0000
;

//---------------dance-single - ----------------
#NOTEDATA:;
#CHARTNAME:;
#STEPSTYPE:dance-single;
#DESCRIPTION:;
#CHARTSTYLE:;
#DIFFICULTY:Hard;
#METER:9;
#RADARVALUES:0.320607,0.387243,0.165018,0.044005,0.000000,185.000000,15.000000,4.000000,0.000000,0.000000,0.000000,0.000000,0.000000,0.320607,0.387243,0.165018,0.044005,0.000000,185.000000,15.000000,4.000000,0.000000,0.000000,0.000000,0.000000,0.000000;
#CREDIT:;
#NOTES:
0000
0000
0000
0000
,
0000
0000
0000
0000
,
0000
0000
0000
0000
,
0000
0000
0000
0000
,
1010
0000
0000
1000
0000
0000
0010
0000
,
1001
0000
0000
1000
0000
0000
0001
0000
,
0101
0000
0000
0100
0000
0000
0001
0000
,
1001
0000
0000
1000
0000
0000
0000
0000
,
1000
0100
0000
0010
0000
0100
0000
1000
,
0000
0001
0000
0100
0000
0010
0000
0100
,
0001
0100
0000
0001
0000
1000
0000
0100
,
0010
0000
0100
1000
0001
0010
0000
0001
,
0000
0000
0010
0001
0000
1000
0000
1000
,
0010
0000
0100
0001
0000
0000
0100
0000
,
0101
0000
0000
0000
,
1100
0000
0000
0000
0000
0000
0000
1000
,
0100
0010
0001
0010
0000
0010
0000
0001
,
0010
0100
1000
0100
0000
0100
0000
1000
,
0001
1000
0001
0100
0000
0100
0000
0010
,
0100
0000
0001
1000
0010
0100
0000
0001
,
0000
0000
1000
0100
0000
0000
0000
0001
,
0100
0000
1000
0010
0000
0000
0001
0000
,
0010
0000
0000
0000
,
0100
0000
0000
0100
0010
0001
0010
0000
,
0012
0100
1000
0013
,
1000
0100
1000
0100
1000
0010
1000
0010
,
2010
0001
0100
3001
,
1000
0001
1000
0001
0100
0010
0100
0010
,
0100
0000
0100
0001
0000
0001
0100
0010
,
1000
0000
1000
0001
0000
0001
1000
0100
,
0010
0100
1000
0001
0010
0100
0010
0001
,
1000
0001
1000
0001
0100
0010
0100
0010
,
0210
0001
0010
0301
,
0010
1000
0100
0000
1000
0100
0010
0000
,
0012
1000
0100
1003
,
1000
0010
1000
0000
0001
0100
0001
0100
,
0010
0000
0010
1000
0000
1000
0001
0010
,
0100
0000
0100
1000
0000
1000
0100
0010
,
0001
0010
0000
0000
0000
0000
0000
0000
,
0000
0100
0010
0001
1000
0100
0010
0000
,
0011
0000
0000
0010
0000
0000
0001
0000
,
1001
0000
0000
1000
0000
0000
0001
0000
,
0101
0000
0000
0100
0000
0000
0010
0000
,
1010
0000
0000
1000
0000
0000
0001
0000
,
1001
0000
0000
0000
;
