#VERSION:0.83;
#TITLE:Willy Use a Billy... Boy (Instrumental);
#SUBTITLE:;
#ARTIST:E-Rotic;
#TITLETRANSLIT:;
#SUBTITLETRANSLIT:;
#ARTISTTRANSLIT:;
#GENRE:Pop;
#ORIGIN:;
#CREDIT:steps by chewi;
#BANNER:Willy Use a Billy... Boy (Instrumental).png;
#BACKGROUND:Willy Use a Billy... Boy (Instrumental)-bg.png;
#PREVIEWVID:;
#JACKET:Willy Use a Billy... Boy (Instrumental)-jacket.png;
#CDIMAGE:;
#DISCIMAGE:;
#LYRICSPATH:;
#CDTITLE:cdtitle.png;
#MUSIC:Willy Use a Billy... Boy (Instrumental).ogg;
#OFFSET:0.000000;
#SAMPLESTART:26.737000;
#SAMPLELENGTH:15.000000;
#SELECTABLE:YES;
#BPMS:0.000=143.623;
#STOPS:;
#DELAYS:;
#WARPS:;
#TIMESIGNATURES:0.000=4=4;
#TICKCOUNTS:0.000=4;
#COMBOS:0.000=1;
#SPEEDS:0.000=1.000=0.000=0;
#SCROLLS:0.000=1.000;
#FAKES:;
#LABELS:0.000=Song Start;
#BGCHANGES:;
#KEYSOUNDS:;
#ATTACKS:
;

//---------------dance-single - ----------------
#NOTEDATA:;
#CHARTNAME:;
#STEPSTYPE:dance-single;
#DESCRIPTION:;
#CHARTSTYLE:;
#DIFFICULTY:Beginner;
#METER:1;
#RADARVALUES:0.089350,0.173561,0.044675,0.071480,0.000000,70.000000,65.000000,5.000000,8.000000,0.000000,0.000000,0.000000,0.000000,0.000000,0.089350,0.173561,0.044675,0.071480,0.000000,70.000000,65.000000,5.000000,8.000000,0.000000,0.000000,0.000000,0.000000,0.000000;
#CREDIT:;
#NOTES:
// measure 0
0000
0000
0000
0000
,  // measure 1
0000
0000
0000
0000
,  // measure 2
0000
0000
0000
0000
,  // measure 3
0000
0000
0000
0000
,  // measure 4
2000
0000
0000
0000
,  // measure 5
0000
0000
0000
3000
,  // measure 6
0002
0000
0000
0000
,  // measure 7
0000
0000
0000
0003
,  // measure 8
0100
0000
0000
0000
,  // measure 9
0000
0000
0000
0000
,  // measure 10
0010
0000
0000
0000
,  // measure 11
0000
0000
0000
0000
,  // measure 12
0100
0000
0000
0000
,  // measure 13
0000
0000
0000
0000
,  // measure 14
0010
0000
0000
0000
,  // measure 15
0000
0000
0000
0000
,  // measure 16
1001
0000
0000
0000
,  // measure 17
1000
0000
0000
0000
,  // measure 18
0001
0000
0000
0000
,  // measure 19
1000
0000
0000
0000
,  // measure 20
0110
0000
0000
0000
,  // measure 21
0100
0000
0000
0000
,  // measure 22
0010
0000
0000
0000
,  // measure 23
0100
0000
0000
0000
,  // measure 24
0200
0000
0000
0000
,  // measure 25
0000
0000
0000
0300
,  // measure 26
0100
0000
0000
0000
,  // measure 27
0100
0000
0000
0000
,  // measure 28
0002
0000
0000
0000
,  // measure 29
0000
0000
0000
0003
,  // measure 30
0001
0000
0000
0000
,  // measure 31
0001
0000
0000
0000
,  // measure 32
1001
0000
0000
0000
,  // measure 33
1000
0000
1000
0000
,  // measure 34
1000
0000
1000
0000
,  // measure 35
0001
0000
0001
0000
,  // measure 36
0001
0000
0001
0000
,  // measure 37
1000
0000
1000
0000
,  // measure 38
1000
0000
1000
0000
,  // measure 39
0001
0000
0001
0000
,  // measure 40
0001
0000
0001
0000
,  // measure 41
0100
0000
0100
0000
,  // measure 42
0100
0000
0100
0000
,  // measure 43
0010
0000
0010
0000
,  // measure 44
0010
0000
0010
0000
,  // measure 45
0100
0000
0100
0000
,  // measure 46
0100
0000
0100
0000
,  // measure 47
0010
0000
0010
0000
,  // measure 48
0010
0000
0010
0000
,  // measure 49
0110
0000
0000
0000
,  // measure 50
0100
0000
0000
0000
,  // measure 51
0010
0000
0000
0000
,  // measure 52
0100
0000
0000
0000
,  // measure 53
1001
0000
0000
0000
,  // measure 54
0001
0000
0000
0000
,  // measure 55
1000
0000
0000
0000
,  // measure 56
0001
0000
0000
0000
,  // measure 57
0002
0000
0000
0000
,  // measure 58
0000
0000
0000
0003
,  // measure 59
0020
0000
0000
0000
,  // measure 60
0000
0000
0000
0030
,  // measure 61
0200
0000
0000
0000
,  // measure 62
0000
0000
0000
0300
,  // measure 63
2000
0000
0000
0000
,  // measure 64
0000
0000
0000
3000
;

//---------------dance-single - ----------------
#NOTEDATA:;
#CHARTNAME:;
#STEPSTYPE:dance-single;
#DESCRIPTION:;
#CHARTSTYLE:;
#DIFFICULTY:Easy;
#METER:4;
#RADARVALUES:0.165935,0.261347,0.000000,0.178699,0.000000,130.000000,130.000000,0.000000,20.000000,0.000000,0.000000,0.000000,0.000000,0.000000,0.165935,0.261347,0.000000,0.178699,0.000000,130.000000,130.000000,0.000000,20.000000,0.000000,0.000000,0.000000,0.000000,0.000000;
#CREDIT:;
#NOTES:
// measure 0
0000
0000
0000
0000
,  // measure 1
0000
0000
0000
0000
,  // measure 2
0000
0000
0000
0000
,  // measure 3
0000
0000
0000
0000
,  // measure 4
2000
0000
0000
0000
,  // measure 5
3200
0000
0000
0000
,  // measure 6
0320
0000
0000
0000
,  // measure 7
0032
0000
0000
0000
,  // measure 8
1003
0000
0000
0000
,  // measure 9
0000
0000
0000
0000
,  // measure 10
0001
0000
0000
0000
,  // measure 11
0000
0000
0000
0000
,  // measure 12
1000
0000
0000
0000
,  // measure 13
0000
0000
0000
0000
,  // measure 14
0001
0000
0000
0000
,  // measure 15
0100
0100
0100
0100
,  // measure 16
0100
0010
0100
0010
,  // measure 17
0100
0100
0010
0010
,  // measure 18
0010
0100
0010
0100
,  // measure 19
0010
0010
0100
0100
,  // measure 20
0001
1000
0001
1000
,  // measure 21
1000
1000
0001
0001
,  // measure 22
0001
1000
0001
1000
,  // measure 23
0001
0001
0001
0001
,  // measure 24
2000
0000
0000
3000
,  // measure 25
0200
0000
0000
0300
,  // measure 26
0020
0000
0000
0030
,  // measure 27
0002
0000
0000
0003
,  // measure 28
0002
0000
0000
0003
,  // measure 29
0200
0000
0000
0300
,  // measure 30
0020
0000
0000
0030
,  // measure 31
2000
0000
0000
3000
,  // measure 32
1000
1000
1000
1000
,  // measure 33
0000
1000
0000
0100
,  // measure 34
0000
0010
0000
1000
,  // measure 35
0000
0100
0000
0010
,  // measure 36
0000
1000
0000
0100
,  // measure 37
0000
0001
0000
0010
,  // measure 38
0000
0100
0000
0001
,  // measure 39
0000
0010
0000
0100
,  // measure 40
0000
0001
0000
0010
,  // measure 41
0000
1000
0000
1000
,  // measure 42
0000
0001
0000
0001
,  // measure 43
0000
0010
0000
0010
,  // measure 44
0000
0100
0000
0100
,  // measure 45
0000
1000
0000
1000
,  // measure 46
0000
0001
0000
0001
,  // measure 47
0000
0100
0000
0100
,  // measure 48
0010
0010
0010
0010
,  // measure 49
0100
0100
0010
0010
,  // measure 50
0100
0010
0100
0010
,  // measure 51
0100
0100
0010
0010
,  // measure 52
0010
0100
0010
0100
,  // measure 53
0010
0010
0100
0100
,  // measure 54
0001
1000
0001
1000
,  // measure 55
1000
1000
0001
0001
,  // measure 56
0001
0001
0001
0001
,  // measure 57
0002
0000
0000
0000
,  // measure 58
0023
0000
0000
0000
,  // measure 59
0230
0000
0000
0000
,  // measure 60
2300
0000
0000
0000
,  // measure 61
3002
0000
0000
0000
,  // measure 62
0203
0000
0000
0000
,  // measure 63
0320
0000
0000
0000
,  // measure 64
2030
0000
0000
0000
,  // measure 65
3000
0000
0000
0000
;

//---------------dance-single - ----------------
#NOTEDATA:;
#CHARTNAME:;
#STEPSTYPE:dance-single;
#DESCRIPTION:;
#CHARTSTYLE:;
#DIFFICULTY:Medium;
#METER:6;
#RADARVALUES:0.215715,0.290386,0.008935,0.366333,0.000000,169.000000,168.000000,1.000000,41.000000,0.000000,0.000000,0.000000,0.000000,0.000000,0.215715,0.290386,0.008935,0.366333,0.000000,169.000000,168.000000,1.000000,41.000000,0.000000,0.000000,0.000000,0.000000,0.000000;
#CREDIT:;
#NOTES:
// measure 0
0000
0000
0000
0000
,  // measure 1
0000
0000
0000
0000
,  // measure 2
0000
0000
0000
0000
,  // measure 3
0000
0000
0000
0000
,  // measure 4
2000
0000
0000
0000
,  // measure 5
3020
0000
0000
0000
,  // measure 6
0032
0000
0000
0000
,  // measure 7
0203
0000
0000
0000
,  // measure 8
1300
0000
0000
0000
,  // measure 9
0000
0000
0000
0000
,  // measure 10
0001
0000
0000
0000
,  // measure 11
0000
0000
0000
0000
,  // measure 12
1000
0000
0000
0000
,  // measure 13
0000
0000
0000
0000
,  // measure 14
0001
0000
0000
0000
,  // measure 15
0100
0100
0100
0100
,  // measure 16
0200
0301
0002
0103
,  // measure 17
0200
0301
0002
0103
,  // measure 18
0200
0310
0020
0130
,  // measure 19
0200
0310
0020
0130
,  // measure 20
0020
1030
2000
3010
,  // measure 21
0020
1030
2000
3010
,  // measure 22
2000
3001
0002
1003
,  // measure 23
1000
0001
1000
0001
,  // measure 24
1000
0000
1000
0000
,  // measure 25
0100
0000
0100
0000
,  // measure 26
0001
0000
0001
0000
,  // measure 27
0010
0000
0010
0000
,  // measure 28
1000
0000
1000
0000
,  // measure 29
0100
0000
0100
0000
,  // measure 30
0001
0000
0001
0000
,  // measure 31
0010
0000
0010
0000
,  // measure 32
1000
1000
1000
1000
,  // measure 33
1000
0100
0001
0010
,  // measure 34
1000
0100
0001
0100
,  // measure 35
1000
0010
0001
0100
,  // measure 36
1000
0010
0001
0010
,  // measure 37
1000
0100
0001
0010
,  // measure 38
1000
0010
0001
0010
,  // measure 39
1000
0010
0001
0100
,  // measure 40
1000
0010
0001
0010
,  // measure 41
0010
0100
1000
0001
,  // measure 42
0100
0010
1000
0001
,  // measure 43
1000
0100
0010
0001
,  // measure 44
0001
0010
0100
1000
,  // measure 45
0001
1000
0010
0100
,  // measure 46
0100
0010
1000
0001
,  // measure 47
0001
0010
0100
1000
,  // measure 48
1000
1000
1000
1000
,  // measure 49
0020
1030
2000
3010
,  // measure 50
0020
1030
2000
3010
,  // measure 51
0020
0130
0200
0310
,  // measure 52
0020
0130
0200
0310
,  // measure 53
0200
0301
0002
0103
,  // measure 54
0200
0301
0002
0103
,  // measure 55
0002
1003
2000
3001
,  // measure 56
0001
0001
0001
0001
,  // measure 57
2002
0000
0000
3000
,  // measure 58
0020
0000
0000
0003
,  // measure 59
0200
0000
0000
0030
,  // measure 60
2000
0000
0000
0300
,  // measure 61
0020
0000
0000
3000
,  // measure 62
0200
0000
0000
0030
,  // measure 63
0002
0000
0000
0300
,  // measure 64
2000
0000
0000
0000
,  // measure 65
3003
0000
0000
0000
;

//---------------dance-single - ----------------
#NOTEDATA:;
#CHARTNAME:;
#STEPSTYPE:dance-single;
#DESCRIPTION:;
#CHARTSTYLE:;
#DIFFICULTY:Hard;
#METER:10;
#RADARVALUES:0.351016,0.377502,0.000000,0.107219,0.259114,275.000000,275.000000,0.000000,12.000000,0.000000,0.000000,0.000000,0.000000,0.000000,0.351016,0.377502,0.000000,0.107219,0.259114,275.000000,275.000000,0.000000,12.000000,0.000000,0.000000,0.000000,0.000000,0.000000;
#CREDIT:;
#NOTES:
// measure 0
0000
0000
0000
0000
,  // measure 1
0000
0000
0000
0000
,  // measure 2
0000
0000
0000
0000
,  // measure 3
0000
0000
0000
0000
,  // measure 4
2000
0000
0000
0000
,  // measure 5
3200
0000
0000
0000
,  // measure 6
0320
0000
0000
0000
,  // measure 7
0032
0000
0000
0000
,  // measure 8
0003
0000
1000
0000
0000
1000
0000
0000
1000
0000
0000
1000
0000
0000
1000
0000
,  // measure 9
0000
0000
0001
0000
0000
0001
0000
0000
0001
0000
0000
0001
0000
0000
0001
0000
,  // measure 10
0000
0000
0010
0000
0000
0010
0000
0000
0010
0000
0000
0010
0000
0000
0010
0000
,  // measure 11
0000
0000
0100
0000
0000
0100
0000
0000
0100
0000
0000
0100
0000
0000
0100
0000
,  // measure 12
0000
0000
1000
0000
0000
1000
0000
0000
1000
0000
0000
1000
0000
0000
1000
0000
,  // measure 13
0000
0000
0010
0000
0000
0010
0000
0000
0010
0000
0000
0010
0000
0000
0010
0000
,  // measure 14
0000
0000
0100
0000
0000
0100
0000
0000
0100
0000
0000
0100
0000
0000
0100
0000
,  // measure 15
0001
0001
0001
0001
,  // measure 16
0000
0000
0010
0000
0000
0001
0000
0000
0100
0000
0000
0001
0000
0000
0010
0000
,  // measure 17
0000
0000
0100
0000
0000
1000
0000
0000
0010
0000
0000
1000
0000
0000
0100
0000
,  // measure 18
0000
0000
1000
0000
0000
0010
0000
0000
0100
0000
0000
0001
0000
0000
0100
0000
,  // measure 19
0000
0000
0001
0000
0000
0100
0000
0000
0010
0000
0000
1000
0000
0000
0010
0000
,  // measure 20
0000
0000
0010
0000
0000
0100
0000
0000
0001
0000
0000
1000
0000
0000
0001
0000
,  // measure 21
0000
0000
0010
0000
0000
0100
0000
0000
1000
0000
0000
0001
0000
0000
1000
0000
,  // measure 22
0000
0000
0100
0000
0000
1000
0000
0000
0001
0000
0000
0100
0000
0000
0001
0000
,  // measure 23
0100
0100
0100
0100
,  // measure 24
0010
0000
0000
0010
0000
0000
0010
0000
1000
0000
0000
0001
0000
0000
0010
0000
,  // measure 25
0100
0000
0000
0100
0000
0000
0100
0000
1000
0000
0000
0001
0000
0000
0100
0000
,  // measure 26
0010
0000
0000
0010
0000
0000
0010
0000
0100
0000
0000
0001
0000
0000
0010
0000
,  // measure 27
0100
0000
0000
0100
0000
0000
0100
0000
1000
0000
0000
0001
0000
0000
0100
0000
,  // measure 28
0010
0000
0000
1000
0000
0000
0001
0000
0010
0000
0000
0010
0000
0000
0010
0000
,  // measure 29
0001
0000
0000
1000
0000
0000
0010
0000
0100
0000
0000
0100
0000
0000
0100
0000
,  // measure 30
0010
0000
0000
1000
0000
0000
0010
0000
0100
0000
0000
0100
0000
0000
0100
0000
,  // measure 31
0100
0000
0000
0001
0000
0000
0100
0000
0010
0000
0000
0010
0000
0000
0010
0000
,  // measure 32
1000
1000
1000
1000
,  // measure 33
0000
1000
0100
1000
0000
0100
0001
0100
,  // measure 34
0000
0001
0010
0001
0000
0010
1000
0010
,  // measure 35
0000
1000
0100
1000
0000
0001
0100
0001
,  // measure 36
0000
1000
0010
1000
0000
0001
0010
0001
,  // measure 37
0000
0001
0010
0001
0000
0010
1000
0010
,  // measure 38
0000
1000
0100
1000
0000
0100
0001
0100
,  // measure 39
0000
0001
0010
0001
0000
1000
0010
1000
,  // measure 40
0000
0001
0100
0001
0000
1000
0100
1000
,  // measure 41
0000
0100
0001
0100
0000
0001
0010
0001
,  // measure 42
0000
0010
1000
0010
0000
1000
0100
1000
,  // measure 43
0000
0100
0001
0100
0000
0100
0010
0100
,  // measure 44
0000
0100
1000
0100
0000
0100
0010
0100
,  // measure 45
0000
0010
1000
0010
0000
1000
0100
1000
,  // measure 46
0000
0100
0001
0100
0000
0001
0010
0001
,  // measure 47
0000
0010
1000
0010
0000
0010
0100
0010
,  // measure 48
0100
0100
0100
0100
,  // measure 49
0000
0000
0100
0000
0000
1000
0000
0000
0010
0000
0000
1000
0000
0000
0100
0000
,  // measure 50
0000
0000
0010
0000
0000
0001
0000
0000
0100
0000
0000
0001
0000
0000
0010
0000
,  // measure 51
0000
0000
0001
0000
0000
0100
0000
0000
0010
0000
0000
1000
0000
0000
0010
0000
,  // measure 52
0000
0000
1000
0000
0000
0010
0000
0000
0100
0000
0000
0001
0000
0000
0100
0000
,  // measure 53
0000
0000
0100
0000
0000
0010
0000
0000
1000
0000
0000
0001
0000
0000
1000
0000
,  // measure 54
0000
0000
0100
0000
0000
0010
0000
0000
0001
0000
0000
1000
0000
0000
0001
0000
,  // measure 55
0000
0000
0010
0000
0000
0001
0000
0000
1000
0000
0000
0010
0000
0000
1000
0000
,  // measure 56
0010
0010
0010
0010
,  // measure 57
0200
0000
0000
0000
,  // measure 58
0302
0000
0000
0000
,  // measure 59
0023
0000
0000
0000
,  // measure 60
0230
0000
0000
0000
,  // measure 61
2300
0000
0000
0000
,  // measure 62
3002
0000
0000
0000
,  // measure 63
0203
0000
0000
0000
,  // measure 64
0320
0000
0000
0000
,  // measure 65
0030
0000
0000
0000
;
