#TITLE:Who's That Chick;
#SUBTITLE:;
#ARTIST:David Guetta feat. Rihanna;
#TITLETRANSLIT:;
#SUBTITLETRANSLIT:;
#ARTISTTRANSLIT:;
#GENRE:;
#CREDIT:Chewi☆;
#MENUCOLOR:#FFFF00;
#METERTYPE:DDR X;
#BANNER:Who's That Chick.png;
#BACKGROUND:Who's That Chick-bg.png;
#LYRICSPATH:;
#CDTITLE:;
#MUSIC:Who's That Chick.mp3;
#OFFSET:-0.083;
#SAMPLESTART:37.583;
#SAMPLELENGTH:15.000;
#SELECTABLE:YES;
#LISTSORT:;
#DISPLAYBPM:128.000;
#BPMS:0.000=128.000;
#STOPS:;
#BGCHANGES:;
#ATTACKS:;

//---------------dance-single - Chewi----------------
#NOTES:
     dance-single:
     Chewi:
     Beginner:
     2:
     0.139,0.184,0.038,0.123,0.000: // measure 1
0000
0000
0000
0000
,  // measure 2
0000
0000
0000
0000
,  // measure 3
0000
0000
0000
0000
,  // measure 4
0000
0000
0000
0000
,  // measure 5
1000
0000
0100
0000
,  // measure 6
1000
0000
1000
0000
,  // measure 7
0001
0000
0100
0000
,  // measure 8
0001
0000
0100
0000
,  // measure 9
0010
0000
0010
0000
,  // measure 10
0010
0000
0010
0000
,  // measure 11
0100
0000
0100
0000
,  // measure 12
0100
0000
0100
0000
,  // measure 13
2000
0000
0000
3000
,  // measure 14
1001
0000
0000
0000
,  // measure 15
0002
0000
0000
0003
,  // measure 16
1001
0000
0000
0000
,  // measure 17
0200
0000
0000
0300
,  // measure 18
0110
0000
0000
0000
,  // measure 19
0020
0000
0000
0030
,  // measure 20
0110
0000
0000
0000
,  // measure 21
1000
0000
0100
0000
,  // measure 22
0001
0000
0010
0000
,  // measure 23
0010
0010
0010
0000
,  // measure 24
0100
0100
0100
0000
,  // measure 25
1000
0000
0100
0000
,  // measure 26
0001
0000
0010
0000
,  // measure 27
1000
1000
1000
0000
,  // measure 28
0001
0001
0001
0000
,  // measure 29
0002
0000
0000
0003
,  // measure 30
0001
0000
0001
0000
,  // measure 31
2000
0000
0000
3000
,  // measure 32
1000
0000
1000
0000
,  // measure 33
0020
0000
0000
0030
,  // measure 34
0010
0000
0010
0000
,  // measure 35
0200
0000
0000
0300
,  // measure 36
0100
0000
0100
0000
,  // measure 37
2000
0000
0000
3000
,  // measure 38
0001
0000
0000
0000
,  // measure 39
0020
0000
0000
0030
,  // measure 40
0100
0000
0000
0000
,  // measure 41
0200
0000
0000
0300
,  // measure 42
0001
0000
0000
0000
,  // measure 43
2000
0000
0000
3000
,  // measure 44
0010
0000
0000
0000
,  // measure 45
0200
0000
0000
0000
,  // measure 46
0000
0000
0000
0000
,  // measure 47
0000
0000
0000
0300
,  // measure 48
0100
0000
0000
0000
,  // measure 49
0010
0000
0001
0000
,  // measure 50
0010
0010
0010
0000
,  // measure 51
0010
0000
1000
0000
,  // measure 52
0010
0010
0010
0000
,  // measure 53
1000
0000
0001
0000
,  // measure 54
0100
0100
0100
0000
,  // measure 55
0001
0000
1000
0000
,  // measure 56
0010
0010
0010
0000
;

//---------------dance-single - Chewi----------------
#NOTES:
     dance-single:
     Chewi:
     Easy:
     4:
     0.213,0.315,0.038,0.255,0.000:
0000
0000
0000
0000
,
0000
0000
0000
0000
,
0000
0000
0000
0000
,
0000
0000
0000
0000
,
1000
0000
0100
0000
,
0001
0000
0010
0000
,
0010
0000
0100
0000
,
0010
0000
0100
0000
,
1000
0000
0100
0000
,
0001
0000
0010
0000
,
0100
0000
0010
0000
,
0100
0000
0010
0000
,
0001
0001
0001
0000
,
1000
1000
1000
0000
,
0010
0010
0010
0000
,
0100
0100
0100
0000
,
0001
1000
0001
0000
,
0010
0100
0010
0000
,
0100
0010
0001
0000
,
0001
1000
0010
0000
,
0220
0000
0000
0330
,
0010
0010
0100
0100
,
2000
0100
0200
3300
,
0002
0010
0020
0033
,
0220
0000
0000
0330
,
0100
0001
0010
1000
,
2000
0010
0020
3030
,
0002
0100
0200
0303
,
2000
0000
0010
0000
,
0001
0000
3100
1001
,
0002
0000
0100
0000
,
1000
0000
0013
0110
,
0001
0100
1000
0000
,
1000
0010
0001
0010
,
1000
0100
0001
0000
,
0001
0100
1000
0100
,
0020
0000
0000
0030
,
0002
0000
0000
0003
,
0200
0000
0000
0300
,
2000
0000
0000
3000
,
0020
0000
0000
0130
,
0200
0000
0000
0310
,
2000
0000
0000
3001
,
0002
0000
0000
1003
,
0020
0000
0000
0000
,
0000
0000
0000
0000
,
0030
0000
0000
0000
,
0100
0100
0100
0100
,
0010
1000
0010
0001
,
0010
1000
0100
0001
,
0020
0000
0130
0000
,
0200
0000
0310
0000
,
0100
1000
0100
0001
,
0100
1000
0010
0001
,
0020
0000
0130
0000
,
0200
0000
0310
0000
;

//---------------dance-single - Chewi----------------
#NOTES:
     dance-single:
     Chewi:
     Medium:
     7:
     0.306,0.369,0.161,0.265,0.000:
0000
0000
0000
0000
,
0000
0000
0000
0000
,
0000
0000
0000
0000
,
0000
0000
0000
0000
,
0100
0000
1000
0000
0010
0010
0010
0000
,
0100
0000
0001
0000
0010
0010
0010
0000
,
0001
1000
0001
0101
,
0001
1000
0001
1100
,
0010
0000
0001
0000
0100
0100
0100
0000
,
0010
0000
1000
0000
0100
0100
0100
0000
,
1000
0100
0001
0011
,
0001
0100
1000
1010
,
0120
0000
0000
0000
,
0130
1000
0010
0001
,
1002
0000
0000
0000
,
1003
0010
0001
0100
,
0120
0000
0000
0000
,
0130
0010
0001
0100
,
1100
0001
1000
0101
,
1001
0000
0000
0010
0010
0000
0000
0000
,
0100
0010
1000
0001
,
0010
0000
0100
0000
1000
0100
0001
0000
,
0200
0320
0230
0300
,
2000
3200
0302
0003
,
0010
0100
0010
1000
,
0010
0000
1000
0000
0100
0001
0010
0000
,
0200
0302
0203
0300
,
0020
0230
0320
0030
,
1001
0100
1000
0100
,
0001
0010
1000
0100
,
1001
1000
0010
0001
,
0100
1000
0010
0001
,
1100
0001
0100
1000
,
0010
0001
0100
1000
,
1100
0001
0010
1000
,
0100
0001
0100
0010
,
0100
0000
0000
0000
0100
0100
0100
0000
,
0010
0000
0000
0010
0010
0010
0000
0000
,
1000
0000
0000
0000
1000
1000
1000
0000
,
0001
0000
0000
0000
0001
0001
0001
0000
,
0001
0000
0000
0010
0001
0000
0000
0000
,
1000
0000
0000
0010
1000
0000
0000
0000
,
0010
0000
0000
0100
0010
0000
0000
0000
,
0010
0000
0000
0010
0100
0000
0000
0000
,
2100
0000
0000
0000
,
0000
0000
0000
0000
,
3100
0000
0000
0000
,
1100
0001
0100
1100
,
0001
0100
0001
0000
0100
0000
0000
0000
,
1000
0010
1000
0000
0010
0000
0000
0000
,
0200
0302
2003
3000
,
0020
2030
3002
0003
,
1000
0100
1000
0000
0001
0000
0000
0000
,
0001
0010
0001
0000
1000
0000
0000
0000
,
0020
0032
0203
0300
,
0200
2300
3020
0030
;

//---------------dance-single - Chewi----------------
#NOTES:
     dance-single:
     Chewi:
     Hard:
     11:
     0.436,0.448,0.321,0.236,0.137:
0000
0000
0000
0000
,
0000
0000
0000
0000
,
0000
0000
0000
0000
,
0000
0000
0000
0000
,
1000
0000
0100
0000
1000
0010
0100
0000
,
0001
0000
0100
0000
0001
0010
0100
0000
,
1000
0000
1001
0000
0001
0001
0001
0000
,
0001
0000
1001
0000
1000
1000
1000
0000
,
0010
0000
0100
0000
0001
1000
0100
0000
,
0100
0000
0010
0000
0001
0100
1000
0000
,
0010
0000
0100
0000
0010
0100
0010
0000
,
0000
0000
1000
0100
0001
0010
0100
1000
,
0010
0000
1000
1100
0000
0100
0100
0000
,
0001
0011
0000
0000
0001
0010
0100
1000
,
0010
0000
1000
1001
0000
0100
0100
0000
,
1000
1100
0000
1000
0100
0010
0001
0010
,
0100
0000
0010
0110
0000
1000
1000
0000
,
0001
0101
0000
0000
1000
0010
0100
0001
,
0101
0011
1010
1100
,
0100
0100
0000
0010
0010
0000
0000
0000
,
0001
0000
0010
0000
0100
0000
1000
0000
0001
0000
1000
0001
0000
1000
0000
0000
,
0010
0000
0100
0000
0001
0000
0100
0000
0010
0000
1000
0001
0000
0010
0000
0000
,
2000
3002
0203
0300
,
0002
0023
2030
3000
,
0000
0000
0001
0000
0010
0000
0100
0000
1000
0000
0010
1000
0000
0100
0000
0000
,
0000
0000
0010
0000
0100
0000
0001
0000
0010
0000
0100
0010
0000
0001
0000
0000
,
0011
0101
1100
0000
,
1010
1100
0101
0000
,
1000
0000
0000
0001
0000
0000
0100
0000
0000
0000
0000
0000
0000
0000
0010
0000
,
0100
0000
0000
0010
0000
0000
1000
0000
0001
0000
0000
0000
0011
0000
0000
0000
,
0001
0000
0000
0001
0010
0000
0000
0010
0100
0000
0000
0000
1000
0000
0000
0000
,
0100
0000
0000
0100
1000
0000
0000
1000
0010
0000
0000
0000
0110
0000
0000
0000
,
0100
0000
0000
0010
0000
0000
1000
0000
0001
0000
0000
0000
0011
0000
0000
0000
,
0001
0000
0000
0010
0000
0000
0100
0000
1000
0000
0000
0000
0100
0000
0000
0000
,
1000
0000
0000
1000
0100
0000
0000
0100
1000
0000
0000
0000
1001
0000
0000
0000
,
0001
0000
0000
0001
0100
0000
0000
0100
0001
0000
0000
0000
0011
0000
0000
0000
,
0002
0000
0023
0000
0031
0100
0010
0000
,
0100
0100
0010
0010
1000
0000
0001
0000
,
2000
0000
3200
0000
1300
0010
0100
0000
,
0001
0001
0100
0100
0010
0000
1000
0000
,
0002
0000
0023
0000
0031
0100
1000
0000
,
0020
0000
2030
0000
3100
0001
0010
0000
,
0100
0010
0100
0000
1001
0000
0101
0000
,
0100
0010
0100
0000
1001
0000
1010
0000
,
1000
0100
0010
0100
1000
1000
2000
0000
,
0000
0000
0000
0000
,
3000
0000
0000
0000
,
0001
0000
0000
1000
0000
0000
0001
0000
1000
0000
0000
0000
1010
0000
0000
0000
,
1000
0000
0001
0000
0010
0000
0100
0000
1000
0000
0010
1000
0000
0100
0000
0000
,
1000
0000
0010
0000
0100
0000
0001
0000
0100
0000
0010
1000
0000
0010
0000
0000
,
2000
3200
0302
0003
,
0002
0023
2030
3000
,
0000
0000
0001
0000
0010
0000
0100
0000
1000
0000
0010
1000
0000
0100
0000
0000
,
0000
0000
1000
0000
0010
0000
0100
0000
0001
0000
0100
0010
0000
0100
0000
0000
,
1001
0011
2020
3030
,
1001
0110
2002
3003
;

//---------------dance-double - Chewi----------------
#NOTES:
     dance-double:
     Chewi:
     Easy:
     3:
     0.201,0.236,0.085,0.227,0.000:
00000000
00000000
00000000
00000000
,
00000000
00000000
00000000
00000000
,
00000000
00000000
00000000
00000000
,
00000000
00000000
00000000
00000000
,
00002000
00000000
00003010
00000000
,
00000002
00000000
00000103
00000000
,
00002000
00000000
00013000
00000000
,
00020000
00000000
00031000
00000000
,
00020000
00000000
01030000
00000000
,
20000000
00000000
30100000
00000000
,
00020000
00000000
10030000
00000000
,
00200000
00000000
01300000
00000000
,
00100000
00010000
01000000
10000000
,
00100000
00000000
00000000
00000000
,
01000000
00100000
00010000
00001000
,
00000100
00000000
00000000
00000000
,
00001000
00000100
00000001
00000010
,
00001000
00000000
00000000
00000000
,
00000010
00001000
00010000
01000000
,
10000000
00000000
00100000
00000000
,
01100000
00000000
10010000
00000000
,
10000000
10000000
00010000
00010000
,
00200000
00000000
01300000
00000000
,
02000000
00000000
03100000
00000000
,
00011000
00000000
00001010
00000000
,
00001000
00000100
00000001
00000000
,
00000002
00000000
00001003
00000000
,
00000200
00000000
00000310
00000000
,
00000010
00000010
00000010
00000000
,
00001000
00000000
00010000
00011000
,
00001000
00000000
00010000
00000000
,
00010000
01000000
10000000
10010000
,
20000000
00000000
00000000
30000000
,
00100000
01000000
00010000
00100000
,
00002000
00000000
00000000
00003000
,
00010000
00001000
00000010
00000001
,
00000200
00000000
00000000
00000300
,
00002000
00000000
00000000
00003000
,
00000020
00000000
00000000
00000030
,
00002000
00000000
00000000
00003000
,
00020000
00000000
00000000
00030000
,
02000000
00000000
00000000
03000000
,
00200000
00000000
00000000
00300000
,
20000000
00000000
00000000
30000000
,
20020000
00000000
00000000
00000000
,
00000000
00000000
00000000
00000000
,
30030000
00000000
00000000
00000000
,
00100000
01000000
00100000
01100000
,
00100000
00010000
01000000
00000000
,
00100000
00001000
00010000
00000000
,
00010000
00001000
00000010
00000000
,
00000001
00000100
00001000
00000000
,
00000001
00000100
00000010
00001001
,
00001000
00000100
00010000
00000000
,
00001000
00100000
00010000
00000000
,
01000000
10000000
00100000
00000000
;

//---------------dance-double - Chewi----------------
#NOTES:
     dance-double:
     Chewi:
     Medium:
     7:
     0.325,0.342,0.170,0.302,0.000:
00000000
00000000
00000000
00000000
,
00000000
00000000
00000000
00000000
,
00000000
00000000
00000000
00000000
,
00000000
00000000
00000000
00000000
,
10000000
00000000
10000000
00000000
01000000
00100000
01000000
00000000
,
00010000
00000000
00010000
00000000
00100000
00001000
00010000
00000000
,
00001000
00000000
00001000
00000000
00000010
00001000
00000010
00000000
,
00000001
00000100
00001000
00000010
,
00000100
00000000
00000100
00000000
00000010
00000100
00000010
00000000
,
00001000
00000000
00001000
00000000
00001000
00000100
00001000
00000000
,
00001000
00000000
00010000
00000000
00010000
01000000
00010000
00000000
,
10000000
00100000
00010000
00100000
,
02200000
00000000
00000000
03300000
,
00010000
00010000
10000000
10000000
,
02020000
00000000
00000000
03030000
,
01000000
00010000
00001000
00000010
,
00000022
00000000
00000000
00000033
,
00000001
00000010
00001000
00000100
,
00000001
00000000
00001000
00000000
00000001
00001000
00000001
00000000
,
00001000
00000100
00010000
00001000
,
00001000
00000000
01010000
00000000
00010000
00010000
00010000
00000000
,
10000000
01000000
00100000
00010000
,
20000000
32000000
03020000
00030000
,
00200000
00320000
02030000
03000000
,
10000000
00000000
11000000
00000000
00010000
00100000
00010000
00000000
,
00100000
00001000
00010000
00001000
,
00020000
00032000
00003020
00000030
,
00000020
00000230
00000302
00000003
,
00001000
00000100
00000010
00000011
,
00000001
00000100
00001000
00010000
,
00001000
00010000
01000000
01010000
,
10000000
01000000
00100000
00010000
,
10000000
00000000
01000000
00000000
00010000
00100000
00010000
00000000
,
10000000
00000000
00100000
00000000
00010000
01000000
00010000
00000000
,
00100000
00010000
00001000
00001100
,
00000100
00010000
00001000
00110000
,
00010000
00000000
00000000
10000000
00010000
00000000
00000000
00000000
,
01000000
10000000
00100000
00010000
,
00100000
00000000
00000000
01000000
00100000
00000000
00000000
00000000
,
01000000
00100000
00010000
01000000
,
00010000
00000000
00000000
00001000
00010000
00000000
00000000
00000000
,
00001000
00000000
00000000
00000010
00001000
00000000
00000000
00000000
,
00000010
00000100
00000010
00001000
,
00000100
00000010
00000100
00000001
,
00000220
00000000
00000000
00000000
,
00000000
00000000
00000000
00000000
,
00000330
00000000
00000000
00000000
,
00000110
00001001
00000110
00001001
,
00000001
00000101
00001000
00001100
,
00000100
00001000
00000100
00000000
00010000
00001000
00010000
00000000
,
00002000
00023000
02030000
03000000
,
20000000
00000000
30200000
00000000
00320000
00000000
00000000
00030000
,
01000000
00000000
11000000
00000000
01000000
00100000
01000000
00000000
,
00100000
00000000
00110000
00000000
00010000
01000000
00010000
00000000
,
00200000
00320000
00032000
00003000
,
00000200
00002300
00003020
00000030
;

//---------------dance-double - Chewi----------------
#NOTES:
     dance-double:
     Chewi:
     Hard:
     11:
     0.414,0.474,0.217,0.255,0.099:
00000000
00000000
00000000
00000000
,
00000000
00000000
00000000
00000000
,
00000000
00000000
00000000
00000000
,
00000000
00000000
00000000
00000000
,
20000000
00000000
30020000
00000000
00130000
01000000
00100000
00000000
,
00020000
00000000
02030000
00000000
13000000
00100000
00010000
00000000
,
00200000
00000000
00302000
00000000
00013000
00001000
00000010
00000000
,
00002000
00000000
00003020
00000000
00000130
00000001
00000010
00000000
,
00000001
00001000
00000100
00000000
00000100
00000100
00000100
00000000
,
00001000
00000010
00000100
00000000
00000010
00000010
00000010
00000000
,
00000010
00001000
00010000
00000000
00001000
00010000
00001000
00000000
,
00010000
01000000
10000000
00000000
00100000
10000000
00010000
00100000
,
01000000
00000000
00100000
00110000
00000000
00010000
01010000
00000000
,
01000000
01000000
00000000
00000000
00100000
10000000
00010000
00100000
,
01000000
00000000
00100000
00100000
00000000
00010000
01010000
00000000
,
00100000
00101000
00000000
00000000
00010000
00001000
00000010
00000100
,
00000001
00000000
00001000
00001100
00000000
00000001
00000101
00000000
,
00000100
00000100
00000000
00000000
00000010
00001000
00000001
00000100
,
00000020
00002030
00003200
00020300
,
00032000
00000000
00000000
00010000
00020000
00000000
00033000
00000000
,
00001000
00000000
00010000
00000000
01000000
00000000
10000000
00000000
00100000
00000000
10000000
01000000
00000000
10000000
00000000
00000000
,
00100000
00000000
01000000
00000000
00010000
00000000
00100000
00000000
01000000
00000000
10000000
00010000
00000000
10000000
00000000
00000000
,
10100000
01000000
00010000
00000000
,
00110000
01000000
00100000
00000000
,
00000000
00000000
01000000
00000000
00100000
00000000
00010000
00000000
00001000
00000000
00000100
00001000
00000000
00000010
00000000
00000000
,
00000000
00000000
00000100
00000000
00000001
00000000
00000100
00000000
00000010
00000000
00001000
00000001
00000000
00001000
00000000
00000000
,
00001001
00000100
00000010
00000000
,
00001010
00000100
00001000
00000000
,
00000001
00000000
00000000
00000010
00000000
00000000
00000100
00000000
00000000
00000000
00000000
00000000
00000000
00000000
00001000
00000000
,
00000010
00000000
00000000
00001000
00000000
00000000
00010000
00000000
01000000
00000000
00000000
00000000
10000000
00000000
00000000
00000000
,
00100000
01010000
00100000
00000000
,
00100000
11000000
00100000
00000000
,
10000000
00000000
00000000
00010000
00000000
00000000
00100000
00000000
00000000
00000000
00000000
00000000
00000000
00000000
01000000
00000000
,
00100000
00000000
00000000
00010000
00000000
00000000
01000000
00000000
00100000
00000000
00000000
00000000
00010000
00000000
00000000
00000000
,
00010000
00001000
00001010
00000000
,
00001000
00000001
00001001
00000000
,
00000002
00000000
00000203
00000000
00000310
00001000
00000001
00000000
,
00001000
00000100
00001000
00000000
00000100
00010000
00000100
00000000
,
00020000
00000000
00032000
00000000
00103000
00010000
01000000
00000000
,
10000000
00100000
01000000
00000000
10000000
00010000
10000000
00000000
,
20000000
00000000
32000000
00000000
13000000
00010000
00100000
00000000
,
01000000
00100000
01000000
00000000
00010000
10000000
00010000
00000000
,
00020000
00000000
00230000
00000000
00301000
00010000
00001000
00000000
,
00010000
00001000
00000010
00000000
00001000
00000010
00000100
00000000
,
00000100
00000001
00000010
00000001
00000100
00000100
00000200
00000000
,
00000000
00000000
00000000
00000000
,
00000310
00000000
00000000
00000000
,
00000010
00000000
00000000
00001000
00000000
00000000
00000100
00000000
00010000
00000000
00000000
00000000
00011000
00000000
00000000
00000000
,
00001000
00000000
00010000
00000000
01000000
00000000
00010000
00000000
00100000
00000000
00010000
00100000
00000000
01000000
00000000
00000000
,
10000000
00000000
00100000
00000000
01000000
00000000
00010000
00000000
01000000
00000000
00100000
01000000
00000000
00010000
00000000
00000000
,
00110000
01000000
10100000
00000000
,
01010000
00100000
00101000
00000000
,
00010000
00000000
00001000
00000000
00000010
00000000
00001000
00000000
00000001
00000000
00000010
00000001
00000000
00000100
00000000
00000000
,
00000000
00000000
00001000
00000000
00000001
00000000
00001000
00000000
00000100
00000000
00001000
00000010
00000000
00001000
00000000
00000000
,
00000101
00001000
00002200
00003300
,
00010100
00001000
00022000
00033000
;
