#VERSION:0.82;
#TITLE:Who Are You (Feat. 개코);
#SUBTITLE:;
#ARTIST:BoA;
#TITLETRANSLIT:Who Are You (Feat. Gaeko);
#SUBTITLETRANSLIT:;
#ARTISTTRANSLIT:;
#GENRE:K-Pop;
#ORIGIN:;
#CREDIT:steps by chewi, sync and cut by DDRDAIKENKAI;
#BANNER:Who Are You (Feat. Gaeko).png;
#BACKGROUND:Who Are You (Feat. Gaeko)-bg.png;
#PREVIEWVID:;
#JACKET:Who Are You (Feat. Gaeko)-jacket.png;
#CDIMAGE:;
#DISCIMAGE:;
#LYRICSPATH:;
#CDTITLE:cdtitle.png;
#MUSIC:Who Are You (Feat. Gaeko).ogg;
#OFFSET:0.031000;
#SAMPLESTART:54.886475;
#SAMPLELENGTH:15.000000;
#SELECTABLE:YES;
#BPMS:0.000=105.000;
#STOPS:;
#DELAYS:;
#WARPS:;
#TIMESIGNATURES:0.000=4=4;
#TICKCOUNTS:0.000=4;
#COMBOS:0.000=1;
#SPEEDS:0.000=1.000=0.000=0;
#SCROLLS:0.000=1.000;
#FAKES:;
#LABELS:0.000=Song Start;
#BGCHANGES:-0.062=Who Are You (Feat. Gaeko).avi=1.000=1=0=0=StretchNoLoop==CrossFade==,
99999=-nosongbg-=1.000=0=0=0 // don't automatically add -songbackground-
;
#KEYSOUNDS:;
#ATTACKS:
;

//---------------dance-single - ----------------
#NOTEDATA:;
#CHARTNAME:;
#STEPSTYPE:dance-single;
#DESCRIPTION:;
#CHARTSTYLE:;
#DIFFICULTY:Beginner;
#METER:1;
#RADARVALUES:0.066393,0.106505,0.030983,0.000000,0.000000,56.000000,4.000000,0.000000,0.000000,0.000000,0.000000,0.000000,0.000000,0.066393,0.106505,0.030983,0.000000,0.000000,56.000000,4.000000,0.000000,0.000000,0.000000,0.000000,0.000000,0.000000;
#CREDIT:;
#NOTES:
// measure 0
0000
0000
0000
0000
,  // measure 1
0000
0000
0000
0000
,  // measure 2
0000
0000
0000
0000
,  // measure 3
0000
0000
0000
0000
,  // measure 4
1000
0000
0000
0000
,  // measure 5
1000
0000
0000
0000
,  // measure 6
0001
0000
0000
0000
,  // measure 7
0001
0000
0000
0000
,  // measure 8
0100
0000
0000
0000
,  // measure 9
0100
0000
0000
0000
,  // measure 10
0010
0000
0000
0000
,  // measure 11
0010
0000
0000
0000
,  // measure 12
1000
0000
0000
0000
,  // measure 13
1000
0000
0000
0000
,  // measure 14
0001
0000
0000
0000
,  // measure 15
0001
0000
0000
0000
,  // measure 16
0010
0000
0000
0000
,  // measure 17
0010
0000
0000
0000
,  // measure 18
0100
0000
0000
0000
,  // measure 19
0100
0000
0000
0000
,  // measure 20
0100
0000
0000
0000
,  // measure 21
1000
0000
0000
0000
,  // measure 22
0001
0000
0000
0000
,  // measure 23
0100
0000
0000
0000
,  // measure 24
1001
0000
0000
0000
,  // measure 25
1000
0000
0000
0000
,  // measure 26
0001
0000
0000
0000
,  // measure 27
1000
0000
0000
0000
,  // measure 28
0010
0000
0000
0000
,  // measure 29
0010
0000
0000
0000
,  // measure 30
0100
0000
0000
0000
,  // measure 31
0100
0000
0000
0000
,  // measure 32
1001
0000
0000
0000
,  // measure 33
0001
0000
0000
0000
,  // measure 34
1000
0000
0000
0000
,  // measure 35
0001
0000
0000
0000
,  // measure 36
0110
0000
0000
0000
,  // measure 37
0100
0000
0000
0000
,  // measure 38
0010
0000
0000
0000
,  // measure 39
0010
0000
0000
0000
,  // measure 40
0100
0000
0100
0000
,  // measure 41
0100
0000
0000
0000
,  // measure 42
0010
0000
0010
0000
,  // measure 43
0010
0000
0000
0000
,  // measure 44
1000
0000
1000
0000
,  // measure 45
1000
0000
0000
0000
,  // measure 46
0001
0000
0001
0000
,  // measure 47
0001
0000
0000
0000
,  // measure 48
1001
0000
0000
0000
,  // measure 49
0001
0000
0000
0000
,  // measure 50
0100
0000
0000
0000
,  // measure 51
1000
0000
0000
0000
,  // measure 52
0100
0000
0000
0000
,  // measure 53
0100
0000
0000
0000
,  // measure 54
0010
0000
0000
0000
,  // measure 55
0010
0000
0000
0000
;

//---------------dance-single - ----------------
#NOTEDATA:;
#CHARTNAME:;
#STEPSTYPE:dance-single;
#DESCRIPTION:;
#CHARTSTYLE:;
#DIFFICULTY:Easy;
#METER:3;
#RADARVALUES:0.099589,0.170408,0.015492,0.131679,0.000000,71.000000,2.000000,17.000000,0.000000,0.000000,0.000000,0.000000,0.000000,0.099589,0.170408,0.015492,0.131679,0.000000,71.000000,2.000000,17.000000,0.000000,0.000000,0.000000,0.000000,0.000000;
#CREDIT:;
#NOTES:
// measure 0
0000
0000
0000
0000
,  // measure 1
0000
0000
0000
0000
,  // measure 2
0000
0000
0000
0000
,  // measure 3
0000
0000
0000
0000
,  // measure 4
2000
0000
0000
0000
,  // measure 5
0000
0000
0000
3000
,  // measure 6
0002
0000
0000
0000
,  // measure 7
0000
0000
0000
0003
,  // measure 8
1001
0000
0000
0000
,  // measure 9
1000
0000
1000
0000
,  // measure 10
0001
0000
0000
0000
,  // measure 11
0001
0000
0001
0000
,  // measure 12
0010
0000
0000
0000
,  // measure 13
0010
0000
0010
0000
,  // measure 14
0100
0000
0000
0000
,  // measure 15
0100
0000
0100
0000
,  // measure 16
0200
0000
0000
0300
,  // measure 17
0020
0000
0000
0030
,  // measure 18
2000
0000
0000
3000
,  // measure 19
0002
0000
0000
0003
,  // measure 20
2000
0000
0000
3000
,  // measure 21
0200
0000
0000
0300
,  // measure 22
2000
0000
0000
3000
,  // measure 23
0002
0000
0000
0003
,  // measure 24
0001
0000
0000
0000
,  // measure 25
0100
0000
0000
0000
,  // measure 26
1000
0000
0000
0000
,  // measure 27
0010
0000
0000
0000
,  // measure 28
0001
0000
0000
0000
,  // measure 29
0010
0000
0000
0000
,  // measure 30
1000
0000
0000
0000
,  // measure 31
0100
0000
0000
0000
,  // measure 32
0001
0000
0001
0000
,  // measure 33
0002
0000
0000
0003
,  // measure 34
1000
0000
1000
0000
,  // measure 35
2000
0000
0000
3000
,  // measure 36
0010
0000
0010
0000
,  // measure 37
0020
0000
0000
0030
,  // measure 38
0100
0000
0100
0000
,  // measure 39
0200
0000
0000
0300
,  // measure 40
0100
0000
0000
0000
,  // measure 41
0010
0000
0010
0000
,  // measure 42
1000
0000
0001
0000
,  // measure 43
1000
0001
1000
0000
,  // measure 44
0001
0000
0001
0000
,  // measure 45
1000
0000
1000
0000
,  // measure 46
0100
0000
0100
0000
,  // measure 47
0010
0000
0010
0000
,  // measure 48
0110
0000
0000
0000
,  // measure 49
0010
0010
0100
0100
,  // measure 50
0010
0000
0000
0000
,  // measure 51
0001
0001
1000
1000
,  // measure 52
0002
0000
0000
0000
,  // measure 53
0203
0000
0000
0000
,  // measure 54
0320
0000
0000
0000
,  // measure 55
0030
0000
0000
0000
;

//---------------dance-single - ----------------
#NOTEDATA:;
#CHARTNAME:;
#STEPSTYPE:dance-single;
#DESCRIPTION:;
#CHARTSTYLE:;
#DIFFICULTY:Medium;
#METER:6;
#RADARVALUES:0.224629,0.339267,0.015492,0.209137,0.034856,174.000000,2.000000,27.000000,0.000000,0.000000,0.000000,0.000000,0.000000,0.224629,0.339267,0.015492,0.209137,0.034856,174.000000,2.000000,27.000000,0.000000,0.000000,0.000000,0.000000,0.000000;
#CREDIT:;
#NOTES:
// measure 0
0000
0000
0000
0000
,  // measure 1
0000
0000
0000
0000
,  // measure 2
0000
0000
0000
0000
,  // measure 3
0000
0000
0000
0000
,  // measure 4
2000
0000
0000
0000
,  // measure 5
3020
0000
0000
0000
,  // measure 6
0230
0000
0000
0000
,  // measure 7
0000
0000
0000
0300
,  // measure 8
0100
0000
0000
0100
0000
0000
0000
0000
0000
0000
0000
0000
0000
0000
0000
0000
,  // measure 9
0010
0000
0000
0010
0000
0000
0000
0000
0000
0000
0000
0000
0000
0000
0000
0000
,  // measure 10
1000
0000
0000
1000
0000
0000
0000
0000
0000
0000
0000
0000
0000
0000
0000
0000
,  // measure 11
0001
0000
0000
0001
0000
0000
0000
0000
0000
0000
0000
0000
0000
0000
0000
0000
,  // measure 12
1000
0000
0000
0100
0000
0000
0000
0000
0000
0000
0000
0000
0000
0000
0000
0000
,  // measure 13
0010
0000
0000
0001
0000
0000
0000
0000
0000
0000
0000
0000
0000
0000
0000
0000
,  // measure 14
0001
0000
0000
0100
0000
0000
0000
0000
0000
0000
0000
0000
0000
0000
0000
0000
,  // measure 15
0010
0000
0000
1000
0000
0000
0000
0000
0000
0000
0000
0000
0000
0000
0000
0000
,  // measure 16
1000
0000
1000
0000
1000
0001
1000
0000
,  // measure 17
0001
0001
0010
0010
,  // measure 18
0100
0000
0100
0000
0100
0010
0100
0000
,  // measure 19
0100
0100
0010
0010
,  // measure 20
0001
0000
0001
0000
0001
1000
0001
0000
,  // measure 21
1000
0100
1000
0100
,  // measure 22
1000
0000
1000
0000
1000
0100
1000
0000
,  // measure 23
0020
0000
0000
0030
,  // measure 24
0010
0010
0010
0010
,  // measure 25
0100
0001
0100
0001
,  // measure 26
0010
0010
0010
0010
,  // measure 27
0100
1000
0100
1000
,  // measure 28
0001
0001
0001
0001
,  // measure 29
1000
0001
0100
0010
,  // measure 30
0100
0100
0100
0100
,  // measure 31
0010
1000
0001
0100
,  // measure 32
0001
0000
0000
0001
0000
0001
1000
1000
,  // measure 33
2000
3200
0320
0032
,  // measure 34
1003
1000
0001
0001
0000
1000
0001
0000
,  // measure 35
0002
0023
0230
2300
,  // measure 36
3010
0000
0000
0010
0000
0010
0100
0100
,  // measure 37
0200
0302
2003
3200
,  // measure 38
0310
0000
0010
0100
0000
0100
0010
0000
,  // measure 39
0020
0230
2300
3002
,  // measure 40
1003
0000
0000
1000
0000
0000
0000
0000
0000
0000
0000
0000
0000
0000
0000
0000
,  // measure 41
1000
0100
0001
0010
,  // measure 42
2000
0001
0010
3001
,  // measure 43
0002
0010
1000
0013
,  // measure 44
0010
0100
1000
0001
,  // measure 45
0100
0010
1000
0001
,  // measure 46
2000
0100
0010
3001
,  // measure 47
0002
0100
0010
1003
,  // measure 48
1001
0000
0001
0000
,  // measure 49
1000
0000
0001
0000
0010
0100
1000
0000
,  // measure 50
1001
0000
0001
0000
,  // measure 51
1000
0000
0010
0000
0100
0001
0100
0000
,  // measure 52
0200
0010
0000
0310
,  // measure 53
2000
0001
0000
3001
,  // measure 54
0020
0100
0000
0130
;

//---------------dance-single - ----------------
#NOTEDATA:;
#CHARTNAME:;
#STEPSTYPE:dance-single;
#DESCRIPTION:;
#CHARTSTYLE:;
#DIFFICULTY:Hard;
#METER:8;
#RADARVALUES:0.316472,0.390389,0.069712,0.038729,0.046475,272.000000,9.000000,5.000000,0.000000,0.000000,0.000000,0.000000,0.000000,0.316472,0.390389,0.069712,0.038729,0.046475,272.000000,9.000000,5.000000,0.000000,0.000000,0.000000,0.000000,0.000000;
#CREDIT:;
#NOTES:
// measure 0
0000
0000
0000
0000
,  // measure 1
0000
0000
0000
0000
,  // measure 2
0000
0000
0000
0000
,  // measure 3
0000
0000
0000
0000
,  // measure 4
0020
0000
0000
0000
,  // measure 5
2030
0000
0000
0000
,  // measure 6
0002
0000
0000
0000
,  // measure 7
0000
0000
0000
3003
,  // measure 8
1001
0000
0000
1000
0000
0000
0000
0000
0000
0000
0000
0000
0000
0000
0000
0000
,  // measure 9
0100
0000
0000
0100
0000
0000
0010
0000
0000
0000
0001
0000
0001
0000
0000
0000
,  // measure 10
0101
0000
0000
0100
0000
0000
0000
0000
0000
0000
0000
0000
0000
0000
0000
0000
,  // measure 11
0100
0000
0000
0100
0000
0000
0010
0000
0000
0000
1000
0000
0001
0000
1000
0000
,  // measure 12
1001
0000
0000
0001
0000
0000
0000
0000
0000
0000
0000
0000
0000
0000
0000
0000
,  // measure 13
1000
0000
0000
1000
0000
0000
0010
0000
0000
0000
0010
0000
0100
0000
0001
0000
,  // measure 14
0101
0000
0000
0100
0000
0000
0000
0000
0000
0000
0000
0000
0000
0000
0000
0000
,  // measure 15
0010
0000
0000
0010
0000
0000
0010
0000
1000
0000
0010
0000
0001
0000
0010
0000
,  // measure 16
1000
0001
1000
0001
0010
0001
0010
0000
,  // measure 17
0001
1000
0001
1000
0100
1000
0100
0000
,  // measure 18
1000
0001
0100
0000
0100
0100
0010
0000
,  // measure 19
0010
1000
0001
0000
0010
0010
0100
0000
,  // measure 20
1000
0100
1000
0100
0010
0100
0010
0000
,  // measure 21
0001
0100
0001
0100
0010
0100
0010
0000
,  // measure 22
1000
0100
0010
0001
0100
0010
1000
0000
,  // measure 23
1001
0000
0000
0000
,  // measure 24
1000
0100
0010
0100
1000
0010
0100
0001
,  // measure 25
1000
0100
0010
1000
0010
0001
1000
0000
,  // measure 26
0010
0100
0001
1000
0100
0010
0001
0100
,  // measure 27
0001
1000
0100
0010
0001
1000
1001
0000
,  // measure 28
0001
0010
0001
0000
0010
0000
0100
0000
1000
0000
0010
0000
0100
0000
0010
0000
,  // measure 29
1000
0001
0010
0001
1000
0100
0010
0001
,  // measure 30
1000
0010
1000
0000
0010
0000
0100
0000
1000
0000
0100
0000
0001
0000
1000
0000
,  // measure 31
0010
0010
0100
0000
0100
0100
0001
0000
,  // measure 32
0010
0000
1000
0010
0000
0010
1000
1000
,  // measure 33
0001
0010
0100
0010
0001
0010
0100
1000
,  // measure 34
0100
0000
0100
0000
0010
0000
0010
0001
0000
0000
1000
0000
0000
0000
1000
0000
,  // measure 35
0010
0001
1000
0100
0001
1000
1001
0000
,  // measure 36
0100
0000
0001
0100
0000
0100
0001
0001
,  // measure 37
1000
0100
0010
0100
1000
0100
0010
0001
,  // measure 38
0010
0010
0100
0000
1000
1000
0001
0000
,  // measure 39
1000
0010
0001
0010
1000
0100
1000
0000
,  // measure 40
1001
0000
0000
0001
0000
0000
0000
0000
0000
0000
0000
0000
0000
0000
0000
0000
,  // measure 41
1000
0100
0001
0010
,  // measure 42
1000
0001
0010
0000
1000
0000
0010
0000
,  // measure 43
0001
0010
0100
1000
0010
0000
1000
0000
,  // measure 44
0001
0100
1000
0000
0100
0000
0100
0000
,  // measure 45
0001
0010
1000
0000
0010
0000
0001
0000
,  // measure 46
1000
0100
0001
0000
0100
0000
0100
0000
,  // measure 47
1000
0010
0100
0001
0010
0000
0011
0000
,  // measure 48
0001
1000
0100
0000
0001
0000
0100
0000
,  // measure 49
1000
0100
0010
0001
0100
0000
0001
0000
,  // measure 50
1000
0010
0001
0000
0010
0000
0010
0000
,  // measure 51
1000
0100
0001
0000
0100
0000
1000
0000
,  // measure 52
0001
0010
1000
0000
0000
0000
1000
0000
,  // measure 53
1000
0100
0001
0000
0000
0000
0001
0000
,  // measure 54
0001
0100
0010
0000
0000
0000
0020
0000
,  // measure 55
0200
0000
0000
0000
,  // measure 56
0330
0000
0000
0000
;
