#VERSION:0.83;
#TITLE:White Love;
#SUBTITLE:;
#ARTIST:SPEED;
#TITLETRANSLIT:;
#SUBTITLETRANSLIT:;
#ARTISTTRANSLIT:;
#GENRE:;
#ORIGIN:;
#CREDIT:;
#BANNER:White Love.png;
#BACKGROUND:White Love-bg.png;
#PREVIEWVID:;
#JACKET:White Love-jacket.png;
#CDIMAGE:;
#DISCIMAGE:;
#LYRICSPATH:White Love.lrc;
#CDTITLE:cdtitle.png;
#MUSIC:White Love.ogg;
#OFFSET:-0.024000;
#SAMPLESTART:71.375000;
#SAMPLELENGTH:12.000000;
#SELECTABLE:YES;
#BPMS:0.000=111.000;
#STOPS:;
#DELAYS:;
#WARPS:;
#TIMESIGNATURES:0.000=4=4;
#TICKCOUNTS:0.000=4;
#COMBOS:0.000=1;
#SPEEDS:0.000=1.000=0.000=0;
#SCROLLS:0.000=1.000;
#FAKES:;
#LABELS:0.000=Song Start;
#BGCHANGES:-0.048=White Love.avi=1.000=1=0=1===CrossFade==,
218.000=White Love-bg.png=1.000=1=0=1===CrossFade==,
99999=-nosongbg-=1.000=0=0=0 // don't automatically add -songbackground-
;
#KEYSOUNDS:;
#ATTACKS:
;

//---------------dance-single - ----------------
#NOTEDATA:;
#CHARTNAME:;
#STEPSTYPE:dance-single;
#DESCRIPTION:;
#CHARTSTYLE:;
#DIFFICULTY:Easy;
#METER:3;
#RADARVALUES:0.140881,0.176043,0.008150,0.032601,0.000000,121.000000,120.000000,1.000000,4.000000,0.000000,0.000000,0.000000,0.000000,0.000000,0.140881,0.176043,0.008150,0.032601,0.000000,121.000000,120.000000,1.000000,4.000000,0.000000,0.000000,0.000000,0.000000,0.000000;
#CREDIT:chewi;
#NOTES:
0000
0000
0000
0000
,
0000
0000
0000
0000
,
0000
0000
0000
0000
,
0000
0000
0000
0000
,
1000
1000
0100
0000
,
0100
0000
0100
0000
,
0010
0010
0001
0000
,
0001
0000
0001
0000
,
0002
0000
0000
0003
,
0001
0001
0001
0000
,
2000
0000
0000
3000
,
1000
1000
1000
0000
,
1000
0000
0100
0000
,
0001
0000
0100
0000
,
1000
0000
0010
0000
,
0001
0000
0010
0000
,
2000
0000
0000
3000
,
1000
1000
1000
0000
,
0002
0000
0000
0003
,
0001
0001
0001
0000
,
0001
0000
0010
0000
,
1000
0000
0010
0000
,
0001
0000
0100
0000
,
1000
0000
0100
0000
,
0100
0100
0100
0100
,
0010
0000
0010
0000
,
0001
1000
0001
0000
,
1000
0001
1000
0000
,
0010
0010
0010
0010
,
0100
0000
0100
0000
,
0001
1000
0001
0000
,
1000
0001
1000
0000
,
1000
0000
0001
0000
,
0100
0000
0010
0000
,
0110
0000
0000
0000
,
0010
1000
0100
0001
,
0010
0000
0000
0000
,
0010
0001
0100
1000
,
0010
0000
0000
0000
,
0010
1000
0100
0001
,
0010
0000
0010
0000
,
0100
0000
0100
0000
,
0001
0001
1000
0000
,
1000
1000
0001
0000
,
0001
0000
0010
0000
,
0100
0000
1000
0000
,
1000
1000
0001
0000
,
0001
0001
1000
0000
,
0010
0000
0100
0000
,
0010
0000
1000
0000
,
0001
0001
0010
0000
,
0010
0000
0010
0000
,
0100
0100
1000
0000
,
1000
0000
0001
0000
,
1000
0000
0000
0000
;

//---------------dance-single - ----------------
#NOTEDATA:;
#CHARTNAME:;
#STEPSTYPE:dance-single;
#DESCRIPTION:;
#CHARTSTYLE:;
#DIFFICULTY:Medium;
#METER:6;
#RADARVALUES:0.173482,0.220054,0.016300,0.211904,0.000000,149.000000,147.000000,2.000000,26.000000,0.000000,0.000000,0.000000,0.000000,0.000000,0.173482,0.220054,0.016300,0.211904,0.000000,149.000000,147.000000,2.000000,26.000000,0.000000,0.000000,0.000000,0.000000,0.000000;
#CREDIT:chewi;
#NOTES:
0000
0000
0000
0000
,
0000
0000
0000
0000
,
0000
0000
0000
0000
,
0000
0000
0000
0000
,
1000
0100
0010
0000
,
0100
0000
0010
0000
,
0001
0100
0010
0000
,
0100
0000
0010
0000
,
1000
1000
0001
0001
,
1000
0001
1000
0000
,
0001
0001
1000
1000
,
0001
1000
0001
0000
,
0010
0100
1000
0000
,
0010
0100
0001
0000
,
0100
0010
1000
0000
,
0100
0010
0001
0000
,
0100
0100
0010
0010
,
0100
0010
0100
0000
,
0010
0010
0100
0100
,
0010
0100
0010
0000
,
1000
0001
0100
0000
,
0001
1000
0100
0000
,
1000
0001
0010
0000
,
0001
1000
0010
0000
,
2000
3100
0020
0031
,
2000
3010
0200
0301
,
0001
0000
0000
1000
0001
0000
0000
0000
,
1000
0000
0000
0001
1000
0000
0000
0000
,
0002
0013
0200
1300
,
0002
0103
0020
1030
,
1000
0000
0001
0001
,
1000
0000
1000
0010
,
0200
0000
0000
0300
,
0200
0302
0023
0230
,
2300
0000
3000
1000
,
0010
0001
0010
1000
,
0020
0000
0030
0100
,
0002
0000
0023
0000
,
0230
0000
0300
0010
,
0001
0001
0100
0100
,
0020
0000
2030
0000
,
3002
0000
0003
1000
,
0200
0000
0300
0100
,
2000
3000
0020
0030
,
0100
0001
0100
1000
,
0100
0001
1000
1001
,
0200
0000
0300
0100
,
0010
1000
0010
0001
,
0020
0000
0000
0000
0000
0000
0030
1000
,
0001
0000
0000
0000
,
1001
0010
0100
0000
,
0010
0000
0100
0000
,
1000
0010
0100
0000
,
0010
0000
0100
0000
,
0001
0000
0000
0000
;

//---------------dance-single - ----------------
#NOTEDATA:;
#CHARTNAME:;
#STEPSTYPE:dance-single;
#DESCRIPTION:;
#CHARTSTYLE:;
#DIFFICULTY:Hard;
#METER:9;
#RADARVALUES:0.282927,0.330081,0.097802,0.244505,0.138553,243.000000,231.000000,12.000000,30.000000,0.000000,0.000000,0.000000,0.000000,0.000000,0.282927,0.330081,0.097802,0.244505,0.138553,243.000000,231.000000,12.000000,30.000000,0.000000,0.000000,0.000000,0.000000,0.000000;
#CREDIT:chewi;
#NOTES:
0000
0000
0000
0000
,
0000
0000
0000
0000
,
0000
0000
0000
0000
,
0000
0000
0000
0000
,
0010
0000
1000
0000
0001
0000
0100
0010
0000
0000
0100
0000
0001
0000
1000
0010
,
0000
0000
0000
0100
0001
1000
0010
2000
,
0002
0000
0000
0000
0000
0000
0000
0000
3003
0000
0010
0000
0100
0000
0100
0020
,
0000
0000
0001
0000
0100
0000
1030
0100
,
1000
0000
0100
0000
1000
0000
0000
0001
0000
0000
1000
0000
0000
0000
0010
0000
,
1000
0000
0010
0000
1000
0000
0000
0010
0000
0000
0100
0000
0000
0000
0001
0000
,
0010
0000
0000
0000
0000
0000
0000
0000
0100
0000
0000
0100
0000
0000
0100
0000
,
0010
0000
0000
0010
0000
0000
0010
0000
0000
0000
0001
0000
1000
0000
1000
0001
,
0000
0000
0000
0000
0000
0100
0010
0100
,
0010
1000
0000
0001
0000
0001
0000
1000
,
1000
0000
0000
0100
0100
0000
0000
0000
,
0010
0000
0001
0000
0010
0000
0000
0001
0000
0000
0010
0000
0001
0000
0010
0000
,
0001
0000
0010
0000
0001
0000
0000
1000
0000
0000
0001
0000
0000
0000
0100
0000
,
0001
0000
0100
0000
0001
0000
0000
0100
0000
0000
0010
0000
0000
0000
1000
0000
,
0100
0000
0000
0000
0000
0000
0010
0000
0010
0000
0000
0010
0000
0000
0010
0000
,
0100
0000
0000
0100
0000
0000
0000
1000
,
0001
0000
1000
0000
0001
0000
0000
0001
0000
0000
0000
0000
0000
0000
0010
0000
,
0100
0000
0100
0000
1000
0000
0000
1000
0000
0000
1000
0000
0000
0000
0001
0000
,
1000
0000
0010
0000
1000
0000
0000
0010
0000
0000
1000
0000
0010
0000
0000
0000
,
0100
0000
0001
0000
0100
0000
0000
0001
0000
0000
0010
0000
0001
0000
0000
0000
,
0100
0000
0000
0100
0000
0000
0100
0000
0010
0000
0000
0010
0000
0000
0010
0000
,
0100
0000
0000
0100
0000
0000
0100
0000
0001
0000
0000
0001
0000
0000
0001
0000
,
1000
0000
0000
0001
0001
0000
0000
0000
,
0001
0000
1000
0000
0010
0100
0100
0000
,
0001
0000
0000
0001
0000
0000
0001
0000
0100
0000
0000
0100
0000
0000
0100
0000
,
0010
0000
0000
0010
0000
0000
0010
0000
1000
0000
0000
1000
0000
0000
1000
0000
,
0001
0000
0000
0000
0000
0000
0001
0000
1000
0000
0000
0001
0000
0000
1000
0000
,
0010
0000
0110
1001
,
0220
0000
0000
0330
,
1000
0100
0001
0010
,
2000
0000
0000
0000
3000
0001
0001
1000
,
0001
0000
0000
0001
0000
0000
0001
0000
1000
0000
0000
0000
1100
0000
0000
0000
,
0202
0000
0000
0000
0303
0100
0100
0010
,
0010
0000
0000
0010
0000
0000
0010
0000
0100
0000
0000
0100
0000
0000
0100
0000
,
0001
0010
0100
1000
0000
0100
1000
0100
,
1000
0000
0000
1000
0000
0000
1000
0000
0001
0000
0000
0001
0000
0000
0000
0000
,
0202
0303
2200
3300
,
2002
0000
3003
0000
0000
1000
0001
0100
,
0020
0000
0000
0000
0030
0100
0100
0001
,
0010
0000
0000
0010
0000
0000
0010
0000
0002
0000
0000
0000
0003
0000
0000
0000
,
2200
3300
0202
0303
,
0220
0000
0330
0000
0100
0001
1000
0100
,
0200
0000
0000
0000
0300
0010
0000
0001
,
1000
0000
0000
1000
0000
0000
1000
0000
0001
0000
0000
0000
0100
0000
0000
0000
,
0020
0000
0000
0000
0000
0000
0000
0100
,
0200
0000
0000
0330
,
0010
0000
1000
0000
0001
0000
0100
0020
0000
0000
0000
0000
0030
0000
0000
0000
,
0000
0000
0000
0100
0001
1000
0010
2000
,
0002
0000
0000
0000
0000
0000
0000
0000
3003
0000
0010
0000
0100
0000
0200
0020
,
0000
0000
0000
0330
,
1001
0000
0000
0000
;

//---------------dance-single - ----------------
#NOTEDATA:;
#CHARTNAME:;
#STEPSTYPE:dance-single;
#DESCRIPTION:;
#CHARTSTYLE:;
#DIFFICULTY:Beginner;
#METER:1;
#RADARVALUES:0.078009,0.132033,0.040751,0.081502,0.000000,67.000000,62.000000,5.000000,10.000000,0.000000,0.000000,0.000000,0.000000,0.000000,0.078009,0.132033,0.040751,0.081502,0.000000,67.000000,62.000000,5.000000,10.000000,0.000000,0.000000,0.000000,0.000000,0.000000;
#CREDIT:chewi;
#NOTES:
// measure 0
0000
0000
0000
0000
,  // measure 1
0000
0000
0000
0000
,  // measure 2
0000
0000
0000
0000
,  // measure 3
0000
0000
0000
0000
,  // measure 4
2000
0000
0000
3000
,  // measure 5
1000
0000
0000
0000
,  // measure 6
0002
0000
0000
0003
,  // measure 7
0001
0000
0000
0000
,  // measure 8
1001
0000
0000
0000
,  // measure 9
0100
0000
0000
0000
,  // measure 10
0010
0000
0000
0000
,  // measure 11
0100
0000
0000
0000
,  // measure 12
0001
0000
0000
0000
,  // measure 13
0001
0000
0000
0000
,  // measure 14
1000
0000
0000
0000
,  // measure 15
1000
0000
0000
0000
,  // measure 16
0110
0000
0000
0000
,  // measure 17
0010
0000
0000
0000
,  // measure 18
0100
0000
0000
0000
,  // measure 19
0010
0000
0000
0000
,  // measure 20
1000
0000
0000
0000
,  // measure 21
1000
0000
0000
0000
,  // measure 22
0001
0000
0000
0000
,  // measure 23
0001
0000
0000
0000
,  // measure 24
1000
0000
0001
0000
,  // measure 25
1000
0000
0001
0000
,  // measure 26
0100
0000
0000
0000
,  // measure 27
0100
0000
0000
0000
,  // measure 28
0001
0000
1000
0000
,  // measure 29
0001
0000
1000
0000
,  // measure 30
0010
0000
0000
0000
,  // measure 31
0010
0000
0000
0000
,  // measure 32
0100
0000
0000
0000
,  // measure 33
0100
0100
0100
0100
,  // measure 34
0100
0000
0000
0000
,  // measure 35
1000
0000
0010
0000
,  // measure 36
0001
0000
0000
0000
,  // measure 37
0001
0000
0010
0000
,  // measure 38
1000
0000
0000
0000
,  // measure 39
0001
0000
1000
0000
,  // measure 40
1001
0000
0000
0000
,  // measure 41
0110
0000
0000
0000
,  // measure 42
0200
0000
0000
0300
,  // measure 43
0100
0000
0000
0000
,  // measure 44
0020
0000
0000
0030
,  // measure 45
0010
0000
0000
0000
,  // measure 46
2000
0000
0000
3000
,  // measure 47
1000
0000
0000
0000
,  // measure 48
0002
0000
0000
0003
,  // measure 49
0001
0000
0000
0000
,  // measure 50
2002
0000
0000
3003
,  // measure 51
0000
0000
1000
1000
,  // measure 52
2000
0000
0000
3000
,  // measure 53
0002
0000
0000
0003
,  // measure 54
0100
0000
0000
0000
;
