#TITLE:Whip It;
#SUBTITLE:;
#ARTIST:Nicki Minaj;
#TITLETRANSLIT:;
#SUBTITLETRANSLIT:;
#ARTISTTRANSLIT:;
#GENRE:Pop;
#CREDIT:chewi;
#BANNER:Whip It.png;
#BACKGROUND:Whip It-bg.png;
#LYRICSPATH:;
#CDTITLE:cdtitle.png;
#MUSIC:Whip It.ogg;
#OFFSET:-0.045000;
#SAMPLESTART:69.434998;
#SAMPLELENGTH:15.000000;
#SELECTABLE:YES;
#BPMS:0.000000=128.000000
;
#STOPS:
;
#BGCHANGES:-0.090=Whip It.avi=1.000=1=0=0=StretchNoLoop==CrossFade==,
99999=-nosongbg-=1.000=0=0=0 // don't automatically add -songbackground-
;
#KEYSOUNDS:;
#ATTACKS:;

//---------------dance-single - ----------------
#NOTES:
     dance-single:
     :
     Beginner:
     3:
     0.130429,0.234772,0.037265,0.121113,0.000000,81.000000,4.000000,13.000000,0.000000,0.000000,0.000000,0.130429,0.234772,0.037265,0.121113,0.000000,81.000000,4.000000,13.000000,0.000000,0.000000,0.000000:
// measure 0
0000
0000
0000
0000
,  // measure 1
0000
0000
0000
0000
,  // measure 2
0000
0000
0000
0000
,  // measure 3
0000
0000
0000
0000
,  // measure 4
1000
0000
0000
0000
,  // measure 5
0001
0000
0001
0000
,  // measure 6
0010
0000
0010
0000
,  // measure 7
1000
0000
1000
0000
,  // measure 8
0100
0000
0100
0000
,  // measure 9
0001
0000
0001
0000
,  // measure 10
1000
0000
1000
0000
,  // measure 11
0010
0000
0010
0000
,  // measure 12
0200
0300
0200
0300
,  // measure 13
0100
0100
0100
0000
,  // measure 14
0110
0000
0000
0000
,  // measure 15
1001
0000
0000
0000
,  // measure 16
0002
0003
0002
0003
,  // measure 17
0001
0000
0001
0000
,  // measure 18
1001
0000
0000
0000
,  // measure 19
0110
0000
0000
0000
,  // measure 20
1000
0000
0000
0000
,  // measure 21
0100
0000
0000
0000
,  // measure 22
0010
0000
0000
0000
,  // measure 23
0001
0000
0000
0000
,  // measure 24
0001
0000
0000
0000
,  // measure 25
1000
0000
0000
0000
,  // measure 26
0010
0000
0000
0000
,  // measure 27
0100
0000
0000
0000
,  // measure 28
0100
0000
1000
0000
,  // measure 29
0100
0000
1000
0000
,  // measure 30
0010
0000
0001
0000
,  // measure 31
0010
0000
0001
0000
,  // measure 32
0100
0000
1000
0000
,  // measure 33
0100
0000
1000
0000
,  // measure 34
0010
0000
0001
0000
,  // measure 35
0010
0000
1000
0000
,  // measure 36
0002
0000
0000
0003
,  // measure 37
1000
0000
1000
0000
,  // measure 38
1000
0000
1000
0000
,  // measure 39
0002
0000
0000
0003
,  // measure 40
0002
0000
0000
0003
,  // measure 41
0001
0000
0001
0000
,  // measure 42
0001
0000
0001
0000
,  // measure 43
2000
0000
0000
3000
,  // measure 44
2000
0000
0000
3000
,  // measure 45
0010
0000
0010
0000
,  // measure 46
0100
0000
0100
0000
,  // measure 47
0020
0000
0000
0030
,  // measure 48
0020
0000
0000
0030
,  // measure 49
0100
0000
0100
0000
,  // measure 50
0010
0000
0010
0000
,  // measure 51
0200
0000
0000
0300
,  // measure 52
0200
0000
0000
0300
,  // measure 53
0100
0000
0000
0000
,  // measure 54
0100
0000
0000
0000
,  // measure 55
0010
0000
0000
0000
,  // measure 56
0010
0000
0000
0000
;

//---------------dance-single - ----------------
#NOTES:
     dance-single:
     :
     Easy:
     5:
     0.204960,0.264352,0.037265,0.177011,0.000000,131.000000,4.000000,19.000000,0.000000,0.000000,0.000000,0.204960,0.264352,0.037265,0.177011,0.000000,131.000000,4.000000,19.000000,0.000000,0.000000,0.000000:
0000
0000
0000
0000
,
0000
0000
0000
0000
,
0000
0000
0000
0000
,
0000
0000
0000
0000
,
1001
0000
0000
0000
,
1000
0100
0010
0001
,
1000
0000
1000
0000
,
0001
0000
0001
0000
,
1001
0000
0100
0000
,
0010
0000
0100
0000
,
0010
0100
0001
0000
,
0010
0100
1000
0000
,
2000
3000
0002
0003
,
1000
0001
1000
0000
,
1000
0000
0010
0000
,
0001
0000
0100
0000
,
0200
0300
0020
0030
,
0100
0010
0100
0000
,
0010
0000
1000
0000
,
0100
0000
0001
0000
,
0020
0000
0000
0000
,
0000
0000
0000
0030
,
2000
0000
0000
0000
,
0000
0000
3000
1001
,
0002
0000
0000
0000
,
0000
0000
0000
0003
,
0020
0000
0000
0000
,
0000
0000
0000
0030
,
0010
0000
1000
0000
,
0100
0000
0001
0000
,
0010
0000
1000
0000
,
0100
0000
0001
0000
,
0010
1000
0100
0001
,
0010
1000
0100
0001
,
0010
1000
0100
0001
,
0010
1000
0100
0001
,
0010
0000
0000
0110
,
0010
0100
2000
0000
,
3010
0100
0002
0000
,
0103
0100
1000
1000
,
0100
0100
0001
0001
,
0100
1000
0200
0300
,
1000
0100
0002
0003
,
0001
0010
1000
0100
,
0001
0010
1000
0100
,
0001
1000
0002
0003
,
1000
0001
2000
3000
,
1000
1000
0010
0010
,
0001
0001
0100
0100
,
1000
0010
0002
0003
,
0001
0010
2000
3000
,
1000
0010
0001
0100
,
1000
0010
0001
0100
,
2000
0000
0000
3000
,
0002
0000
0000
0003
,
0200
0000
0000
0300
,
0010
0010
0010
0010
;

//---------------dance-single - ----------------
#NOTES:
     dance-single:
     :
     Medium:
     6:
     0.300786,0.370093,0.214276,0.046582,0.000000,198.000000,23.000000,5.000000,0.000000,0.000000,0.000000,0.300786,0.370093,0.214276,0.046582,0.000000,198.000000,23.000000,5.000000,0.000000,0.000000,0.000000:
0000
0000
0000
0000
,
0000
0000
0000
0000
,
0000
0000
0000
0000
,
0000
0000
0000
0000
,
1000
1000
0001
0001
,
0100
0010
0100
0010
,
1000
1000
0001
0001
,
0010
0100
0010
0100
,
1000
0001
0010
0100
,
1000
0001
0100
0010
,
1000
0010
0001
0100
,
1000
0100
0001
0100
,
0101
0000
0100
0000
,
0001
0100
0001
0000
,
2010
0000
0001
0000
,
0100
0100
3100
0000
,
1100
0000
0100
0000
,
0010
0001
0010
0000
,
0012
0000
1000
0000
,
0100
0100
0103
0000
,
1001
0000
0000
0001
,
0010
0100
1000
0000
,
1000
0100
0010
0001
,
1000
0001
1000
1001
,
0100
0000
0010
0000
,
0100
0010
1000
0001
,
1000
0100
0001
0000
,
1000
0010
0001
0000
,
0100
0100
0100
0100
,
0010
0010
0010
0010
,
1000
0000
0001
0000
1000
0001
1000
0000
,
0001
0000
1000
0000
0001
1000
0001
0000
,
1000
0100
0010
0001
,
1000
0100
0010
0001
,
1000
0010
0100
0001
,
1000
0010
0100
0001
,
1000
0000
0001
1000
0001
0000
1001
0000
,
1000
0001
1100
0101
,
1000
0001
1010
0011
,
0010
1000
0100
0001
,
0010
1000
0100
0001
,
0010
1000
1010
0011
,
1000
0100
1100
0101
,
0100
0010
1000
0001
,
0010
0100
1000
0001
,
1000
0100
1100
1010
,
0100
0001
0101
0011
,
0010
0100
0010
0001
,
0010
0100
0010
1000
,
0010
0100
1100
0101
,
0100
0010
1010
0011
,
0010
0100
1000
0001
,
0010
0100
1000
0001
,
1000
0000
1000
0000
1000
1000
1000
0000
,
0010
0010
0010
0010
,
0100
0000
0100
0000
0100
0100
0100
0000
,
0200
0302
2003
3001
;

//---------------dance-single - ----------------
#NOTES:
     dance-single:
     :
     Hard:
     12:
     0.431215,0.449398,0.121113,0.186327,0.223593,291.000000,13.000000,20.000000,8.000000,0.000000,0.000000,0.431215,0.449398,0.121113,0.186327,0.223593,291.000000,13.000000,20.000000,8.000000,0.000000,0.000000:
0000
0000
0000
0000
,
0000
0000
0000
0000
,
0000
0000
0000
0000
,
0000
0000
0000
0000
,
1000
0000
0001
0000
1000
0100
0010
0000
,
0001
0010
0001
0000
1000
0100
1000
0000
,
0001
0100
0001
0000
1000
0010
1000
0000
,
0010
0100
0010
1000
0010
0100
0010
0100
,
0010
0100
0001
0000
0010
0100
1000
0000
,
0001
1000
0100
0000
1000
0001
0100
0000
,
0001
0010
0100
1000
0100
1000
0100
0000
,
1000
0010
0100
0001
0100
0001
0100
0000
,
1002
1003
2001
3001
,
1000
0010
0001
0100
1000
0000
0010
1000
,
0100
0000
0000
0100
0000
0000
0100
0000
0010
0000
0000
0010
0000
0000
0010
0000
,
0001
0000
0000
0001
0000
0000
0001
0000
1000
0000
0000
0000
1001
0000
0000
0000
,
1002
0013
2001
3100
,
0001
0100
1000
0010
0001
0000
0100
0100
,
0100
0000
0000
0100
0000
0000
0100
0000
0010
0000
0000
0010
0000
0000
0010
0000
,
1000
0000
0000
1000
0000
0000
1000
0000
0001
0000
0000
0000
0000
0000
0000
0000
,
1000
0100
0010
0100
0010
0001
1000
0100
,
1000
0000
0000
1000
0000
0000
1000
0000
0000
0000
0000
0000
0010
0000
0100
0000
,
0001
0000
0000
0001
0000
0000
0001
0000
0000
0000
0000
0000
0000
0000
1000
0000
,
0010
0000
0000
0100
0000
0000
0001
0000
0000
0000
0000
0000
MMMM
0000
0000
0000
,
0001
0010
0100
0010
0100
1000
0001
0010
,
0001
0000
0000
0001
0000
0000
0001
0000
0000
0000
0000
0000
0100
0000
0010
0000
,
1000
0000
0000
1000
0000
0000
1000
0000
0000
0000
0000
0000
0000
0000
0001
0000
,
0100
0000
0000
0010
0000
0000
1000
0000
0000
0000
0000
0000
0000
0000
0000
0000
,
1000
0000
0100
0000
0001
0010
1000
0000
,
0100
0000
0001
0000
0010
1000
0100
0000
,
0001
0010
1000
0000
0100
0001
0010
0000
,
1000
0100
0001
0000
0010
1000
0100
0000
,
0001
0000
0100
0000
1000
0010
0001
0000
,
0100
0000
1000
0000
0010
0001
0100
0000
,
1000
0010
0001
0000
0100
1000
0010
0000
,
0001
0100
1000
0000
0010
0001
0100
0000
,
1000
0010
0001
0010
1000
0000
MMMM
0000
,
1000
0000
0000
0010
0000
0010
0000
0010
0200
0000
0000
0000
0301
0000
0000
0000
,
0010
0000
0000
0100
0000
0100
0000
0100
2000
0000
0000
0000
3001
0000
1000
0000
,
0100
0000
0000
0010
0000
0000
0001
0000
1000
0000
0000
0100
0000
0000
0010
0000
,
0001
0000
0000
1000
0000
0000
0001
0000
2002
0000
0000
0000
3003
0000
0000
0000
,
0100
0000
0000
1000
0000
1000
0000
1000
0002
0000
0000
0000
0013
0000
0000
0000
,
1000
0000
0000
0001
0000
0001
0000
0001
0200
0000
0000
0000
0310
0000
0100
0000
,
0001
0000
0000
1000
0000
0000
0010
0000
0100
0000
0000
0001
0000
0000
1000
0000
,
0010
0000
0000
0100
0000
0000
0010
0000
0220
0000
0000
0000
0330
0000
0000
0000
,
0001
0000
0000
0100
0000
0100
0000
0100
0020
0000
0000
0000
1030
0000
0000
0000
,
0100
0000
0000
0010
0000
0010
0000
0010
0002
0000
0000
0000
1003
0000
0001
0000
,
0010
0000
0000
0100
0000
0000
1000
0000
0001
0000
0000
0010
0000
0000
0100
0000
,
1000
0000
0000
0001
0000
0000
1000
0000
2002
0000
0000
0000
3003
0000
0000
0000
,
0010
0000
0000
0001
0000
0001
0000
0001
2000
0000
0000
0000
3100
0000
0000
0000
,
0001
0000
0000
1000
0000
1000
0000
1000
0020
0000
0000
0000
0130
0000
0010
0000
,
1000
0000
0000
0001
0000
0000
0100
0000
0010
0000
0000
1000
0000
0000
0001
0000
,
0100
0000
0000
0010
0000
0000
0100
0000
0220
0000
0000
0000
0330
0000
0000
0000
,
0100
0000
0100
0100
0100
0000
0000
0000
,
0010
0000
0010
0010
0010
0000
0000
0000
,
1000
0000
0001
1000
0001
0000
0000
0000
,
1100
0101
0011
1010
;
