#TITLE:Whip My Hair;
#SUBTITLE:;
#ARTIST:Willow;
#TITLETRANSLIT:;
#SUBTITLETRANSLIT:;
#ARTISTTRANSLIT:;
#GENRE:;
#CREDIT:Chewi☆;
#MENUCOLOR:#FFFF00;
#METERTYPE:DDR X;
#BANNER:Whip My Hair.png;
#BACKGROUND:Whip My Hair-bg.png;
#LYRICSPATH:;
#CDTITLE:;
#MUSIC:Whip My Hair.mp3;
#OFFSET:-1.962;
#SAMPLESTART:36.560;
#SAMPLELENGTH:15.000;
#SELECTABLE:YES;
#LISTSORT:;
#BPMS:0.000=81.500;
#STOPS:;
#BGCHANGES:;
#ATTACKS:;

//---------------dance-single - Chewi----------------
#NOTES:
     dance-single:
     Chewi:
     Hard:
     9:
     0.300,0.281,0.161,0.000,0.125: // measure 1
0000
0000
0000
0000
,  // measure 2
0000
0000
0000
0000
,  // measure 3
1000
0000
0000
0001
0000
0000
1000
0000
0000
0001
0000
0000
1000
0000
1001
0000
,  // measure 4
0001
0000
0000
1000
0000
0000
0001
0000
0000
1000
0000
0000
0001
0000
1001
0000
,  // measure 5
0100
0010
0100
0001
0010
0100
1000
0010
,  // measure 6
1000
0100
0010
0100
1000
0010
0100
0001
,  // measure 7
0100
0000
0000
0010
0000
0000
0100
0000
0000
0010
0000
0000
0100
0000
0110
0000
,  // measure 8
0010
0000
0000
0001
0000
0000
0010
0000
0000
0001
0000
0000
0010
0000
0011
0000
,  // measure 9
1000
0100
0010
0001
0000
0010
0001
0000
,  // measure 10
0001
0010
0100
1000
0010
0100
1000
0010
,  // measure 11
0100
0000
0000
0010
0000
0000
0100
0000
0000
0010
0000
0000
0100
0000
0110
0000
,  // measure 12
1000
0000
0000
0100
0000
0000
1000
0000
0000
0100
0000
0000
1000
0000
1100
0000
,  // measure 13
0010
0100
1000
0010
1000
1001
0000
0000
,  // measure 14
0010
0001
0100
0010
0100
0101
0000
0100
,  // measure 15
0010
1000
0001
0010
0000
0100
0000
1000
,  // measure 16
0010
1000
0100
0010
0001
0000
1000
0001
,  // measure 17
0101
1000
0010
0000
1000
0100
0001
0000
,  // measure 18
0011
1000
0010
0000
1000
0001
0100
0000
,  // measure 19
0100
0000
0000
0010
0000
0000
1000
0000
0000
0100
0000
0000
0010
0000
0001
0000
,  // measure 20
1000
0000
0000
0100
0000
0000
1000
0000
0000
0100
0000
0000
1000
0000
0100
0000
,  // measure 21
0011
0001
0100
0000
0010
0100
0010
0000
,  // measure 22
1010
1000
0100
0000
0010
0100
1000
0000
,  // measure 23
1000
0000
0000
0001
0000
0000
1000
0000
0000
0001
0000
0000
1000
0000
0010
0000
,  // measure 24
0100
0000
0000
0010
0000
0000
0100
0000
0000
0010
0000
0000
0100
0000
0001
0000
,  // measure 25
0010
0100
0010
0001
0010
0100
1000
0010
,  // measure 26
0001
0000
0001
0010
1000
0000
1000
0001
,  // measure 27
1000
0000
1100
0000
0010
0001
0100
0010
,  // measure 28
0110
0000
0000
0000
,  // measure 29
1010
0001
0100
0000
1000
0100
0010
0000
,  // measure 30
0011
0100
0001
0000
0100
0001
0010
0000
,  // measure 31
0001
0000
0000
0100
0000
0000
0010
0000
0000
1000
0000
0000
0100
0000
0010
0000
,  // measure 32
0001
0000
0000
0010
0000
0000
0100
0000
0000
1000
0000
0000
1000
0000
0000
0000
,  // measure 33
1010
0100
0001
0000
0001
1000
0100
0000
,  // measure 34
0011
0100
1000
0000
1000
0010
0100
0000
,  // measure 35
0010
0000
0000
0100
0000
0000
0001
0000
0000
1000
0000
0000
0100
0000
0010
0000
,  // measure 36
0100
0000
0000
1000
0000
0000
0010
0000
0000
1000
0000
0000
0010
0000
0100
0000
,  // measure 37
0001
1000
0010
1000
0001
0010
0100
1000
,  // measure 38
0100
0000
0000
0000
;

//---------------dance-single - Chewi----------------
#NOTES:
     dance-single:
     Chewi:
     Medium:
     6:
     0.182,0.182,0.045,0.000,0.063:
0000
0000
0000
0000
,
0000
0000
0000
0000
,
0010
0000
0000
0010
0000
0000
0010
0000
0000
0000
0000
0000
0010
0000
0000
0000
,
0100
0000
0000
0100
0000
0000
0100
0000
0000
0000
0000
0000
0100
0000
0000
0000
,
1000
0100
0010
0001
,
1000
0100
0001
0100
,
0100
0000
0000
0100
0000
0000
0100
0000
0000
0000
0000
0000
0100
0000
0000
0000
,
0010
0000
0000
0010
0000
0000
0010
0000
0000
0000
0000
0000
0010
0000
0000
0000
,
0010
1000
0100
0001
,
0010
0100
0001
1000
,
0001
0000
0000
0001
0000
0000
0001
0000
0000
0000
0000
0000
0001
0000
0000
0000
,
1000
0000
0000
1000
0000
0000
1000
0000
0000
0000
0000
0000
1000
0000
0000
0000
,
1000
0010
0100
0001
,
1000
0100
0010
0001
,
0010
0000
0000
0010
0000
0000
0010
0000
0000
0000
0000
0000
0010
0000
0000
0000
,
0100
0000
0000
0100
0000
0000
0100
0000
0000
0000
0000
0000
0100
0000
0000
0000
,
0010
0001
0100
1000
,
0010
0001
0100
1000
,
0010
0000
0000
0010
0000
0000
0010
0000
0000
0000
0000
0000
0010
0000
0000
0000
,
1000
0000
0000
1000
0000
0000
1000
0000
0000
0000
0000
0000
1000
0000
0000
0000
,
1000
0100
0010
0001
,
1000
0100
0010
0001
,
0010
0000
0000
0010
0000
0000
0010
0000
0000
0000
0000
0000
0010
0000
0000
0000
,
0001
0000
0000
0001
0000
0000
0001
0000
0000
0000
0000
0000
0001
0000
0000
0000
,
0001
0000
1000
0000
0010
0000
0100
0100
,
0100
0000
0010
0010
0010
0000
0000
0000
,
0010
1000
0001
1000
,
1001
0000
0000
0000
,
0001
0010
0100
1000
,
0010
0001
0100
1000
,
0010
1000
0100
0001
,
0010
1000
0100
0010
,
0001
0001
1000
1100
,
1000
1000
0001
0101
,
0100
0000
0000
0100
0000
0000
0100
0000
0000
0000
0000
0000
0100
0000
0000
0000
,
0010
0000
0000
0010
0000
0000
0010
0000
0000
0000
0000
0000
0010
0000
0000
0000
,
0110
0000
0000
0000
1001
0000
0000
1000
,
1000
0000
0000
0000
;

//---------------dance-single - Chewi----------------
#NOTES:
     dance-single:
     Chewi:
     Beginner:
     1:
     0.046,0.050,0.000,0.000,0.000:
0000
0000
0000
0000
,
0000
0000
0000
0000
,
0001
0000
0000
0000
,
1000
0000
0000
0000
,
1000
0000
0000
0000
,
0001
0000
0000
0000
,
0100
0000
0000
0000
,
0010
0000
0000
0000
,
0010
0000
0000
0000
,
0100
0000
0000
0000
,
1000
0000
0000
0000
,
0100
0000
0000
0000
,
0010
0000
0000
0000
,
0010
0000
0000
0000
,
0100
0000
0000
0000
,
1000
0000
0000
0000
,
0010
0000
0000
0000
,
0100
0000
0000
0000
,
0010
0000
0000
0000
,
0001
0000
0000
0000
,
1000
0000
0000
0000
,
0001
0000
0000
0000
,
1000
0000
0000
0000
,
0100
0000
0000
0000
,
0010
0000
0000
0000
,
0010
0000
0000
0000
,
0100
0000
0000
0000
,
0100
0000
0000
0000
,
1000
0000
0000
0000
,
0001
0000
0000
0000
,
1000
0000
0000
0000
,
0001
0000
0000
0000
,
0010
0000
0000
0000
,
0010
0000
0000
0000
,
1000
0000
0000
0000
,
1000
0000
0000
0000
,
1000
0000
0000
0000
,
0001
0000
0000
0000
;

//---------------dance-single - Chewi----------------
#NOTES:
     dance-single:
     Chewi:
     Easy:
     3:
     0.151,0.165,0.107,0.107,0.000:
0000
0000
0000
0000
,
0000
0000
0000
0000
,
1001
0000
0000
0000
,
1001
0000
0000
0000
,
1000
1000
1000
0000
,
0001
0001
0001
0000
,
0100
0000
0100
0000
,
0010
0000
0010
0000
,
0110
0000
0000
0000
,
0110
0000
0000
0000
,
1000
1000
1000
0000
,
0100
0100
0100
0000
,
0010
0001
0100
0000
,
0010
1000
0100
0000
,
0110
0000
0000
0000
,
1001
0000
0010
0000
,
0010
0100
0010
0010
,
0100
0010
0100
0100
,
0220
0000
0000
0330
,
2002
0000
0000
3003
,
1000
0001
1000
1000
,
0001
1000
0001
0001
,
2002
0000
0000
3003
,
0220
0000
0000
0330
,
0010
0010
0010
0020
,
0030
0020
0030
0000
,
0100
0100
0100
0100
,
0200
0300
0200
0300
,
1000
1000
1000
1000
,
0001
0001
0001
0001
,
1000
1000
1000
1000
,
0001
0001
0001
0001
,
0010
0010
0100
0100
,
0010
0010
0100
0100
,
1000
1000
0001
0001
,
1000
1000
0001
0001
,
1001
0000
0000
0000
,
1001
0000
0000
0000
;
