#TITLE:Welcome;
#SUBTITLE:;
#ARTIST:Uraken;
#TITLETRANSLIT:;
#SUBTITLETRANSLIT:;
#ARTISTTRANSLIT:;
#GENRE:;
#CREDIT:Chewphoria~;
#MENUCOLOR:;
#METERTYPE:DDR;
#BANNER:Welcome.png;
#BACKGROUND:Welcome-bg.png;
#LYRICSPATH:;
#CDTITLE:;
#MUSIC:Welcome.mp3;
#OFFSET:-1.480;
#SAMPLESTART:1.454;
#SAMPLELENGTH:12.000;
#SELECTABLE:YES;
#LISTSORT:;
#BPMS:0.000=170.000,64.000=85.020,96.000=170.040;
#STOPS:96.000=5.300
;
#BGCHANGES:;
#ATTACKS:;

//---------------dance-single - Chewphoria~----------------
#NOTES:
     dance-single:
     Chewphoria~:
     Hard:
     12:
     0.485,0.626,0.283,0.230,0.050: // measure 1
0000
0000
0000
0000
,  // measure 2
0000
0000
0000
0000
,  // measure 3
0000
0000
0000
0000
,  // measure 4
0000
0000
0000
0000
,  // measure 5
0001
0100
0010
1000
0001
1000
1100
0000
,  // measure 6
0001
0011
1000
0010
,  // measure 7
1001
1001
0110
0110
,  // measure 8
1000
0010
0001
0000
0001
0100
1000
0000
,  // measure 9
1000
0010
0100
0001
1000
0001
0011
0000
,  // measure 10
1001
0000
0101
0000
0001
0100
0001
0000
,  // measure 11
1001
0000
1010
0000
1000
0010
1000
0000
,  // measure 12
1000
0010
0001
0100
1000
0100
0001
0010
,  // measure 13
0010
1000
0100
0000
1000
0100
1100
0000
,  // measure 14
0001
0100
0001
0000
1000
0001
1001
0000
,  // measure 15
1000
0010
0100
0001
1000
0010
0100
0001
,  // measure 16
1000
1000
0100
0000
0001
0001
0100
0000
,  // measure 17
2200
0000
0000
3300
0002
0000
0000
0003
,  // measure 18
0202
0000
0000
0303
2000
0000
0000
3000
,  // measure 19
2020
0000
0000
3030
0002
0000
0000
0003
,  // measure 20
0022
0000
0000
0033
2000
0000
0000
3000
,  // measure 21
2002
0000
0000
3000
0200
0003
0320
1030
,  // measure 22
0100
0000
0010
0001
0000
0001
0010
0100
1000
0000
0010
1000
0000
1000
0010
0000
,  // measure 23
2002
0000
0000
3000
0203
0000
0320
1030
,  // measure 24
0100
0000
0010
0100
0000
0100
1000
0010
0200
0000
0000
0000
0000
0000
0000
0000
,  // measure 25
0302
0003
0000
0000
0000
0000
0000
0000
0000
0000
0000
0000
0000
0000
0000
0000
0000
0000
0000
0000
0000
0000
0000
0000
0000
0000
0000
0000
0000
0000
0000
0000
0000
0000
0000
0000
0000
0000
0000
0000
0000
0000
0000
0000
0000
0000
0000
0000
0001
0000
0000
0000
0000
0000
0000
0000
0000
0000
0000
0000
0000
0000
0000
0000
0000
0000
0000
0000
0000
0000
0000
0000
0000
0000
0000
0000
0000
0000
0000
0000
0000
0000
0000
0000
0000
0000
0000
0000
0000
0000
0000
0000
0000
0000
0000
0000
1100
0000
0000
0000
0000
0000
0000
0000
0000
0000
0000
0000
0000
0000
0000
0000
0000
0000
0000
0000
0000
0000
0000
0000
0000
0000
0000
0000
0000
0000
0000
0000
0000
0000
0000
0000
0000
0000
0000
0000
0000
0000
0000
0000
0000
0000
0000
0000
1000
0000
0000
0000
0000
0000
0000
0000
0000
0000
0000
0000
0000
0000
0000
0000
0000
0000
0000
0000
0000
0000
0000
0000
0100
0000
0000
0000
0000
0000
0000
0000
0000
0000
0000
0000
0000
0000
0000
0000
0000
0000
0000
0000
0000
0000
0000
0000
,  // measure 26
1000
0000
0000
0000
,  // measure 27
0000
0000
1000
0000
0101
0000
0001
1000
,  // measure 28
0001
0000
0000
0000
,  // measure 29
0000
0000
0010
1000
1010
0000
0010
0001
,  // measure 30
0011
0000
0001
0100
0101
0000
1000
0100
,  // measure 31
1100
0000
1000
0001
1001
0000
0001
1000
,  // measure 32
1001
0000
0010
0100
0001
1000
0100
0010
,  // measure 33
0001
0000
1000
0000
1010
0000
0100
0001
,  // measure 34
0101
0000
0001
0000
1001
0000
1000
0100
,  // measure 35
1100
0000
0001
0010
0100
0000
1000
0010
,  // measure 36
0100
0001
1100
1000
,  // measure 37
0101
0000
0000
0000
1001
0000
0000
0000
0000
0000
0000
0000
0001
0000
0000
0010
,  // measure 38
0000
0000
0100
0000
2000
0000
0000
0000
0000
0000
3000
0000
1000
0000
0000
0100
,  // measure 39
0000
0010
0002
0000
0000
0000
0000
0000
,  // measure 40
0000
1003
0000
0010
,  // measure 41
0000
0000
0010
1000
0100
1000
0010
1000
,  // measure 42
0100
1000
0010
1000
0100
1000
0010
1000
,  // measure 43
0010
0100
0001
0010
0001
0100
0001
0010
,  // measure 44
0001
0100
0001
0010
0001
0100
0001
0010
,  // measure 45
0001
0100
0010
1000
0100
1000
0010
1000
,  // measure 46
0100
1000
0010
1000
0100
1000
0010
1000
,  // measure 47
0010
1000
0100
0010
0001
0100
0010
1000
,  // measure 48
0001
1000
2002
0000
0000
0000
0000
0000
,  // measure 49
3003
0000
1000
0010
0100
0001
1000
0010
,  // measure 50
0100
0001
1000
0100
0010
0001
1000
0100
,  // measure 51
0010
0001
0001
0010
0100
1000
0001
0010
,  // measure 52
0100
1000
0010
0100
0001
0010
0100
1000
,  // measure 53
0001
1000
0010
0100
0001
0010
0100
1000
,  // measure 54
0001
1000
0010
0100
0001
0010
0100
1000
,  // measure 55
0010
0100
0001
0010
0001
0010
0001
0100
,  // measure 56
0001
0100
2002
0000
0000
0000
3003
0010
,  // measure 57
1000
0100
0001
0000
0000
0000
0000
0001
,  // measure 58
0100
1000
0010
0000
0000
0000
0000
0100
,  // measure 59
0001
0010
1000
0000
0000
0000
0000
1000
,  // measure 60
0010
0000
0001
0000
0100
0000
0000
0100
0000
0000
0100
0000
0000
0000
0100
0000
,  // measure 61
0001
0010
1000
0000
0000
0000
0000
1000
,  // measure 62
0010
0001
0100
0000
0000
0000
0000
0010
,  // measure 63
1000
0100
0001
0000
0000
0000
0000
0001
,  // measure 64
0100
0000
1000
0000
0010
0000
0000
0010
0000
0000
0010
0000
0000
0000
0010
0000
,  // measure 65
1000
0100
0001
0000
0000
0000
0000
0001
,  // measure 66
0100
1000
0010
0000
0000
0000
0000
0100
,  // measure 67
0001
0010
1000
0000
0000
0000
0000
1000
,  // measure 68
0010
0000
0001
0000
0100
0000
0000
0100
0000
0000
0100
0000
0000
0000
1000
0000
,  // measure 69
0001
0000
0001
0010
0100
1000
0001
0010
,  // measure 70
0100
1000
0001
0100
0010
1000
0001
0100
,  // measure 71
0010
1000
0010
0010
0100
0100
0001
0001
,  // measure 72
1000
1000
0100
0010
0001
0010
0100
1000
,  // measure 73
0010
0100
2002
0000
0000
0000
0000
0000
,  // measure 74
0000
0000
0000
0000
,  // measure 75
0000
3003
0000
0000
;

//---------------dance-single - Chewphoria~----------------
#NOTES:
     dance-single:
     Chewphoria~:
     Medium:
     9:
     0.386,0.415,0.406,0.184,0.000: // measure 1
0000
0000
0000
0000
,  // measure 2
0000
0000
0000
0000
,  // measure 3
0000
0000
0000
0000
,  // measure 4
0000
0000
0000
0000
,  // measure 5
1000
0001
1000
0000
0100
0000
1100
0000
,  // measure 6
0001
1000
0001
0000
0100
0000
1001
0000
,  // measure 7
1010
0011
0101
1100
,  // measure 8
1000
1000
1000
0000
0001
0001
0001
0000
,  // measure 9
0100
0000
0110
0000
0100
0010
0100
0000
,  // measure 10
0010
0000
0110
0000
0100
0010
0100
0000
,  // measure 11
0001
0000
0101
0000
1000
0100
1000
0000
,  // measure 12
1000
0100
0010
0001
1000
1000
1000
0000
,  // measure 13
0001
0000
0101
0000
1000
0001
1000
0000
,  // measure 14
1000
0000
1100
0000
1000
0001
1000
0000
,  // measure 15
1010
0100
0011
0100
,  // measure 16
1000
0001
1000
0000
0001
0000
0101
0000
,  // measure 17
0200
0000
0320
0000
,  // measure 18
2030
0000
3200
0000
,  // measure 19
0302
0000
0023
0000
,  // measure 20
2030
0000
3002
0000
,  // measure 21
1003
0000
0000
0000
1000
0000
0001
1000
,  // measure 22
0002
0000
0203
0000
,  // measure 23
0310
0000
0000
0000
0010
0000
0010
0100
,  // measure 24
0010
0000
1000
0000
2200
0000
0000
3300
,  // measure 25
0001
0000
0001
0000
0010
0000
0010
0001
,  // measure 26
0010
0000
0000
0000
,  // measure 27
0000
0000
1000
0000
0010
0000
1000
0010
,  // measure 28
1000
0000
0000
0000
,  // measure 29
0000
0001
0101
1000
,  // measure 30
1001
1000
1100
1000
,  // measure 31
1001
0000
1000
0001
1000
0000
0001
1000
,  // measure 32
0001
2010
0100
0001
,  // measure 33
3100
0000
0001
1000
0001
0000
0100
0000
,  // measure 34
0110
0000
0001
1000
0001
0000
0010
0000
,  // measure 35
0110
0001
0011
0001
,  // measure 36
0101
1000
1100
1000
,  // measure 37
1010
2002
3000
0100
,  // measure 38
0100
0203
0000
0010
,  // measure 39
0010
0320
0000
0000
,  // measure 40
0000
2030
0000
3001
,  // measure 41
0000
0001
1100
1000
,  // measure 42
0101
1000
1010
0001
,  // measure 43
0011
0000
1000
0001
1000
0000
0001
1000
,  // measure 44
0001
0200
0010
0010
,  // measure 45
0310
0010
1010
0010
,  // measure 46
0011
0001
0101
1000
,  // measure 47
1100
0000
1000
0001
1000
0001
1000
0000
,  // measure 48
0001
2000
0000
0000
,  // measure 49
3000
0000
0010
0000
0100
0010
0000
0100
,  // measure 50
0010
0000
0001
0000
1000
0001
0000
1000
,  // measure 51
0001
0000
1000
0000
0001
1000
0000
0001
,  // measure 52
1000
0000
0100
0000
0010
0100
0000
0010
,  // measure 53
0100
0000
0010
0000
1000
0010
0000
1000
,  // measure 54
0010
0000
0100
0000
0001
0100
0000
0001
,  // measure 55
0100
0000
0010
0000
1000
0001
0000
1000
,  // measure 56
0001
0000
2000
0000
0000
0000
3000
0001
,  // measure 57
1000
0001
1000
0000
0100
0000
0000
0000
,  // measure 58
1000
1100
0100
0000
,  // measure 59
0100
0101
0100
0000
,  // measure 60
0010
0100
0100
1010
,  // measure 61
0011
0000
0100
0000
1100
0000
0000
1000
,  // measure 62
0100
1000
0100
0000
1001
0000
1000
0000
,  // measure 63
0010
0100
0101
1000
,  // measure 64
1100
1000
1001
1000
,  // measure 65
1001
0000
1000
0010
0100
0000
0001
0000
,  // measure 66
0101
0000
0001
1000
0001
0000
1000
0000
,  // measure 67
1100
1000
1100
0001
,  // measure 68
0101
0010
1010
0010
,  // measure 69
0011
0002
0100
1000
,  // measure 70
0010
0003
2000
0000
0100
0000
0001
0000
,  // measure 71
3010
0000
0001
0100
0001
0000
1000
0000
,  // measure 72
1100
2000
3010
0001
,  // measure 73
0100
1100
0000
0000
;

//---------------dance-single - Chewphoria~----------------
#NOTES:
     dance-single:
     Chewphoria~:
     Easy:
     6:
     0.306,0.386,0.291,0.207,0.000: // measure 1
0000
0000
0000
0000
,  // measure 2
0000
0000
0000
0000
,  // measure 3
0000
0000
0000
0000
,  // measure 4
0000
0000
0000
0000
,  // measure 5
1000
0100
0010
0001
,  // measure 6
0000
0000
0000
0000
,  // measure 7
0100
0110
0010
1010
,  // measure 8
1000
0001
2000
0000
,  // measure 9
3001
0010
0100
1000
,  // measure 10
0010
1000
0010
1000
,  // measure 11
1000
0100
0010
0001
,  // measure 12
1000
1000
0001
0001
,  // measure 13
0120
1000
1000
0030
,  // measure 14
2100
0001
0001
3001
,  // measure 15
0001
1000
1001
1000
,  // measure 16
0001
1001
0100
0010
,  // measure 17
1000
0000
0100
0000
,  // measure 18
0001
0000
0100
0000
,  // measure 19
1000
0000
0010
0000
,  // measure 20
0001
0000
0010
0000
,  // measure 21
1001
0000
0100
0000
,  // measure 22
0010
0000
1000
0000
,  // measure 23
1001
0000
0001
0000
,  // measure 24
0100
0000
0010
0000
,  // measure 25
1001
1000
0100
0001
,  // measure 26
0101
0000
0000
0000
,  // measure 27
0000
0001
0100
1000
,  // measure 28
1100
0000
0000
0000
,  // measure 29
0000
1000
1001
0000
,  // measure 30
0001
0000
1001
0000
,  // measure 31
0010
0000
0010
1000
,  // measure 32
0010
0010
1000
0100
,  // measure 33
0001
0010
0110
0100
,  // measure 34
0010
0100
1100
0100
,  // measure 35
1000
0100
0101
0001
,  // measure 36
1000
0001
1000
0010
,  // measure 37
0010
0200
0000
0310
,  // measure 38
0010
0020
0000
1030
,  // measure 39
1000
2000
0000
0000
,  // measure 40
0000
3001
0000
1001
,  // measure 41
0000
1000
1100
0001
,  // measure 42
0101
0010
1000
0100
,  // measure 43
0001
0010
0110
0100
,  // measure 44
0110
2000
0001
0001
,  // measure 45
3001
0001
0011
1000
,  // measure 46
1010
0100
1100
0100
,  // measure 47
0101
0001
0100
0010
,  // measure 48
1000
2001
0001
0001
,  // measure 49
3001
0001
0010
0100
,  // measure 50
1000
1000
0100
0010
,  // measure 51
0001
0001
0000
0110
,  // measure 52
1000
0001
0100
0010
,  // measure 53
1000
0001
1000
0100
,  // measure 54
1000
1000
0001
0100
,  // measure 55
0001
1000
1100
0001
,  // measure 56
0011
2002
0000
3003
,  // measure 57
1000
2000
0000
0000
,  // measure 58
3010
0020
0000
0000
,  // measure 59
0130
0200
0000
0000
,  // measure 60
0301
0002
0000
0000
,  // measure 61
1003
2000
0000
0000
,  // measure 62
3001
0002
0000
0000
,  // measure 63
0013
0020
0000
0000
,  // measure 64
0130
0200
2300
3200
,  // measure 65
1300
0001
1001
0100
,  // measure 66
0110
0010
0110
1000
,  // measure 67
1010
0001
0011
1000
,  // measure 68
1100
0001
0101
0100
,  // measure 69
0110
2000
0001
0100
,  // measure 70
0001
3002
1000
0100
,  // measure 71
1000
2003
3020
0230
,  // measure 72
0302
2003
0001
0001
,  // measure 73
3001
0000
0000
0000
;

//---------------dance-single - Chewphoria~----------------
#NOTES:
     dance-single:
     Chewphoria~:
     Beginner:
     4:
     0.171,0.220,0.054,0.031,0.000: // measure 1
0000
0000
0000
0000
,  // measure 2
0000
0000
0000
0000
,  // measure 3
0000
0000
0000
0000
,  // measure 4
0000
0000
0000
0000
,  // measure 5
1000
1000
1000
0000
,  // measure 6
0000
0000
0000
0000
,  // measure 7
0001
0000
1001
0000
,  // measure 8
1000
0000
1001
0000
,  // measure 9
0100
0100
0100
0000
,  // measure 10
0000
0000
0000
0000
,  // measure 11
0010
0010
0010
0000
,  // measure 12
0000
0000
0000
0000
,  // measure 13
1000
1000
1000
0000
,  // measure 14
0001
0001
0001
0000
,  // measure 15
1001
0000
0100
0000
,  // measure 16
0010
0000
0100
0000
,  // measure 17
1000
0000
0000
0000
,  // measure 18
0001
0000
0000
0000
,  // measure 19
0100
0000
0000
0000
,  // measure 20
0010
0000
0000
0000
,  // measure 21
1000
0000
0001
0000
,  // measure 22
1001
0000
0100
0000
,  // measure 23
0010
0000
0010
0000
,  // measure 24
1000
0000
0001
0000
,  // measure 25
1001
1000
1000
1000
,  // measure 26
1000
0000
0000
0000
,  // measure 27
0000
0001
0001
0001
,  // measure 28
0001
0000
0000
0000
,  // measure 29
0000
0100
0000
0100
,  // measure 30
0000
0010
0000
0010
,  // measure 31
0000
1000
0000
1000
,  // measure 32
0000
0001
0001
0001
,  // measure 33
0000
2000
0000
0000
,  // measure 34
3000
2000
0000
0000
,  // measure 35
3000
0002
0000
0000
,  // measure 36
0003
0002
0000
0000
,  // measure 37
0003
1001
0000
0100
,  // measure 38
0100
0100
0000
0010
,  // measure 39
0010
0010
0000
0000
,  // measure 40
0000
1001
0000
0000
,  // measure 41
0000
1000
1000
1000
,  // measure 42
0000
0001
0001
0001
,  // measure 43
0000
0010
0010
0010
,  // measure 44
0000
0100
0100
0100
,  // measure 45
0000
1000
1000
1000
,  // measure 46
0000
0001
0001
0001
,  // measure 47
0000
0010
0010
0010
,  // measure 48
0000
0100
0100
0100
,  // measure 49
0000
1000
0000
0001
,  // measure 50
0000
1000
0000
0001
,  // measure 51
0000
0010
0000
0100
,  // measure 52
0000
0010
0000
0100
,  // measure 53
0000
0010
0000
1000
,  // measure 54
0000
0100
0000
0001
,  // measure 55
0000
0010
0000
0001
,  // measure 56
0000
0100
0000
1000
,  // measure 57
1000
1000
0000
0000
,  // measure 58
0001
0001
0001
0000
,  // measure 59
0100
0100
0100
0000
,  // measure 60
0010
0010
0010
0010
,  // measure 61
0010
0010
0000
0000
,  // measure 62
1000
1000
0000
0000
,  // measure 63
0001
0001
0000
0000
,  // measure 64
0100
0100
0100
0100
,  // measure 65
0000
0100
0000
0000
,  // measure 66
0010
0010
0000
0000
,  // measure 67
1000
1000
0000
0001
,  // measure 68
0001
0001
0000
0000
,  // measure 69
0000
1000
0000
0100
,  // measure 70
0000
0001
0000
0010
,  // measure 71
0000
1000
1000
1000
,  // measure 72
1000
0001
0000
0001
;
