#TITLE:Weather News ~晴れたらいいな~;
#SUBTITLE:;
#ARTIST:Gavin feat. Aya;
#TITLETRANSLIT:Weather News ~HARETARA II NA~ ;
#SUBTITLETRANSLIT:;
#ARTISTTRANSLIT:;
#GENRE:;
#CREDIT:Chewi☆;
#MENUCOLOR:#FFFF00;
#METERTYPE:DDR X;
#BANNER:Weather News ~HARETARA II NA~.png;
#BACKGROUND:Weather News ~HARETARA II NA~-bg.png;
#LYRICSPATH:;
#CDTITLE:;
#MUSIC:Weather News ~HARETARA II NA~.mp3;
#OFFSET:-1.594;
#SAMPLESTART:42.968;
#SAMPLELENGTH:15.000;
#SELECTABLE:YES;
#LISTSORT:;
#DISPLAYBPM:145.000;
#BPMS:0.000=145.000,92.000=290.000,100.000=72.500,102.000=145.000;
#STOPS:;
#BGCHANGES:;
#ATTACKS:;

//---------------dance-single - Chewi----------------
#NOTES:
     dance-single:
     Chewi:
     Beginner:
     2:
     0.085,0.150,0.036,0.000,0.000:
0000
0000
0000
0000
,
0000
0000
0000
0000
,
0000
0000
0000
0000
,
0000
0000
0000
0000
,
0010
0000
0000
0000
,
0100
0000
0000
0000
,
0010
0000
0000
0000
,
0100
0000
0000
0000
,
1000
0000
0000
0000
,
0001
0000
0000
0000
,
0001
0000
0000
0000
,
1000
0000
0000
0000
,
1000
0000
0000
0000
,
0100
0000
0000
0000
,
1000
0000
0000
0000
,
0010
0000
0000
0000
,
0110
0000
0000
0000
,
1000
0000
0000
0000
,
1001
0000
0000
0000
,
0001
0000
0000
0000
,
0001
0000
0000
0000
,
1000
0000
0000
0000
,
0001
0000
0000
0000
,
0110
0000
0000
0000
,
0000
0000
0000
0000
,
0010
0000
0100
0000
,
0000
0000
0001
0000
,
0000
0000
0010
0000
,
0000
0000
1000
0000
,
0000
0000
0001
0000
,
0000
0000
1000
0000
,
0000
0000
0001
0000
,
0000
0000
0010
0000
,
0000
0000
1000
0000
,
0000
0000
0001
0000
,
0000
0000
0010
0000
,
0000
0000
0100
0000
,
0000
0000
0010
0000
,
0000
0000
0001
0000
,
0000
0000
1000
0000
,
0000
0000
0010
0000
,
0000
0000
0100
0000
,
0000
0000
0010
0000
,
0000
0000
0010
0000
,
0000
0000
0100
0000
,
0000
0000
1000
0000
,
0000
0000
0100
0000
,
0000
0000
0001
0000
,
0000
0000
0100
0000
,
0000
0000
0100
0000
;

//---------------dance-single - Chewi----------------
#NOTES:
     dance-single:
     Chewi:
     Easy:
     3:
     0.251,0.300,0.024,0.121,0.000:
0000
0000
0000
0000
,
0000
0000
0000
0000
,
0000
0000
0000
0000
,
0000
0000
0000
0000
,
0010
0010
0010
0010
,
0100
0100
0100
0100
,
0010
0010
0010
0010
,
0100
0100
0100
0100
,
1000
0100
1000
0100
,
0001
0100
0001
0100
,
0001
0010
0001
0010
,
1000
0010
1000
0010
,
1000
0001
1000
0001
,
0100
0001
0100
0001
,
1000
0001
1000
0001
,
0010
1000
0010
1000
,
0110
0000
0000
0000
,
1000
0000
0000
0000
,
1001
0000
0000
0000
,
0001
0000
0000
0000
,
0001
0010
0100
0000
,
1000
0100
0010
0000
,
0001
0001
1000
1000
,
0020
0000
0000
0000
,
0000
0000
0000
0000
,
0130
0000
0100
1000
,
0010
0000
0002
0000
,
1003
0000
0010
0001
,
0100
0000
2000
0000
,
3010
0000
0001
0010
,
0100
0000
2000
0000
,
3100
0000
0001
0100
,
1000
0000
0020
0000
,
1030
0000
1000
1000
,
1000
1000
0001
0001
,
0001
0001
0010
0010
,
0010
0010
0100
0100
,
0100
0100
0010
0010
,
0010
0010
0001
0001
,
0001
0001
1000
1000
,
1000
1000
0010
0010
,
0010
0010
0200
0000
,
0001
0000
0010
0000
,
0301
0000
0020
0000
,
1000
0000
0100
0000
,
1030
0000
2000
0000
,
0001
0000
0100
0000
,
3001
0000
0002
0000
,
1000
0000
0100
0000
,
1003
2000
3000
0000
;

//---------------dance-single - Chewi----------------
#NOTES:
     dance-single:
     Chewi:
     Medium:
     6:
     0.337,0.419,0.230,0.145,0.000:
0000
0000
0000
0000
,
0000
0000
0000
0000
,
0000
0000
0000
0000
,
0000
0000
0000
0000
,
1000
1000
0001
0100
,
0010
0010
0100
0010
,
1000
1000
0100
1000
,
0001
0001
0010
0001
,
0110
0010
0010
0010
,
0001
0001
0001
0001
,
0100
0100
0100
0100
,
1000
1000
1000
1000
,
1001
0001
0001
0001
,
0010
0010
0010
0010
,
0100
0100
0100
0100
,
0001
0001
0001
0001
,
1100
0000
0000
0000
0000
0000
0000
0100
,
0100
0000
0000
0000
,
0011
0000
0000
0000
0000
0000
0000
0010
,
0010
0000
0000
0000
,
1001
0000
0000
0001
1000
0000
0000
0000
,
1001
0000
0000
1000
0001
0000
0000
0000
,
2000
3020
0130
0002
,
2003
0000
0000
0000
,
0000
0000
0000
0000
,
3001
0000
0001
0010
,
0100
1100
1000
0100
,
0010
0011
1000
0100
,
0001
0100
1000
0010
,
0001
0010
0001
0010
,
0100
1100
1000
0010
,
0100
0101
2000
3001
,
0002
1003
0110
1001
,
0110
1001
0001
0100
,
0010
1010
1000
0100
,
0010
0011
1000
0100
,
0001
0010
0001
0100
,
1000
0010
0100
0010
,
1000
0001
0010
0100
,
1000
0001
2000
3100
,
0002
0013
0100
0110
,
1001
0000
0110
0000
0001
0100
1000
0000
,
0100
0001
0010
1000
,
0100
0000
0001
0000
0001
0100
1000
0000
,
0100
0001
0010
1000
,
0100
0000
0001
0000
0010
0100
0010
0000
,
0100
0000
0000
0000
0100
0010
0100
0000
,
0010
0000
1000
0001
,
0010
0100
0020
0032
,
0203
0320
0030
0000
;

//---------------dance-single - Chewi----------------
#NOTES:
     dance-single:
     Chewi:
     Hard:
     10:
     0.479,0.509,0.085,0.182,0.000:
0000
0000
0000
0000
,
0000
0000
0000
0000
,
0000
0000
0000
0000
,
0000
0000
0000
0000
,
0001
0010
0001
0010
,
0100
1000
0100
1000
,
0001
1000
0001
1000
,
0010
0100
0010
0100
,
0010
1000
0010
1000
,
0010
0000
1000
0000
0010
0000
1000
0100
,
0001
0010
0001
0010
,
0001
0010
0001
0010
,
0001
0000
1000
0000
0100
0000
1000
0001
,
0100
0000
0100
0000
0001
0000
1000
0001
,
0010
0100
0001
0010
,
0100
1000
0010
0000
0001
0100
1000
0000
,
2002
0000
0000
0000
0000
0000
3003
0001
,
0200
0000
0000
0300
,
0220
0000
0000
0000
0000
0000
0330
0010
,
2000
0000
0000
3000
,
1100
0000
0000
0100
2000
0000
3000
0000
,
0011
0000
0000
0010
0002
0000
0003
0000
,
0001
0010
0100
1000
0001
0010
0100
1000
,
0002
0000
0000
0000
,
2003
0000
0000
0000
,
3000
0010
0100
0000
0100
0010
1000
0010
,
0100
0010
1000
0010
0100
0001
0010
0001
,
0100
0001
0010
0001
0100
1000
0010
0001
,
0010
1000
0100
0001
0010
1000
0010
0001
,
0010
1000
0010
0001
0010
0001
0100
0001
,
0010
0001
0100
0001
0010
1000
0100
1000
,
0010
1000
0100
1000
0010
0100
0010
0100
,
1000
0001
1000
0001
1000
0100
0010
0001
,
1000
0100
0010
0001
1000
0100
0001
0100
,
1000
0100
0001
0100
1000
0010
0001
0010
,
1000
0010
0001
0010
1000
0100
1000
0010
,
1000
0100
1000
0010
0001
0100
0001
0010
,
0001
0100
0001
0010
1000
0010
0001
0010
,
1000
0010
0001
0010
1000
0100
0001
0100
,
1000
0100
0001
0100
1000
0001
0100
0010
,
0100
0010
0100
1000
0100
0010
0100
0001
,
0010
0100
0010
0001
0001
0010
0100
1000
,
0001
0010
0100
1000
0001
0100
0010
1000
,
0001
0100
0010
1000
0001
0010
0100
1000
,
0001
0010
0100
1000
0001
0010
1000
0010
,
0001
0010
1000
0010
2002
0000
0000
0000
,
0000
0000
3003
0110
0220
0000
0000
0000
,
0000
0000
0330
0000
1000
0010
0100
0001
,
1000
0100
0001
0100
1000
0001
0100
0010
,
0100
0001
0020
0000
0030
0000
0000
0000
;

//---------------dance-double - Chewi----------------
#NOTES:
     dance-double:
     Chewi:
     Easy:
     3:
     0.225,0.270,0.048,0.073,0.000: // measure 1
00000000
00000000
00000000
00000000
,  // measure 2
00000000
00000000
00000000
00000000
,  // measure 3
00000000
00000000
00000000
00000000
,  // measure 4
00000000
00000000
00000000
00000000
,  // measure 5
00100000
01000000
01000000
01000000
,  // measure 6
00100000
10000000
10000000
10000000
,  // measure 7
00010000
00100000
00100000
00100000
,  // measure 8
00001000
00010000
00010000
00010000
,  // measure 9
00010000
00001000
00000010
00001000
,  // measure 10
00000010
00000100
00000010
00000100
,  // measure 11
00000010
00001000
00010000
00001000
,  // measure 12
00010000
01000000
00010000
01000000
,  // measure 13
00200000
00000000
20300000
00000000
,  // measure 14
30020000
00000000
02030000
00000000
,  // measure 15
03010000
00100000
00001000
00000000
,  // measure 16
00010000
00001000
00010000
00000000
,  // measure 17
00011000
00000000
00000000
00000000
,  // measure 18
00001000
00000000
00000000
00000000
,  // measure 19
00000110
00000000
00000000
00000000
,  // measure 20
00000001
00000000
00000000
00000000
,  // measure 21
00000001
00000000
00000010
00000000
,  // measure 22
00000100
00000000
00001000
00000000
,  // measure 23
00000100
00000000
00010000
00000000
,  // measure 24
00002000
00000000
00000000
00000000
,  // measure 25
00000000
00000000
00000000
00000000
,  // measure 26
00013000
00000000
00010000
01000000
,  // measure 27
00010000
00000000
00100000
00000000
,  // measure 28
01000000
00000000
10000000
00100000
,  // measure 29
01000000
00000000
00010000
00000000
,  // measure 30
00001000
00000000
00000100
00001000
,  // measure 31
00000010
00000000
00000001
00000000
,  // measure 32
00000100
00000000
00001000
00000100
,  // measure 33
00000010
00000000
00000100
00000000
,  // measure 34
00010000
00000000
00001000
00010000
,  // measure 35
01000000
00000000
10000000
00100000
,  // measure 36
01000000
00000000
10000000
01000000
,  // measure 37
00100000
00000000
00010000
00001000
,  // measure 38
00000010
00000000
00000001
00000010
,  // measure 39
00001000
00000000
00000100
00000010
,  // measure 40
00000001
00000000
00001000
00001000
,  // measure 41
00000001
00000000
00000001
00000001
,  // measure 42
00001000
00000000
00000010
00001000
,  // measure 43
00010000
00000000
00010000
00001000
,  // measure 44
00010000
00000000
00010000
10000000
,  // measure 45
01000000
00000000
00100000
01000000
,  // measure 46
00100000
00000000
10010000
00000000
,  // measure 47
00000000
00000000
01100000
00000000
,  // measure 48
00000000
00000000
01000000
00010000
,  // measure 49
00001000
00000010
00001000
00010000
,  // measure 50
01000000
00020000
00030000
00000000
;

//---------------dance-double - Chewi----------------
#NOTES:
     dance-double:
     Chewi:
     Medium:
     6:
     0.309,0.329,0.073,0.036,0.000:
00000000
00000000
00000000
00000000
,
00000000
00000000
00000000
00000000
,
00000000
00000000
00000000
00000000
,
00000000
00000000
00000000
00000000
,
00010000
01000000
10000000
01000000
,
00010000
00100000
00001000
00010000
,
00001000
00000100
00000001
00000100
,
00001000
00000010
00000100
00000001
,
00001001
00001000
00001000
00001000
,
00000100
00010000
00001000
00100000
,
00110000
00100000
00100000
00100000
,
01000000
10000000
00100000
10000000
,
10010000
00100000
01000000
00100000
,
00010000
00001000
00000100
00000001
,
00000100
00001000
00000010
00000100
,
00001000
00000100
00010000
00001000
,
00011000
00000000
00000000
00000000
00000000
00000000
00000000
00010000
,
00010000
00000000
00000000
00000000
,
00110000
00000000
00000000
00000000
00000000
00000000
00000000
10000000
,
10000000
00000000
00000000
00000000
,
10100000
00000000
00000000
00010000
00010000
00000000
00000000
00000000
,
00010000
00000000
00000000
00001000
00010000
00000000
00000000
00000000
,
00001000
00000010
00000100
00000001
,
00002000
00000000
00000000
00000000
,
00003002
00000000
00000000
00000000
,
00000013
00000000
00000001
00000010
,
00000100
00001000
00000010
00000000
00000100
00000000
00000010
00000000
,
00001000
00000100
00001000
00010000
,
00001000
00010000
01000000
00000000
00100000
00000000
10000000
00000000
,
00010000
00100000
01000000
00100000
,
00010000
00100000
01000000
00000000
10000000
00000000
00100000
00000000
,
01000000
00010000
00100000
01000000
,
00100000
00010000
00001000
00000000
00000100
00000000
00001000
00000000
,
00000010
00000001
00000100
00001000
,
00000010
00000100
00000001
00000000
00001000
00000000
00000010
00000000
,
00001000
00010000
00001000
00010000
,
01000000
00100000
10000000
00000000
00010000
00000000
00100000
00000000
,
01000000
00100000
00010000
10000000
,
01000000
00010000
00100000
00000000
00001000
00000000
00010000
00000000
,
00000100
00001000
00000010
00000000
00000100
00000000
00000001
00000000
,
00000100
00001000
00000010
00000000
00000100
00000000
00000100
00000000
,
00000010
00001000
00000001
00000000
00000001
00000000
00000010
00000000
,
00000100
00001000
00000010
00001000
,
00010000
01000000
00100000
00010000
,
00001000
00000010
00001000
00000100
,
00000010
00001000
00010000
00000000
,
00000000
00000000
00000000
00001000
00001000
00000000
00000000
00000000
,
00000000
00000000
00010000
00001000
,
00010000
01000000
00100000
00000000
10000000
00000000
00010000
00000000
,
00100000
00100000
00200000
00000000
00300000
00000000
00000000
00000000
;

//---------------dance-double - Chewi----------------
#NOTES:
     dance-double:
     Chewi:
     Hard:
     10:
     0.453,0.479,0.061,0.073,0.000:
00000000
00000000
00000000
00000000
,
00000000
00000000
00000000
00000000
,
00000000
00000000
00000000
00000000
,
00000000
00000000
00000000
00000000
,
10000000
01000000
00010000
01000000
,
10000000
00100000
00010000
00100000
,
01000000
00100000
00010000
00001000
,
00000100
00001000
00000010
00000100
,
00000101
00000000
00000100
00000000
00000100
00000000
00000100
00000100
,
00000010
00000000
00001000
00000000
00000001
00000000
00001000
00000100
,
00000010
00000001
00000100
00000010
,
00001000
00000000
00000100
00000000
00010000
00000000
00001000
00010000
,
01000000
00000000
00100000
00000000
10000000
00000000
00010000
10000000
,
00100000
10000000
00010000
00100000
,
01000000
00100000
01000000
00000000
00100000
01000000
00100000
00000000
,
00010000
10010000
10000000
10010000
,
00022000
00000000
00000000
00000000
00000000
00000000
00033000
00010000
,
00002000
00000000
00000000
00000000
,
00003020
00000000
00000000
00000000
00000000
00000000
00000000
00001030
,
00000002
00000000
00000000
00000000
,
00001003
00000000
00000000
00000001
00000010
00000100
00000000
00000000
,
00001000
00000000
00000000
00000010
00000100
00001000
00000000
00000000
,
00000100
00010000
00001000
00100000
00001000
00010000
00001000
00010000
,
01000000
00000000
00100000
00000000
,
10000000
00000000
00010000
00000000
,
10010000
00000000
00000000
00000000
10000000
01000000
00100000
00010000
,
10000000
01000000
10000000
00000000
00010000
00100000
01000000
10000000
,
00010000
00100000
00010000
00000000
00100000
01000000
00100000
00010000
,
00001000
00000100
00001000
00000000
00000100
00001000
00000010
00001000
,
00000100
00000100
00001000
00000000
00000010
00000100
00000001
00000010
,
00000100
00001000
00000010
00000000
00001000
00000100
00010000
00001000
,
00100000
00010000
00100000
00000000
00001000
00010000
01000000
10000000
,
01000000
00100000
00010000
00000000
01000000
00100000
01000000
00100000
,
00010000
10000000
00010000
10000000
10000000
00100000
01000000
00010000
,
10000000
00100000
01000000
00000000
00010000
00100000
01000000
00100000
,
00010000
00001000
00000100
00000000
00001000
00000100
00010000
00001000
,
00000010
00001000
00000010
00000000
00001000
00000010
00000001
00000100
,
00001000
00000100
00000001
00000000
00000010
00000100
00001000
00000010
,
00000100
00000001
00000100
00000000
00000010
00001000
00000001
00001000
,
00000100
00001000
00000010
00000000
00000100
00010000
00001000
00100000
,
00010000
00100000
01000000
00000000
00100000
00010000
01000000
00100000
,
10000000
00010000
10000000
00000000
01000000
00100000
00010000
10000000
,
01000000
00100000
01000000
00000000
00010000
01000000
00100000
10000000
,
00010000
01000000
00100000
00000000
10000000
00010000
00100000
00001000
,
00010000
00000100
00010000
00000000
00010000
00001000
00000010
00001000
,
00000100
00000001
00000010
00000000
00000100
00000010
00000001
00000100
,
00000010
00000100
00000001
00000000
00000001
00000100
00000010
00001000
,
00000100
00000010
00000001
00000000
00001000
00001000
00000001
00000001
,
00001000
00000100
00010000
00000000
00001000
00001000
00010000
00010000
,
00001000
00010000
01000000
00200000
00300000
00000000
00000000
00000000
;
