#TITLE:We've Got It Goin' On;
#SUBTITLE:;
#ARTIST:Backstreet Boys;
#TITLETRANSLIT:;
#SUBTITLETRANSLIT:;
#ARTISTTRANSLIT:;
#GENRE:Pop;
#CREDIT:chewi;
#BANNER:We've Got It Goin' On.png;
#BACKGROUND:We've Got It Goin' On-bg.png;
#LYRICSPATH:;
#CDTITLE:cdtitle.png;
#MUSIC:We've Got It Goin' On.ogg;
#OFFSET:-0.007000;
#SAMPLESTART:42.488998;
#SAMPLELENGTH:15.000000;
#SELECTABLE:YES;
#BPMS:0.000000=113.000000
;
#STOPS:
;
#BGCHANGES:;
#KEYSOUNDS:;
#ATTACKS:;

//---------------dance-single - ----------------
#NOTES:
     dance-single:
     :
     Medium:
     6:
     0.230031,0.256069,0.073192,0.000000,0.000000,198.000000,189.000000,9.000000,0.000000,0.000000,0.000000,0.230031,0.256069,0.073192,0.000000,0.000000,198.000000,189.000000,9.000000,0.000000,0.000000,0.000000:
// measure 0
0000
0000
0000
0000
,  // measure 1
0000
0000
0000
0000
,  // measure 2
0000
0000
0000
0000
,  // measure 3
0000
0000
0000
0000
,  // measure 4
1000
0010
0100
0100
,  // measure 5
0001
0010
0100
0100
,  // measure 6
1000
0000
0010
0000
,  // measure 7
0001
0000
0100
0000
,  // measure 8
1000
1000
0100
0100
,  // measure 9
1000
0000
0100
0000
1000
0100
1000
0000
,  // measure 10
0001
0001
0100
0100
,  // measure 11
0001
0000
0100
0000
0001
0100
0001
0000
,  // measure 12
0100
0100
0010
0010
,  // measure 13
1000
0000
1000
0000
1000
0001
1000
0000
,  // measure 14
0001
0001
0010
0010
,  // measure 15
0100
0000
0100
0000
0100
0010
0100
0000
,  // measure 16
1000
0000
0100
0000
,  // measure 17
1000
0001
0100
0000
,  // measure 18
0001
0000
0100
0000
,  // measure 19
0001
1000
0100
0000
,  // measure 20
0110
0000
0110
0000
,  // measure 21
0010
0100
1000
0000
,  // measure 22
1000
0010
0100
0001
,  // measure 23
0001
0100
0010
1000
,  // measure 24
1001
0000
1001
0000
,  // measure 25
0010
0000
0010
0000
,  // measure 26
0001
0010
0100
1000
,  // measure 27
1000
0100
0010
0001
,  // measure 28
1000
0000
0100
0000
1000
0100
1000
0000
,  // measure 29
0001
0010
0100
1000
,  // measure 30
0001
0000
0010
0000
0001
0010
0001
0000
,  // measure 31
0010
0000
0001
0000
0010
0001
0010
0000
,  // measure 32
0001
0000
1000
0000
0001
1000
0001
0000
,  // measure 33
1000
0000
0001
0000
1000
0001
1000
0000
,  // measure 34
0010
0100
0001
1000
,  // measure 35
0100
0010
0001
1000
,  // measure 36
0001
0001
0010
1000
,  // measure 37
0100
0100
0001
0010
,  // measure 38
1000
1000
0100
0001
,  // measure 39
0100
1000
0100
0001
,  // measure 40
0100
1000
0010
0010
,  // measure 41
0001
0100
1000
1000
,  // measure 42
0010
0001
0100
0100
,  // measure 43
1000
0100
0001
0100
,  // measure 44
0001
0000
0010
0000
,  // measure 45
0001
1000
0010
0000
,  // measure 46
1000
0000
0010
0000
,  // measure 47
1000
0001
0010
0000
,  // measure 48
0110
0000
0110
0000
,  // measure 49
0100
0010
0001
0000
,  // measure 50
0001
0100
0010
1000
,  // measure 51
1000
0010
0100
0001
,  // measure 52
1001
0000
1001
0000
,  // measure 53
0100
0000
0100
0000
,  // measure 54
1000
0100
0010
0001
,  // measure 55
0001
0010
0100
1000
,  // measure 56
0001
0000
0000
0000
,  // measure 57
0000
1001
0000
0000
;

//---------------dance-single - ----------------
#NOTES:
     dance-single:
     :
     Hard:
     9:
     0.367120,0.349185,0.073192,0.000000,0.069125,316.000000,307.000000,9.000000,0.000000,0.000000,0.000000,0.367120,0.349185,0.073192,0.000000,0.069125,316.000000,307.000000,9.000000,0.000000,0.000000,0.000000:
// measure 0
0000
0000
0000
0000
,  // measure 1
0000
0000
0000
0000
,  // measure 2
0000
0000
0000
0000
,  // measure 3
0000
0000
0000
0000
,  // measure 4
0000
1000
0010
0100
0010
0010
0100
0100
,  // measure 5
0000
0100
0001
0010
0001
0001
1000
1000
,  // measure 6
1000
0000
0100
1000
0010
0100
0000
0001
,  // measure 7
0100
0000
0000
0100
0010
0000
0000
0010
1000
0000
0000
1000
0001
0000
0000
0000
,  // measure 8
1000
0000
0100
0000
1000
0001
0100
0000
,  // measure 9
0001
0000
0010
0000
0100
0100
0100
0000
,  // measure 10
1000
0000
0001
0000
0010
0100
1000
0000
,  // measure 11
0010
0000
0100
0000
0001
0001
0001
0000
,  // measure 12
0100
0000
0010
0000
1000
0001
0100
0000
,  // measure 13
0010
0000
0100
0000
1000
1000
1000
0000
,  // measure 14
1000
0000
0100
0000
0010
0001
1000
0000
,  // measure 15
0010
1000
0001
0000
0100
0100
0100
0000
,  // measure 16
1001
0000
1000
0000
1000
0010
1000
0000
,  // measure 17
1000
0010
0100
0010
1000
0010
0100
0000
,  // measure 18
1001
0000
0001
0000
0001
0010
0001
0000
,  // measure 19
0001
0010
0100
0010
0001
0000
0000
0000
,  // measure 20
0000
0010
0100
1000
0100
0100
1000
1000
,  // measure 21
0000
1000
0100
0010
0001
0001
0010
0010
,  // measure 22
0001
0000
0000
0000
1000
0000
0000
0000
0010
0000
0000
0010
0000
0000
0010
0000
,  // measure 23
0000
0010
0000
0000
0010
0000
0000
0000
0100
0000
0100
0000
0100
0000
0000
0000
,  // measure 24
0000
0010
1000
0001
0010
0010
0100
0100
,  // measure 25
0000
1000
0001
0100
0010
0010
0100
0100
,  // measure 26
0001
0000
0000
0000
1000
0000
0000
0000
0100
0000
0000
0100
0000
0000
0100
0000
,  // measure 27
0000
0100
0000
0000
0100
0000
0000
0000
1000
0000
1000
0000
1000
0000
0000
0000
,  // measure 28
0000
0100
0010
0001
0010
0010
0001
0001
,  // measure 29
0000
0001
0010
0100
1000
1000
0100
0100
,  // measure 30
1000
0000
0000
0000
0001
0000
0000
0000
0100
0000
0000
0100
0000
0000
0100
0000
,  // measure 31
0000
0100
0000
0000
0100
0000
0000
0000
0010
0000
0010
0000
0010
0000
0000
0000
,  // measure 32
0000
0100
0001
1000
0100
0100
0010
0010
,  // measure 33
0000
0001
1000
0010
0100
0100
0010
0010
,  // measure 34
1000
0000
0000
0000
0001
0000
0000
0000
0010
0000
0000
0010
0000
0000
0010
0000
,  // measure 35
0100
0000
0000
0100
1000
0000
0000
1000
0001
0000
0000
0001
0100
0000
0000
0000
,  // measure 36
0001
0001
0001
0001
1000
0000
1100
0000
,  // measure 37
1000
1000
1000
1000
0001
0000
0101
0000
,  // measure 38
0010
1000
0010
0000
0100
0001
0100
0000
,  // measure 39
0001
1000
0001
0000
1000
0001
1000
0000
,  // measure 40
0100
0100
0100
0100
0010
0000
0011
0000
,  // measure 41
0100
0100
0100
0100
0010
0000
1010
0000
,  // measure 42
0010
1000
0010
0000
0100
0001
0100
0000
,  // measure 43
0001
1000
0001
0000
1000
0001
1000
0000
,  // measure 44
1001
0000
0001
0000
0001
0100
0001
0000
,  // measure 45
0001
0100
0010
0100
0001
0100
0010
0000
,  // measure 46
1001
0000
1000
0000
1000
0100
1000
0000
,  // measure 47
1000
0100
0010
0100
1000
0000
0000
0000
,  // measure 48
0000
0001
1000
0010
1000
1000
0010
0010
,  // measure 49
0000
0010
1000
0001
0100
0100
0001
0001
,  // measure 50
0100
0000
0000
0000
0010
0000
0000
0000
1000
0000
0000
1000
0000
0000
1000
0000
,  // measure 51
0000
1000
0000
0000
1000
0000
0000
0000
0001
0000
0001
0000
0001
0000
0000
0000
,  // measure 52
0000
0001
0010
0100
1000
1000
0001
0001
,  // measure 53
0000
0010
0100
1000
0001
0001
1000
1000
,  // measure 54
0100
0000
0000
0000
0010
0000
0000
0000
0001
0000
0000
0001
0000
0000
0001
0000
,  // measure 55
0000
0001
0000
0000
0001
0000
0000
0000
1000
0000
1000
0000
1000
0000
0000
0000
,  // measure 56
0000
0000
0000
0000
,  // measure 57
0000
1001
0000
0000
;

//---------------dance-single - ----------------
#NOTES:
     dance-single:
     :
     Easy:
     3:
     0.152192,0.209511,0.008132,0.000000,0.000000,131.000000,130.000000,1.000000,0.000000,0.000000,0.000000,0.152192,0.209511,0.008132,0.000000,0.000000,131.000000,130.000000,1.000000,0.000000,0.000000,0.000000:
// measure 0
0000
0000
0000
0000
,  // measure 1
0000
0000
0000
0000
,  // measure 2
0000
0000
0000
0000
,  // measure 3
0000
0000
0000
0000
,  // measure 4
1000
0000
0100
0000
,  // measure 5
0001
0000
0100
0000
,  // measure 6
1000
0000
0100
0000
,  // measure 7
0001
0000
0100
0000
,  // measure 8
0100
0000
0000
0000
,  // measure 9
0100
0010
0100
0000
,  // measure 10
0010
0000
0010
0000
,  // measure 11
1000
0000
1000
0000
,  // measure 12
0001
0000
0000
0000
,  // measure 13
1000
0001
1000
0000
,  // measure 14
0001
0000
0001
0000
,  // measure 15
0010
0000
0010
0000
,  // measure 16
0100
0000
0010
0000
,  // measure 17
0100
0010
0100
0000
,  // measure 18
1000
0000
0001
0000
,  // measure 19
1000
0001
1000
0000
,  // measure 20
0000
0001
0000
0100
,  // measure 21
0000
0001
0000
0100
,  // measure 22
0100
0100
0100
0100
,  // measure 23
0010
0010
0010
0010
,  // measure 24
0000
1000
0000
0010
,  // measure 25
0000
1000
0000
0010
,  // measure 26
1000
1000
1000
1000
,  // measure 27
0001
0001
0001
0001
,  // measure 28
1000
0000
0100
0000
,  // measure 29
0001
0000
0100
0000
,  // measure 30
1000
0000
0100
0000
,  // measure 31
0001
0000
0100
0000
,  // measure 32
1000
0000
0010
0000
,  // measure 33
0001
0000
0010
0000
,  // measure 34
1000
0000
0010
0000
,  // measure 35
0001
0000
0010
0000
,  // measure 36
0010
0010
0010
0000
,  // measure 37
0010
0000
0100
0000
,  // measure 38
1000
1000
1000
0000
,  // measure 39
0001
0000
1000
0000
,  // measure 40
0010
0010
0010
0000
,  // measure 41
0100
0000
0001
0000
,  // measure 42
0100
0100
0100
0000
,  // measure 43
0010
0000
1000
0000
,  // measure 44
0010
0000
0100
0000
,  // measure 45
0010
0100
0010
0000
,  // measure 46
1000
0000
0001
0000
,  // measure 47
1000
0001
1000
0000
,  // measure 48
0000
1000
0000
0010
,  // measure 49
0000
1000
0000
0010
,  // measure 50
0010
0010
0010
0010
,  // measure 51
0100
0100
0100
0100
,  // measure 52
0000
0001
0000
0100
,  // measure 53
0000
0001
0000
0100
,  // measure 54
0001
0001
0001
0001
,  // measure 55
1000
1000
1000
1000
,  // measure 56
0001
0000
0000
0000
,  // measure 57
0000
1001
0000
0000
;

//---------------dance-single - ----------------
#NOTES:
     dance-single:
     :
     Beginner:
     1:
     0.074353,0.093116,0.040662,0.000000,0.000000,64.000000,59.000000,5.000000,0.000000,0.000000,0.000000,0.074353,0.093116,0.040662,0.000000,0.000000,64.000000,59.000000,5.000000,0.000000,0.000000,0.000000:
// measure 0
0000
0000
0000
0000
,  // measure 1
0000
0000
0000
0000
,  // measure 2
0000
0000
0000
0000
,  // measure 3
0000
0000
0000
0000
,  // measure 4
1000
0000
0000
0000
,  // measure 5
1000
0000
0000
0000
,  // measure 6
0001
0000
0000
0000
,  // measure 7
0001
0000
0000
0000
,  // measure 8
1001
0000
0000
0000
,  // measure 9
0100
0000
0000
0000
,  // measure 10
0010
0000
0000
0000
,  // measure 11
0100
0000
0000
0000
,  // measure 12
1001
0000
0000
0000
,  // measure 13
0010
0000
0000
0000
,  // measure 14
0100
0000
0000
0000
,  // measure 15
0010
0000
0000
0000
,  // measure 16
0001
0000
0000
0000
,  // measure 17
0001
0000
0000
0000
,  // measure 18
1000
0000
0000
0000
,  // measure 19
1000
0000
0000
0000
,  // measure 20
0010
0000
0000
0000
,  // measure 21
0010
0000
0000
0000
,  // measure 22
0100
0000
0100
0000
,  // measure 23
0100
0000
0000
0000
,  // measure 24
0100
0000
0000
0000
,  // measure 25
0100
0000
0000
0000
,  // measure 26
0010
0000
0010
0000
,  // measure 27
0010
0000
0000
0000
,  // measure 28
1000
0000
0000
0000
,  // measure 29
1000
0000
0000
0000
,  // measure 30
0001
0000
0000
0000
,  // measure 31
0001
0000
0000
0000
,  // measure 32
0010
0000
0000
0000
,  // measure 33
0010
0000
0000
0000
,  // measure 34
0100
0000
0000
0000
,  // measure 35
0100
0000
0000
0000
,  // measure 36
1000
0000
0000
0000
,  // measure 37
1000
0000
1000
0000
,  // measure 38
1000
0000
0000
0000
,  // measure 39
0001
0000
0001
0000
,  // measure 40
0001
0000
0000
0000
,  // measure 41
0100
0000
0100
0000
,  // measure 42
0100
0000
0000
0000
,  // measure 43
0010
0000
0000
0000
,  // measure 44
0010
0000
0000
0000
,  // measure 45
0100
0000
0000
0000
,  // measure 46
0010
0000
0000
0000
,  // measure 47
0100
0000
0000
0000
,  // measure 48
0110
0000
0000
0000
,  // measure 49
1000
0000
0000
0000
,  // measure 50
0001
0000
0000
0000
,  // measure 51
1000
0000
0000
0000
,  // measure 52
0110
0000
0000
0000
,  // measure 53
0001
0000
0000
0000
,  // measure 54
1000
0000
0000
0000
,  // measure 55
0001
0000
0000
0000
,  // measure 56
1000
0000
0000
0000
,  // measure 57
0000
1001
0000
0000
;
