#TITLE:We Found Love;
#SUBTITLE:;
#ARTIST:Rihanna feat. Calvin Harris;
#TITLETRANSLIT:;
#SUBTITLETRANSLIT:;
#ARTISTTRANSLIT:;
#GENRE:;
#CREDIT:yamamoto_;
#MENUCOLOR:;
#METERTYPE:DDR X;
#BANNER:We Found Love.png;
#BACKGROUND:We Found Love-bg.png;
#LYRICSPATH:;
#CDTITLE:;
#MUSIC:We Found Love.mp3;
#OFFSET:-0.244;
#SAMPLESTART:67.743;
#SAMPLELENGTH:15.000;
#SELECTABLE:YES;
#LISTSORT:;
#DISPLAYBPM:128.000;
#BPMS:0.000=128.000;
#STOPS:;
#BGCHANGES:;
#ATTACKS:;

//---------------dance-single - yamamoto_----------------
#NOTES:
     dance-single:
     yamamoto_:
     Hard:
     9:
     0.288,0.307,0.039,0.079,0.000: // measure 1
0000
0000
0000
0000
,  // measure 2
0000
0000
0000
0000
,  // measure 3
0000
0000
0000
0000
,  // measure 4
0000
0000
0000
0000
,  // measure 5
0000
0000
1000
0100
0010
0000
0001
0000
,  // measure 6
1000
0000
0100
0100
0000
0000
0000
0000
,  // measure 7
0000
0000
0001
0100
0010
0000
1000
0000
,  // measure 8
0010
0000
0000
0100
0000
0000
0110
0000
,  // measure 9
0000
0000
0010
1000
0001
0000
1000
0000
,  // measure 10
0100
0000
0010
0010
0000
0000
0000
0000
,  // measure 11
0000
0000
0001
0010
0100
0000
1000
0000
,  // measure 12
0010
0000
0000
1000
0000
0000
1010
0000
,  // measure 13
1000
0100
0010
0001
,  // measure 14
1000
0100
1000
0000
0001
0000
0100
0000
,  // measure 15
0010
0100
0001
1000
,  // measure 16
0100
0010
0100
0000
1000
0000
0010
0000
,  // measure 17
1000
0100
0010
0001
,  // measure 18
1000
0100
0001
0000
0010
0000
1000
0000
,  // measure 19
0100
0010
0001
1000
,  // measure 20
0010
1000
0100
0000
1000
0000
0010
0000
,  // measure 21
0100
0000
0100
0000
0100
0000
0100
0010
,  // measure 22
0100
0000
0001
0010
0100
0000
1000
0000
,  // measure 23
0010
0000
0010
0000
0010
0000
0010
1000
,  // measure 24
0100
0000
0010
0000
0001
0010
0100
0000
,  // measure 25
1000
0000
0001
0000
1000
0000
0001
1000
,  // measure 26
0010
0000
0100
0001
0100
0000
0100
0000
,  // measure 27
0010
0000
1000
0000
0001
0000
0010
0100
,  // measure 28
1000
0000
0001
0000
0100
0010
0100
0000
,  // measure 29
0020
0000
0000
0000
,  // measure 30
2030
0000
0000
0000
,  // measure 31
3200
0000
0000
0000
,  // measure 32
0302
0000
0000
0000
,  // measure 33
0023
0000
0000
0000
,  // measure 34
2030
0000
0000
0000
,  // measure 35
3002
0000
0000
0000
,  // measure 36
0023
0000
0000
0030
,  // measure 37
0001
0000
0010
0000
0100
1000
0010
0000
,  // measure 38
1000
1000
1000
0000
0001
0001
0001
0000
,  // measure 39
1000
0000
0010
0000
0100
0001
0100
0000
,  // measure 40
0100
0100
0100
0000
0010
0010
0010
0000
,  // measure 41
1000
0000
0100
0000
0001
0100
1000
0000
,  // measure 42
0001
0000
0100
0000
0010
1000
0100
0000
,  // measure 43
1000
0000
0010
0000
0100
0001
0100
0000
,  // measure 44
0001
0000
1000
0000
0100
0010
0100
0000
,  // measure 45
1000
0100
0001
0010
,  // measure 46
1000
0100
0010
0000
0001
0000
0011
0000
,  // measure 47
0001
0010
0100
1000
,  // measure 48
0001
1000
0100
0000
1000
0001
0100
0000
,  // measure 49
0010
0100
0001
1000
,  // measure 50
0010
1000
0100
0000
1000
0000
1100
0000
,  // measure 51
1000
0100
0010
0001
,  // measure 52
0100
0001
0100
0000
0001
0100
0001
0000
,  // measure 53
0100
0000
0000
0000
;

//---------------dance-single - yamamoto_----------------
#NOTES:
     dance-single:
     yamamoto_:
     Medium:
     6:
     0.282,0.332,0.059,0.079,0.000: // measure 1
0000
0000
0000
0000
,  // measure 2
0000
0000
0000
0000
,  // measure 3
0000
0000
0000
0000
,  // measure 4
0000
0000
0000
0000
,  // measure 5
2000
0000
0000
3000
,  // measure 6
0010
0010
0010
0000
,  // measure 7
0002
0000
0000
0003
,  // measure 8
0010
0010
0010
0000
,  // measure 9
0200
0000
0000
0300
,  // measure 10
0100
0100
0100
0000
,  // measure 11
0020
0000
0000
0030
,  // measure 12
0010
0010
0010
0000
,  // measure 13
0001
1000
0001
1000
,  // measure 14
0001
1000
0010
0100
,  // measure 15
0001
0100
0001
0100
,  // measure 16
0010
1000
0100
1000
,  // measure 17
0001
1000
0100
0010
,  // measure 18
0100
1000
0010
0100
,  // measure 19
0001
0100
0010
1000
,  // measure 20
0001
1000
0100
0010
,  // measure 21
0001
1000
0100
1000
,  // measure 22
0001
1000
0100
0010
,  // measure 23
0100
1000
0010
0100
,  // measure 24
0001
0100
0010
1000
,  // measure 25
0001
1000
0100
0010
,  // measure 26
0001
0010
0100
1000
,  // measure 27
0010
1000
0100
0010
,  // measure 28
0001
1000
0010
0100
,  // measure 29
0002
1000
0010
1000
,  // measure 30
2003
0001
0010
0001
,  // measure 31
3002
0100
0010
0100
,  // measure 32
2003
0100
0010
0100
,  // measure 33
3010
0010
0010
0000
0100
0000
0010
0000
,  // measure 34
0100
0100
0100
0000
0010
0000
0100
0000
,  // measure 35
0001
1000
0001
0000
1000
0001
1000
0000
,  // measure 36
1000
1100
0001
0101
,  // measure 37
0100
0100
0100
0100
,  // measure 38
0010
1000
0100
0000
1000
0000
1100
0000
,  // measure 39
0100
0100
0100
0100
,  // measure 40
0010
0001
0010
0000
0001
0000
0101
0000
,  // measure 41
0100
0100
0100
0100
,  // measure 42
0010
0100
0001
0000
1000
0000
1100
0000
,  // measure 43
0010
0010
0010
0010
,  // measure 44
0100
1000
0010
0000
1000
0000
1100
0000
,  // measure 45
1000
0001
1000
0100
,  // measure 46
1000
0001
0100
0000
0010
0000
1000
0000
,  // measure 47
0001
1000
0100
0010
,  // measure 48
0100
1000
0010
0100
,  // measure 49
0001
1000
0010
0100
,  // measure 50
0001
1000
0100
0000
0010
0000
0001
0000
,  // measure 51
0010
0100
1000
0010
,  // measure 52
0100
0001
1000
0100
,  // measure 53
0010
0000
0000
0000
;

//---------------dance-single - yamamoto_----------------
#NOTES:
     dance-single:
     yamamoto_:
     Beginner:
     1:
     0.083,0.128,0.020,0.079,0.000: // measure 1
0000
0000
0000
0000
,  // measure 2
0000
0000
0000
0000
,  // measure 3
0000
0000
0000
0000
,  // measure 4
0000
0000
0000
0000
,  // measure 5
1000
0000
0000
0000
,  // measure 6
0001
0000
0000
0000
,  // measure 7
0100
0000
0000
0000
,  // measure 8
0010
0000
0000
0000
,  // measure 9
1000
0000
0000
0000
,  // measure 10
0100
0000
0000
0000
,  // measure 11
0001
0000
0000
0000
,  // measure 12
0010
0000
0000
0000
,  // measure 13
1000
0000
0000
0000
,  // measure 14
1000
0000
0000
0000
,  // measure 15
0100
0000
0000
0000
,  // measure 16
0100
0000
0000
0000
,  // measure 17
0001
0000
0000
0000
,  // measure 18
0001
0000
0000
0000
,  // measure 19
0100
0000
0000
0000
,  // measure 20
0100
0000
0000
0000
,  // measure 21
1001
0000
0000
0000
,  // measure 22
0001
0000
0000
0000
,  // measure 23
0100
0000
0000
0000
,  // measure 24
0100
0000
0000
0000
,  // measure 25
0010
0000
0000
0000
,  // measure 26
0010
0000
0000
0000
,  // measure 27
1000
0000
0000
0000
,  // measure 28
1000
0000
0000
0000
,  // measure 29
0200
0000
0000
0300
,  // measure 30
0020
0000
0000
0030
,  // measure 31
2000
0000
0000
3000
,  // measure 32
0002
0000
0000
0003
,  // measure 33
0020
0000
0000
0030
,  // measure 34
0200
0000
0000
0300
,  // measure 35
0020
0000
0000
0030
,  // measure 36
0002
0000
0000
0003
,  // measure 37
0100
0000
0000
0000
,  // measure 38
0100
0000
0000
0000
,  // measure 39
0001
0000
0000
0000
,  // measure 40
0001
0000
0000
0000
,  // measure 41
1000
0000
0000
0000
,  // measure 42
1000
0000
0000
0000
,  // measure 43
0100
0000
0000
0000
,  // measure 44
0100
0000
0000
0000
,  // measure 45
1000
0000
0000
0000
,  // measure 46
0010
0000
0000
0000
,  // measure 47
0001
0000
0000
0000
,  // measure 48
0010
0000
0000
0000
,  // measure 49
0100
0000
0000
0000
,  // measure 50
1000
0000
0000
0000
,  // measure 51
0100
0000
0000
0000
,  // measure 52
0001
0000
0000
0000
,  // measure 53
1001
0000
0000
0000
;

//---------------dance-single - yamamoto_----------------
#NOTES:
     dance-single:
     yamamoto_:
     Easy:
     3:
     0.162,0.205,0.020,0.079,0.000: // measure 1
0000
0000
0000
0000
,  // measure 2
0000
0000
0000
0000
,  // measure 3
0000
0000
0000
0000
,  // measure 4
0000
0000
0000
0000
,  // measure 5
1000
0000
0000
0000
,  // measure 6
0001
0000
0000
0000
,  // measure 7
0100
0000
0000
0000
,  // measure 8
0010
0000
0000
0000
,  // measure 9
1000
0000
0000
0000
,  // measure 10
0100
0000
0000
0000
,  // measure 11
0001
0000
0000
0000
,  // measure 12
0010
0000
0000
0000
,  // measure 13
1000
1000
1000
1000
,  // measure 14
1000
0000
0001
0000
,  // measure 15
0100
0100
0100
0100
,  // measure 16
0100
0000
0010
0000
,  // measure 17
0001
0001
0001
0001
,  // measure 18
0001
0000
1000
0000
,  // measure 19
0100
0100
0100
0100
,  // measure 20
0100
0000
0010
0000
,  // measure 21
1001
0000
1000
0000
,  // measure 22
0001
1000
0001
0000
,  // measure 23
0100
0000
0010
0000
,  // measure 24
0100
0010
0100
0000
,  // measure 25
0010
0000
1000
0000
,  // measure 26
0010
0010
0010
0000
,  // measure 27
1000
0000
0001
0000
,  // measure 28
1000
0001
1000
0000
,  // measure 29
0200
0000
0000
0300
,  // measure 30
0020
0000
0000
0030
,  // measure 31
2000
0000
0000
3000
,  // measure 32
0002
0000
0000
0003
,  // measure 33
0020
0000
0000
0030
,  // measure 34
0200
0000
0000
0300
,  // measure 35
0020
0000
0000
0030
,  // measure 36
0002
0000
0000
0003
,  // measure 37
0100
0100
0100
0100
,  // measure 38
0100
0000
0010
0000
,  // measure 39
0001
0001
0001
0001
,  // measure 40
0001
0000
1000
0000
,  // measure 41
1000
1000
1000
1000
,  // measure 42
1000
0000
0010
0000
,  // measure 43
0100
0100
0100
0100
,  // measure 44
0100
0000
0001
0000
,  // measure 45
1000
0000
0100
0000
,  // measure 46
0010
0001
0010
0000
,  // measure 47
0001
0000
1000
0000
,  // measure 48
0010
0100
0010
0000
,  // measure 49
0100
0000
0010
0000
,  // measure 50
1000
0100
1000
0000
,  // measure 51
0100
0000
0010
0000
,  // measure 52
0001
0010
0001
0000
,  // measure 53
1001
0000
0000
0000
;

//---------------dance-single - yamamoto_----------------
#NOTES:
     dance-single:
     yamamoto_:
     Challenge:
     13:
     0.465,0.614,0.344,0.000,0.354:
0000
0000
0000
0000
,
0000
0000
0000
0000
,
0000
0000
0000
0000
,
0000
0000
0000
0000
,
0000
0000
1000
0100
0010
0000
0001
0000
,
1000
0000
0100
0100
0000
0000
0000
0000
,
0000
0000
0001
0100
0010
0000
1000
0000
,
0010
0000
0000
0100
0000
0000
0110
0000
,
0000
0000
0010
1000
0001
0000
1000
0000
,
0100
0000
0010
0010
0000
0000
0000
0000
,
0000
0000
0001
0010
0100
0000
1000
0000
,
0010
0000
0000
1000
0000
0000
1010
0000
,
1000
0000
0000
0010
0000
0000
1000
0000
0000
0100
0000
0000
1000
0000
0010
0000
,
0100
0000
0000
0001
0000
0000
0010
0000
0000
0001
0000
0000
0100
0000
0010
0000
,
1000
0000
0000
0001
0000
0000
1000
0000
0000
0100
0000
0000
1000
0000
0100
0000
,
0010
0000
0000
0001
0000
0000
0100
0000
0000
0001
0000
0000
0010
0000
0100
0000
,
1000
0000
0000
0010
0000
0000
1000
0000
0000
0100
0000
0000
1000
0000
0010
0000
,
0100
0000
0000
0001
0000
0000
0100
0000
0000
0010
0000
0000
0100
0000
0010
0000
,
1000
0000
0000
0001
0000
0000
1000
0000
0000
0100
0000
0000
0010
0000
0100
0000
,
1000
0000
0000
0010
0000
0000
1000
0000
0000
0100
0000
0000
0010
0000
0001
0000
,
0100
0000
0000
0001
0000
0000
0100
0000
0000
0010
0000
0000
0100
0000
0010
0000
,
1000
0000
0000
0100
0000
0000
1000
0000
0000
0010
0000
0000
0100
0000
0010
0000
,
1000
0000
0000
0001
0000
0000
1000
0000
0000
0100
0000
0000
1000
0000
0010
0000
,
0100
0000
0000
0001
0000
0000
0010
0000
0000
0001
0000
0000
0100
0000
0010
0000
,
1000
0000
0000
0001
0000
0000
1000
0000
0000
0100
0000
0000
0010
0000
0001
0000
,
0010
0000
0000
0100
0000
0000
1000
0000
0000
0010
0000
0000
1000
0000
0100
0000
,
1000
0000
0000
0010
0000
0000
0100
0000
0000
0001
0000
0000
0100
0000
0010
0000
,
0100
0000
0000
0001
0000
0000
1000
0000
0000
0100
0000
0000
0010
0000
0001
0000
,
0010
0000
0000
0011
0000
0000
0011
0000
0001
0000
0000
1001
0000
0000
1001
0000
,
1000
0000
0000
1100
0000
0000
1100
0000
1000
0000
0000
1001
0000
0000
1001
0000
,
0100
0000
0000
0110
0000
0000
0110
0000
0010
0000
0000
1010
0000
0000
1010
0000
,
1000
0000
0000
1100
0000
0000
1100
0000
0100
0000
0000
0110
0000
0000
0110
0000
,
0010
0000
0000
0011
0000
0000
0011
0000
0001
0000
0000
1001
0000
0000
1001
0000
,
1000
0000
0000
1001
0000
0000
1001
0000
1000
0000
0000
1010
0000
0000
1010
0000
,
0010
0000
0000
0110
0000
0000
0110
0000
0100
0000
0000
0101
0000
0000
0101
0000
,
0001
1000
0001
1000
0001
1000
0001
1000
0001
1000
0001
1000
0001
0000
0000
0000
,
1000
0000
0000
1000
0010
0000
0000
0010
0100
0000
0000
0100
0001
0000
0000
0001
,
0100
0010
1000
0000
0100
0010
0001
0000
,
0010
0000
0000
0010
0100
0000
0000
0100
1000
0000
0000
1000
0001
0000
0000
0001
,
1000
0100
1000
0000
0001
0100
0001
0000
,
0100
0000
0000
0100
0010
0000
0000
0010
1000
0000
0000
1000
0001
0000
0000
0001
,
1000
0100
1000
0000
0001
0010
0001
0000
,
0010
0000
0000
0010
0100
0000
0000
0100
0010
0000
0000
0010
0001
0000
0000
0001
,
1000
0100
1000
0000
0001
0100
0001
0000
,
0100
0010
1000
0001
0010
0100
1000
0010
,
1000
0100
1000
0000
0010
0000
0001
0000
0100
0000
0000
0000
0101
0000
0000
0000
,
0001
0100
0010
1000
0001
0010
0100
1000
,
0010
1000
0100
0000
1000
0000
0010
0000
1000
0000
0000
0000
1100
0000
0000
0000
,
1000
0001
0100
0010
1000
0001
0010
0100
,
1000
0010
1000
0000
0100
0000
0010
0000
0011
0000
0000
0000
0000
0000
0000
0000
,
0001
0010
0100
1000
0010
0100
0001
0100
,
0010
0100
0001
0000
0010
0000
0100
0000
1000
0000
0010
0000
1010
0000
0000
0000
,
1001
0000
0000
0000
;
