#TITLE:We Can't Stop;
#SUBTITLE:;
#ARTIST:Miley Cyrus;
#TITLETRANSLIT:;
#SUBTITLETRANSLIT:;
#ARTISTTRANSLIT:;
#GENRE:Pop;
#CREDIT:chewi;
#BANNER:We Can't Stop.png;
#BACKGROUND:We Can't Stop-bg.png;
#LYRICSPATH:;
#CDTITLE:cdtitle.png;
#MUSIC:We Can't Stop.ogg;
#OFFSET:-0.279000;
#SAMPLESTART:48.244999;
#SAMPLELENGTH:15.000000;
#SELECTABLE:YES;
#BPMS:0.000000=80.000000
;
#STOPS:
;
#BGCHANGES:;
#KEYSOUNDS:;
#ATTACKS:;

//---------------dance-single - ----------------
#NOTES:
     dance-single:
     :
     Medium:
     5:
     0.190203,0.195140,0.071145,0.081308,0.000000,131.000000,124.000000,7.000000,8.000000,0.000000,0.000000,0.190203,0.195140,0.071145,0.081308,0.000000,131.000000,124.000000,7.000000,8.000000,0.000000,0.000000:
// measure 0
0000
0000
0000
0000
,  // measure 1
0000
0000
0000
0000
,  // measure 2
0000
0000
0000
0000
,  // measure 3
0000
0000
0000
0000
,  // measure 4
0001
0000
0100
0000
0010
0010
0010
0000
,  // measure 5
1000
0000
0100
0000
0010
0010
0010
0000
,  // measure 6
0001
0000
0010
0000
0100
0100
0100
0000
,  // measure 7
1000
1000
1000
0000
0100
0100
0100
0000
,  // measure 8
1000
0000
0010
0000
0001
0000
0100
1000
,  // measure 9
0010
0000
0001
0000
0100
0000
1000
0010
,  // measure 10
0001
0000
0100
0000
1000
0000
0010
0001
,  // measure 11
0100
0000
1000
0000
0010
0000
0001
0100
,  // measure 12
1000
0000
0100
0000
0001
0000
0010
1000
,  // measure 13
0100
0000
0001
0000
0010
0000
1000
0100
,  // measure 14
0001
0010
1000
0100
,  // measure 15
0001
0010
1000
0000
0100
0001
0010
0000
,  // measure 16
1000
1000
0010
0010
,  // measure 17
0001
0001
0010
0010
,  // measure 18
0110
0000
1000
0001
,  // measure 19
1001
1000
0001
1001
,  // measure 20
0220
0000
0330
0010
,  // measure 21
2002
0000
3003
1000
,  // measure 22
0001
0100
1000
0001
,  // measure 23
0100
1000
0010
0010
,  // measure 24
0200
0000
0001
0000
0010
0000
0301
0001
,  // measure 25
0002
0000
1000
0000
0010
0000
1003
1000
,  // measure 26
2000
0000
0100
0000
0001
0000
3010
0010
,  // measure 27
0020
0100
0001
0130
,  // measure 28
0100
0010
1000
1001
,  // measure 29
0100
0010
0001
1001
,  // measure 30
1000
0001
0010
0010
,  // measure 31
0001
1000
0100
0100
,  // measure 32
0100
0000
0000
0000
;

//---------------dance-single - ----------------
#NOTES:
     dance-single:
     :
     Hard:
     8:
     0.281675,0.292710,0.081308,0.020327,0.000000,194.000000,186.000000,8.000000,2.000000,0.000000,0.000000,0.281675,0.292710,0.081308,0.020327,0.000000,194.000000,186.000000,8.000000,2.000000,0.000000,0.000000:
// measure 0
0000
0000
0000
0000
,  // measure 1
0000
0000
0000
0000
,  // measure 2
0000
0000
0000
0000
,  // measure 3
0000
0000
0000
0000
,  // measure 4
1000
0000
0100
0000
0010
0010
0001
0000
,  // measure 5
0001
0000
0100
0000
0010
0010
1000
0000
,  // measure 6
0010
0000
0100
0000
0001
0001
1000
0000
,  // measure 7
1000
1000
0001
0000
0001
0001
1000
0000
,  // measure 8
0001
0000
1000
0100
0010
0001
1000
0100
,  // measure 9
1100
0000
1000
0100
0010
0001
0100
0001
,  // measure 10
0101
0000
0100
0010
1000
0001
0010
0100
,  // measure 11
0100
0000
0010
0100
1000
0001
0010
0100
,  // measure 12
1100
0000
1000
0010
0100
0001
1000
0010
,  // measure 13
1010
0000
0010
0100
0001
1000
0100
0010
,  // measure 14
0110
0000
0100
1000
0001
0010
0100
0010
,  // measure 15
0001
0000
0010
0100
1000
0010
0100
0001
,  // measure 16
0100
0001
0100
0001
0100
1000
0100
1000
,  // measure 17
0100
0001
0100
1000
0100
0001
0100
1000
,  // measure 18
0100
0001
0010
0100
1000
0010
1000
0000
,  // measure 19
1000
0100
0010
0001
0100
0001
0010
0010
,  // measure 20
0020
0000
0000
0000
0030
0000
0100
0100
,  // measure 21
0200
0000
0000
0000
0300
0000
1000
0001
,  // measure 22
1000
0100
1000
0001
1000
0000
0001
1000
,  // measure 23
0001
0100
0001
1000
0001
1000
1000
1000
,  // measure 24
1000
0010
0001
0010
1000
0010
0001
0010
,  // measure 25
1000
0100
0001
0100
1000
0100
0001
0100
,  // measure 26
1000
0010
0001
0010
1000
0100
0001
0100
,  // measure 27
1000
0010
0001
0100
1000
0100
0001
0010
,  // measure 28
1000
0100
0010
0000
0100
0100
0100
0000
,  // measure 29
0100
0010
0001
0000
0001
0001
0001
0000
,  // measure 30
0001
0010
0100
1000
0001
0000
1001
0000
,  // measure 31
1000
0010
0100
0001
1000
0000
1001
0000
,  // measure 32
0110
0000
0000
0000
;

//---------------dance-single - ----------------
#NOTES:
     dance-single:
     :
     Easy:
     3:
     0.085664,0.113832,0.000000,0.081308,0.000000,59.000000,59.000000,0.000000,8.000000,0.000000,0.000000,0.085664,0.113832,0.000000,0.081308,0.000000,59.000000,59.000000,0.000000,8.000000,0.000000,0.000000:
// measure 0
0000
0000
0000
0000
,  // measure 1
0000
0000
0000
0000
,  // measure 2
0000
0000
0000
0000
,  // measure 3
0000
0000
0000
0000
,  // measure 4
1000
0000
0000
0000
,  // measure 5
0010
0000
0000
0000
,  // measure 6
0001
0000
0000
0000
,  // measure 7
0100
0000
0000
0000
,  // measure 8
1000
0000
1000
0000
,  // measure 9
0001
0000
0001
0000
,  // measure 10
0100
0000
0100
0000
,  // measure 11
0010
0000
0010
0000
,  // measure 12
0001
0000
0001
0000
,  // measure 13
1000
0000
1000
0000
,  // measure 14
0010
0000
0010
0000
,  // measure 15
0100
0000
0100
0000
,  // measure 16
0200
0300
0100
0100
,  // measure 17
0200
0300
0100
0100
,  // measure 18
0020
0030
0010
0010
,  // measure 19
0020
0030
0010
0010
,  // measure 20
2000
0000
0000
3000
,  // measure 21
0002
0000
0000
0003
,  // measure 22
2000
0000
0000
3000
,  // measure 23
0002
0000
0000
0003
,  // measure 24
0001
0001
0001
0000
,  // measure 25
0100
0100
0100
0000
,  // measure 26
0010
0010
0010
0000
,  // measure 27
1000
1000
1000
0000
,  // measure 28
1000
0000
0001
0000
,  // measure 29
1000
1000
0001
0000
,  // measure 30
0001
0000
1000
0000
,  // measure 31
0001
0001
1000
0000
,  // measure 32
1000
0000
0000
0000
;

//---------------dance-single - ----------------
#NOTES:
     dance-single:
     :
     Beginner:
     1:
     0.049366,0.097570,0.050818,0.040654,0.000000,34.000000,29.000000,5.000000,4.000000,0.000000,0.000000,0.049366,0.097570,0.050818,0.040654,0.000000,34.000000,29.000000,5.000000,4.000000,0.000000,0.000000:
// measure 0
0000
0000
0000
0000
,  // measure 1
0000
0000
0000
0000
,  // measure 2
0000
0000
0000
0000
,  // measure 3
0000
0000
0000
0000
,  // measure 4
0010
0000
0000
0000
,  // measure 5
0010
0000
0000
0000
,  // measure 6
0100
0000
0000
0000
,  // measure 7
0100
0000
0000
0000
,  // measure 8
1000
0000
0000
0000
,  // measure 9
1001
0000
0000
0000
,  // measure 10
1001
0000
0000
0000
,  // measure 11
0001
0000
0000
0000
,  // measure 12
0110
0000
0000
0000
,  // measure 13
0110
0000
0000
0000
,  // measure 14
0110
0000
0000
0000
,  // measure 15
0100
0000
0000
0000
,  // measure 16
0002
0000
0000
0003
,  // measure 17
0001
0000
0000
0000
,  // measure 18
2000
0000
0000
3000
,  // measure 19
1000
0000
0000
0000
,  // measure 20
0020
0000
0000
0030
,  // measure 21
0010
0000
0000
0000
,  // measure 22
0200
0000
0000
0300
,  // measure 23
0100
0000
0000
0000
,  // measure 24
0100
0000
0000
0000
,  // measure 25
1000
0000
0000
0000
,  // measure 26
0100
0000
0000
0000
,  // measure 27
0001
0000
0000
0000
,  // measure 28
0100
0000
0000
0000
,  // measure 29
0010
0000
0000
0000
,  // measure 30
0010
0000
0000
0000
,  // measure 31
0100
0000
0000
0000
,  // measure 32
1000
0000
0000
0000
;
