#VERSION:0.82;
#TITLE:We Belong Together;
#SUBTITLE:;
#ARTIST:Mariah Carey;
#TITLETRANSLIT:;
#SUBTITLETRANSLIT:;
#ARTISTTRANSLIT:;
#GENRE:R&B;
#ORIGIN:;
#CREDIT:chewi;
#BANNER:We Belong Together.png;
#BACKGROUND:We Belong Together-bg.png;
#PREVIEWVID:;
#JACKET:We Belong Together-jacket.png;
#CDIMAGE:;
#DISCIMAGE:;
#LYRICSPATH:;
#CDTITLE:cdtitle.png;
#MUSIC:We Belong Together.ogg;
#OFFSET:-0.187000;
#SAMPLESTART:55.049000;
#SAMPLELENGTH:15.000000;
#SELECTABLE:YES;
#BPMS:0.000=70.000;
#STOPS:;
#DELAYS:;
#WARPS:;
#TIMESIGNATURES:0.000=4=4;
#TICKCOUNTS:0.000=4;
#COMBOS:0.000=1;
#SPEEDS:0.000=1.000=0.000=0;
#SCROLLS:0.000=1.000;
#FAKES:;
#LABELS:0.000=Song Start;
#BGCHANGES:-0.374=We Belong Together.avi=1.000=1=0=0=StretchNoLoop==CrossFade==,
99999=-nosongbg-=1.000=0=0=0 // don't automatically add -songbackground-
;
#KEYSOUNDS:;
#ATTACKS:
;

//---------------dance-single - ----------------
#NOTEDATA:;
#CHARTNAME:;
#STEPSTYPE:dance-single;
#DESCRIPTION:;
#CHARTSTYLE:;
#DIFFICULTY:Beginner;
#METER:2;
#RADARVALUES:0.040315,0.067729,0.000000,0.045153,0.000000,21.000000,0.000000,4.000000,0.000000,0.000000,0.000000,0.000000,0.000000,0.040315,0.067729,0.000000,0.045153,0.000000,21.000000,0.000000,4.000000,0.000000,0.000000,0.000000,0.000000,0.000000;
#CREDIT:;
#NOTES:
0000
0000
0000
0000
,
0000
0000
0000
0000
,
0000
0000
0000
0000
,
0000
0000
0000
0000
,
1000
0000
0000
0000
,
0010
0000
0000
0000
,
0001
0000
0000
0000
,
0100
0000
0000
0000
,
1000
0000
0000
0000
,
0100
0000
0000
0000
,
0001
0000
0000
0000
,
0010
0000
0000
0000
,
0010
0000
0000
0000
,
0100
0000
0000
0000
,
1000
0000
0000
0000
,
0001
0000
0000
0000
,
0002
0000
0000
0003
,
0001
0000
0000
0000
,
2000
0000
0000
3000
,
1000
0000
0000
0000
,
0020
0000
0000
0030
,
0010
0000
0000
0000
,
0200
0000
0000
0300
,
0100
0000
0000
0000
,
1000
0000
0000
0000
;

//---------------dance-single - ----------------
#NOTEDATA:;
#CHARTNAME:;
#STEPSTYPE:dance-single;
#DESCRIPTION:;
#CHARTSTYLE:;
#DIFFICULTY:Easy;
#METER:3;
#RADARVALUES:0.082243,0.135459,0.022576,0.090306,0.000000,41.000000,2.000000,8.000000,0.000000,0.000000,0.000000,0.000000,0.000000,0.082243,0.135459,0.022576,0.090306,0.000000,41.000000,2.000000,8.000000,0.000000,0.000000,0.000000,0.000000,0.000000;
#CREDIT:;
#NOTES:
0000
0000
0000
0000
,
0000
0000
0000
0000
,
0000
0000
0000
0000
,
0000
0000
0000
0000
,
1000
0000
0100
0000
,
0001
0000
0100
0000
,
1000
0000
0010
0000
,
0001
0000
0010
0000
,
1000
0000
0100
0000
,
0001
0000
0010
0000
,
1000
0000
0100
0000
,
0001
0000
0100
0000
,
0200
0000
0000
0300
,
0020
0000
0000
0030
,
2000
0000
0000
3000
,
0002
0000
0000
0003
,
1000
1000
1000
0000
,
0001
0001
0001
0000
,
0100
0100
0100
0000
,
0220
0000
0000
0330
,
0010
0010
0010
0000
,
0001
0001
0001
0000
,
1000
1000
1000
0000
,
2002
0000
0000
3003
,
1000
0000
0000
0000
;

//---------------dance-single - ----------------
#NOTEDATA:;
#CHARTNAME:;
#STEPSTYPE:dance-single;
#DESCRIPTION:;
#CHARTSTYLE:;
#DIFFICULTY:Medium;
#METER:6;
#RADARVALUES:0.154810,0.176096,0.045153,0.045153,0.000000,88.000000,4.000000,4.000000,0.000000,0.000000,0.000000,0.000000,0.000000,0.154810,0.176096,0.045153,0.045153,0.000000,88.000000,4.000000,4.000000,0.000000,0.000000,0.000000,0.000000,0.000000;
#CREDIT:;
#NOTES:
0000
0000
0000
0000
,
0000
0000
0000
0000
,
0000
0000
0000
0000
,
0000
0000
0000
0000
,
1000
0000
1000
0000
0100
0000
0100
0100
,
0010
0000
0010
0000
0001
0000
0001
0001
,
1000
0000
1000
0000
0001
0000
0001
0001
,
0100
0110
0010
0110
,
0010
0000
1000
0000
0010
0010
1000
0000
,
0001
0000
0100
0000
0001
0001
0100
0000
,
1000
0100
0001
0010
,
1000
1100
0001
0101
,
0200
0010
0000
0310
,
0020
1000
0000
1030
,
2000
0001
0000
3001
,
0200
0010
0000
0310
,
0010
0000
0100
0000
0010
0010
0010
0000
,
0100
0000
0010
0000
0100
0100
0100
0000
,
1000
0000
0001
0000
1000
1000
1000
0000
,
0001
0100
0010
0001
,
0100
0000
0010
0000
0100
0100
0100
0000
,
1000
0000
0001
0000
1000
1000
1000
0000
,
0001
0000
1000
0000
0001
0001
0001
0000
,
0100
1000
0010
0100
,
1000
0000
0000
0000
;

//---------------dance-single - ----------------
#NOTEDATA:;
#CHARTNAME:;
#STEPSTYPE:dance-single;
#DESCRIPTION:;
#CHARTSTYLE:;
#DIFFICULTY:Hard;
#METER:8;
#RADARVALUES:0.241890,0.243825,0.169323,0.000000,0.000000,135.000000,15.000000,0.000000,0.000000,0.000000,0.000000,0.000000,0.000000,0.241890,0.243825,0.169323,0.000000,0.000000,135.000000,15.000000,0.000000,0.000000,0.000000,0.000000,0.000000,0.000000;
#CREDIT:;
#NOTES:
// measure 0
0000
0000
0000
0000
,  // measure 1
0000
0000
0000
0000
,  // measure 2
0000
0000
0000
0000
,  // measure 3
0000
0000
0000
0000
,  // measure 4
1000
0100
0010
0100
1000
0100
1000
1100
,  // measure 5
0000
0001
0100
0010
0100
0001
0100
0101
,  // measure 6
0000
0100
0010
1000
0001
0010
0100
1000
,  // measure 7
0100
0001
0100
1000
0000
0010
0010
0000
,  // measure 8
1000
0010
0100
0010
1000
0010
0100
0101
,  // measure 9
0000
0001
0010
0100
0010
0001
0010
1100
,  // measure 10
0000
1000
0001
0100
0001
1000
0010
1000
,  // measure 11
0010
0100
0010
0100
0000
0010
0010
0000
,  // measure 12
0110
0000
0000
1000
0000
1000
1100
0000
,  // measure 13
1001
0000
0000
0010
0000
0010
0011
0000
,  // measure 14
1100
0000
0000
1000
0000
0001
1001
0000
,  // measure 15
0100
0010
0100
0001
1000
0000
0001
0000
,  // measure 16
1000
0100
0010
0001
1000
0100
1000
0001
,  // measure 17
1001
0000
0001
0100
0010
1000
0001
0100
,  // measure 18
0101
0000
0100
0010
1000
0001
1000
0100
,  // measure 19
0010
0100
1000
0001
0010
0100
1000
0001
,  // measure 20
1000
0100
0001
0100
1000
0100
1100
0000
,  // measure 21
0001
0100
0010
0100
0001
1000
1001
0000
,  // measure 22
1000
0100
0010
0100
1000
0001
0010
0100
,  // measure 23
0010
0010
0100
0100
0010
0100
1000
0001
,  // measure 24
1001
0000
0000
0000
;
