#TITLE:Watercolour;
#SUBTITLE:;
#ARTIST:Pendulum;
#TITLETRANSLIT:;
#SUBTITLETRANSLIT:;
#ARTISTTRANSLIT:;
#GENRE:;
#CREDIT:Chewi☆;
#MENUCOLOR:#FFFF00;
#METERTYPE:DDR X;
#BANNER:Watercolour.png;
#BACKGROUND:Watercolour-bg.png;
#LYRICSPATH:;
#CDTITLE:./CDTITLES/DanceDanceRevolution skyMIX2 -FREEDOM-.png;
#MUSIC:Watercolour.mp3;
#OFFSET:-3.161;
#SAMPLESTART:47.299;
#SAMPLELENGTH:15.000;
#SELECTABLE:YES;
#LISTSORT:;
#DISPLAYBPM:87.000:174.000;
#BPMS:0.000=87.030,48.000=174.060;
#STOPS:;
#BGCHANGES:;
#ATTACKS:;

//---------------dance-single - Chewi----------------
#NOTES:
     dance-single:
     Chewi:
     Beginner:
     3:
     0.113,0.188,0.081,0.000,0.000:
0000
0000
0000
0000
,
0000
0000
0000
0000
,
0000
0000
0000
0000
,
0000
0000
0000
0000
,
1000
0000
0000
0000
,
0100
0000
0000
0000
,
0001
0000
0000
0000
,
0100
0000
0000
0000
,
1000
0000
1000
0000
,
1000
0000
1000
0000
,
0001
0000
0001
0000
,
0001
0000
0001
0000
,
1001
0000
0000
0000
,
0100
0000
0000
0000
,
0110
0000
0000
0000
,
0010
0000
0000
0000
,
1000
0000
1000
0000
,
0001
0000
0001
0000
,
0100
0000
0100
0000
,
0010
0000
0010
0000
,
1001
0000
0000
0000
,
1000
1000
0000
0000
,
0001
0000
0000
0000
,
0001
0001
0000
0000
,
1001
0000
0000
0000
,
0001
0001
0000
0000
,
1000
0000
0000
0000
,
1000
1000
1000
1000
,
1000
0000
0000
0000
,
0100
0000
0000
0000
,
1000
0000
0000
0000
,
0100
0000
0000
0000
,
0001
0000
0000
0000
,
0100
0000
0000
0000
,
0001
0000
0000
0000
,
0100
0000
0000
0000
,
0010
0000
0000
0000
,
1000
0000
0000
0000
,
0010
0000
0000
0000
,
1000
0000
0000
0000
,
0001
0000
0000
0000
,
1000
0000
0000
0000
,
1001
0000
0000
0000
,
0010
0010
0010
0010
,
0010
0000
0000
0000
,
0100
0000
0000
0000
,
0010
0000
0000
0000
,
1000
0000
0001
0000
,
1000
0000
0000
0000
,
0001
0000
0000
0000
,
0100
0000
0000
0000
,
0010
0000
0010
0000
,
0010
0000
0000
0000
,
1001
0000
0000
0000
,
0100
0000
0000
0000
,
1001
0000
0001
0000
,
1000
0000
0000
0000
,
0110
0000
0000
0000
,
0001
0000
0000
0000
,
0110
0000
1000
1000
,
1000
0000
0000
0000
;

//---------------dance-single - Chewphoria~----------------
#NOTES:
     dance-single:
     Chewphoria~:
     Easy:
     6:
     0.297,0.355,0.117,0.215,0.000:
0000
0000
0000
0000
,
0000
0000
0000
0000
,
0000
0000
0000
0000
,
0000
0000
0000
0000
,
2000
0000
0100
0100
,
3002
0000
2000
3003
,
0020
0000
0100
0100
,
0230
0000
0020
0330
,
0010
0010
0010
0010
,
1000
0001
1000
0001
,
0100
0100
0100
0100
,
0001
1000
0001
1000
,
0110
0010
0010
0010
,
0010
1000
0001
1000
,
0100
0100
0100
0100
,
0100
1000
0001
1000
,
0010
1000
0100
1000
,
0010
1000
0100
1000
,
0010
0001
0100
0001
,
0010
0001
0010
0100
,
0220
0000
0000
0330
,
1000
0001
1000
0001
,
2002
0000
0000
3003
,
1000
0100
0010
0001
,
0220
0000
0000
0330
,
0001
0010
0100
1000
,
0220
0000
0000
0330
,
0100
0010
1000
0001
,
0010
0100
1000
0010
,
0100
0001
0100
0010
,
1000
0001
0010
0100
,
1000
0001
1000
0010
,
0100
0010
0100
0001
,
0100
1000
0100
0001
,
0010
1000
0100
0010
,
0001
0100
0010
0100
,
0001
0010
0100
1000
,
0010
1000
0100
0010
,
0001
0010
0100
1000
,
0001
0100
0010
0010
,
0100
0001
0100
1000
,
0010
0001
0010
0100
,
1000
0001
1000
0010
,
0100
0101
1100
0101
,
2002
0000
0000
3003
,
0010
0100
1000
0010
,
0220
0000
0000
0330
,
0100
0001
0010
1000
,
0220
0000
0000
0330
,
0010
0001
0100
1000
,
2002
0000
0000
3003
,
0001
1000
0010
0100
,
0001
0100
1000
0100
,
0001
0010
1000
0010
,
0001
0010
1000
0100
,
0001
0100
1000
0100
,
0001
0010
0001
0100
,
1000
0100
1000
0010
,
1000
0001
0010
0100
,
1000
1000
0001
0001
,
2002
0000
0000
0000
,
3003
0000
0000
0000
;

//---------------dance-single - Chewphoria~----------------
#NOTES:
     dance-single:
     Chewphoria~:
     Medium:
     9:
     0.375,0.437,0.161,0.179,0.000:
0000
0000
0000
0000
,
0000
0000
0000
0000
,
0000
0000
0000
0000
,
0000
0000
0000
0000
,
0020
0000
1000
0100
,
0032
0000
0000
0000
0200
0000
0000
0003
,
2300
0000
0010
0001
,
0002
0000
0000
3000
0200
0000
0000
0303
,
0010
0000
0010
0000
0010
0100
0010
0100
,
0010
0000
0010
0000
0010
1000
0001
0010
,
0100
0000
0100
0000
0100
0010
0100
0010
,
0100
0000
0100
0000
0100
0010
0001
1000
,
0010
0100
0001
0100
,
0010
0000
1000
0001
1000
0000
0001
0000
,
1000
0001
0010
0100
,
1000
0000
0010
1000
0100
0000
0010
0000
,
0001
0100
0010
1000
,
0001
0000
0010
0100
0010
0000
0001
0000
,
0100
0010
1000
0001
,
1000
0100
0010
0001
1000
0100
0010
0001
,
1000
0000
0001
0000
0100
0001
0100
0000
,
0010
0000
1000
0000
0001
0010
0001
0000
,
1000
0000
0100
0000
1000
0001
1000
0000
,
1010
0100
0101
0010
,
0001
0000
0010
0000
0100
1000
0100
0000
,
1000
0000
0100
0000
0010
0001
0010
0000
,
1000
0000
0001
0000
0100
0010
0100
0000
,
0001
0100
0010
1000
0001
0100
0010
1000
,
0002
0000
0000
0000
,
0003
1000
0100
0001
,
0020
0000
0000
0000
,
0030
0000
0100
0000
0010
0000
1000
0001
,
1000
0000
0001
1000
0000
1000
0001
0000
,
0010
0100
1000
0010
,
0001
0100
1000
0000
1000
0010
0001
0000
,
0010
0000
1000
0001
0010
0100
1000
0000
,
1002
0010
0100
1000
,
0013
0000
1000
0100
0010
0001
0100
0010
,
0200
0001
0010
0001
,
0310
0000
0010
0000
1000
0000
0001
0010
,
0001
0000
0010
0001
0000
0001
0010
0000
,
0100
0000
1000
0000
0010
0100
0010
0000
,
0200
0010
0002
0000
,
0303
0000
0001
1000
0010
1000
0001
0000
,
1000
0100
0010
0001
,
0100
0010
1000
0001
,
0010
0000
0100
0000
0001
1000
0001
0000
,
1010
0101
0011
1100
,
1000
0001
0010
0100
,
1000
0000
0001
0000
0100
0010
0100
0000
,
1000
0010
0001
0100
,
1000
1100
0001
0101
,
2000
0000
3001
0000
0010
0100
0010
0000
,
0002
0103
0010
1000
,
0002
0000
0013
0000
0100
1000
0001
0000
,
1100
0101
1100
0101
,
2000
0000
3010
0000
0001
0010
0001
0000
,
2000
0000
3100
0000
0001
0100
0001
0000
,
0200
0000
0310
0000
0010
1000
0010
0000
,
1010
0101
0011
1100
,
2002
0000
0000
0000
,
3003
0000
0000
0000
;

//---------------dance-single - Chewphoria~----------------
#NOTES:
     dance-single:
     Chewphoria~:
     Hard:
     11:
     0.538,0.519,0.314,0.072,0.018: // measure 1
0000
0000
0000
0000
,  // measure 2
0000
0000
0000
0000
,  // measure 3
0000
0000
0000
0000
,  // measure 4
0000
0000
0000
0000
,  // measure 5
2100
0000
0000
0100
0010
0001
0010
3001
,  // measure 6
0102
0000
0100
0013
2100
0000
0010
3100
,  // measure 7
0020
0000
0100
1000
0100
0001
0100
1030
,  // measure 8
2010
0000
0001
3100
0012
0000
0100
0013
,  // measure 9
0010
0100
0010
0100
1000
0001
1000
0001
,  // measure 10
0100
0010
0100
0010
1000
0010
1000
0010
,  // measure 11
1000
0001
1000
0001
0010
0001
0010
0001
,  // measure 12
0010
0100
1000
0010
0001
0100
1000
0001
,  // measure 13
0001
0010
0100
0000
1000
0100
0010
0000
,  // measure 14
0001
1000
0010
0100
0001
1000
0100
0010
,  // measure 15
1000
0100
0010
0000
0001
0010
0100
0000
,  // measure 16
1000
0001
0100
0010
1000
0001
0010
0100
,  // measure 17
0010
0001
0100
0000
0010
0001
0100
0000
,  // measure 18
0010
1000
0100
0010
0100
1000
0010
0100
,  // measure 19
0001
1000
0001
1000
0010
0100
0010
0100
,  // measure 20
0001
1000
0001
1000
0001
0010
0001
0010
,  // measure 21
1100
0000
0001
0000
0100
0010
0100
0000
,  // measure 22
0101
0000
0000
0000
0010
0000
0000
0000
0100
1000
0010
0000
0010
0000
0000
0000
,  // measure 23
0101
0000
1010
0000
0001
0010
0100
0000
,  // measure 24
1000
0100
0001
0100
1000
0100
0001
0000
,  // measure 25
0101
0000
0100
0000
0001
0010
0100
0000
,  // measure 26
1100
0000
0000
0000
0010
0000
0000
0000
1000
0100
0010
0000
0010
0000
0000
0000
,  // measure 27
0011
0000
1001
0000
1000
0010
0100
0001
,  // measure 28
0100
0001
0100
0001
0100
1000
0100
1000
,  // measure 29
0001
1000
0010
0000
0100
0001
1000
0000
,  // measure 30
0010
1000
0100
1000
0010
1000
0100
0000
,  // measure 31
1000
0001
0010
0000
0001
1000
0010
0000
,  // measure 32
0100
0001
0010
0001
0100
0001
0010
0000
,  // measure 33
0100
1000
0001
0000
0010
0001
1000
0000
,  // measure 34
0010
0100
0010
0000
0100
0010
0100
0000
,  // measure 35
0100
0001
1000
0010
1000
0001
0010
0100
,  // measure 36
1000
1000
0001
0001
1000
1000
0010
0010
,  // measure 37
0101
0000
1000
0000
0100
0010
0001
0010
,  // measure 38
1100
0000
0101
0000
0010
1000
0001
0010
,  // measure 39
0011
0000
1100
0000
0001
1000
0010
0100
,  // measure 40
0101
0000
1000
0010
0100
0001
0010
0100
,  // measure 41
1001
0000
0010
0100
1000
0010
0100
0001
,  // measure 42
0101
0000
1001
0000
1000
0010
0100
0001
,  // measure 43
0011
0000
0100
1000
0001
1000
0010
1000
,  // measure 44
0001
0010
0100
1000
0010
0100
0001
1000
,  // measure 45
1001
0000
0010
0100
0010
0100
0010
0000
,  // measure 46
1001
0000
1000
0010
1000
0010
1000
0000
,  // measure 47
1001
0000
0001
0100
0001
0100
0001
0000
,  // measure 48
0001
0100
0010
1000
0001
0100
0010
1000
,  // measure 49
0001
0000
0010
0000
0100
0010
0001
0100
,  // measure 50
0010
0000
0100
0000
0001
0010
0100
1000
,  // measure 51
0010
0000
1000
0000
0100
1000
0010
0100
,  // measure 52
0001
0001
0010
0010
0100
0100
1000
1000
,  // measure 53
1001
0000
0011
0000
0100
1000
0010
0100
,  // measure 54
0001
0000
0000
0000
0010
0000
0000
0000
0010
0001
0100
0000
0100
0000
0010
0000
,  // measure 55
1000
0000
1001
0000
1000
0100
0001
0100
,  // measure 56
1000
0010
0001
0010
1000
0100
0010
0001
,  // measure 57
0101
0000
0011
0000
0001
0010
0100
1000
,  // measure 58
1010
0000
0000
0000
1100
0000
0000
0000
1000
0100
0100
0000
0001
0000
0100
0000
,  // measure 59
1000
0000
1010
0000
0100
0001
0100
0010
,  // measure 60
1000
0001
0010
0100
1000
0001
1000
0010
,  // measure 61
0220
0000
0000
0000
,  // measure 62
0330
0000
0000
0000
;
