#TITLE:WISH (EUROBEAT MIX);
#SUBTITLE:;
#ARTIST:DJ YOSHITAKA feat. 杉村ことみ;
#TITLETRANSLIT:;
#SUBTITLETRANSLIT:;
#ARTISTTRANSLIT:DJ YOSHITAKA feat. KOTOMI SUGIMURA;
#GENRE:;
#CREDIT:Chewi☆;
#MENUCOLOR:#00FF00;
#METERTYPE:DDR X;
#BANNER:WISH (EUROBEAT MIX).png;
#BACKGROUND:WISH (EUROBEAT MIX)-bg.png;
#LYRICSPATH:;
#CDTITLE:;
#MUSIC:WISH (EUROBEAT MIX).mp3;
#OFFSET:-0.420;
#SAMPLESTART:49.621;
#SAMPLELENGTH:15.000;
#SELECTABLE:YES;
#LISTSORT:;
#DISPLAYBPM:155.000;
#BPMS:0.000=155.000;
#STOPS:;
#BGCHANGES:;
#ATTACKS:;

//---------------dance-single - Chewi----------------
#NOTES:
     dance-single:
     Chewi:
     Challenge:
     10:
     0.541,0.499,0.073,0.064,0.009: // measure 1
0000
0000
0000
0000
,  // measure 2
0000
0000
0000
0000
,  // measure 3
0000
0000
0000
0000
,  // measure 4
0000
0000
0000
0000
,  // measure 5
1000
0010
0100
0101
,  // measure 6
0001
0010
0100
1100
,  // measure 7
1000
0100
0001
0100
1000
0010
0001
0010
,  // measure 8
0020
0000
0000
0030
,  // measure 9
0100
0010
0001
0100
0010
0100
0001
0000
,  // measure 10
0001
0100
0010
1000
0002
0000
0003
0000
,  // measure 11
1000
0100
0010
0100
1000
0010
0100
0000
,  // measure 12
1000
0010
0100
0001
1000
1000
0001
0001
,  // measure 13
0001
0010
0100
1000
0001
0010
0100
0000
,  // measure 14
0010
0001
0100
0010
0200
0000
0300
0000
,  // measure 15
0010
1000
0100
0010
0001
1000
0100
0000
,  // measure 16
0001
1000
0001
1000
0001
0100
0010
0100
,  // measure 17
0001
0010
0100
1000
0010
0100
0001
0100
,  // measure 18
0010
1000
0001
0000
0010
0001
1000
0000
,  // measure 19
0100
0010
0100
0010
0001
0010
0001
1000
,  // measure 20
0000
0000
0000
0000
0001
0001
1000
1000
,  // measure 21
0001
0100
0010
1000
0001
0100
0010
1000
,  // measure 22
0001
0010
0100
0000
1000
0100
0010
0000
,  // measure 23
0001
1000
0010
0100
0001
1000
0100
0010
,  // measure 24
0001
0010
0100
0000
1000
0010
0100
0001
,  // measure 25
0100
0010
1000
0000
0100
0010
0001
0000
,  // measure 26
0100
1000
0010
0000
0100
0001
0010
0000
,  // measure 27
0001
0010
0100
0000
1000
0010
0100
0000
,  // measure 28
0001
1000
0010
0000
1000
0001
0010
0100
,  // measure 29
0010
0001
0100
0010
1000
0100
0010
0000
,  // measure 30
0100
1000
0010
0100
0001
0010
0100
0000
,  // measure 31
0010
0001
0010
0001
0100
0001
0100
0001
,  // measure 32
0100
0010
1000
0001
1000
0100
0010
0001
,  // measure 33
0010
0001
0010
0100
1000
0010
0101
0000
,  // measure 34
0100
0010
1000
0001
0010
0100
0010
0000
,  // measure 35
0001
0010
0100
1000
0010
0100
0001
0100
,  // measure 36
0010
0010
1000
1000
0000
0001
0010
0000
,  // measure 37
0001
0010
0100
1000
0010
0100
0101
0000
,  // measure 38
0100
0010
1000
0001
0010
0100
1000
0000
,  // measure 39
0001
0010
0100
1000
0010
0100
0110
0000
,  // measure 40
0101
0000
0000
0000
1000
1000
0001
0001
,  // measure 41
1000
0100
0010
0001
1000
0100
0010
0000
,  // measure 42
0001
0100
1000
0010
0002
0000
0003
0000
,  // measure 43
0001
0010
0100
1000
0001
0010
0100
0000
,  // measure 44
1000
0100
0001
0010
1000
0010
0001
0100
,  // measure 45
0010
0100
0001
1000
0100
0010
0001
0000
,  // measure 46
1000
0100
0010
0001
2000
0000
3000
0000
,  // measure 47
0001
0100
0010
1000
0001
0100
0010
0000
,  // measure 48
0100
0100
0010
0010
1000
0100
0010
0001
,  // measure 49
1000
0100
0000
0001
0000
0100
0100
0000
,  // measure 50
0010
0000
0000
1000
0000
0000
0100
0000
0000
0000
0010
0000
0010
0000
0000
0000
,  // measure 51
0010
0000
0000
0001
0000
0000
0100
0000
0000
0000
1000
0000
0100
0000
0000
0000
,  // measure 52
0010
0010
0100
0100
0000
0100
0010
0001
,  // measure 53
0100
0010
0100
0001
0010
0100
1000
0000
,  // measure 54
0010
1000
0100
1000
0010
0100
0001
0000
,  // measure 55
0100
0010
1000
0001
0010
0100
1000
0001
,  // measure 56
2002
0000
0000
3003
,  // measure 57
1000
0010
1000
0100
1000
0010
1000
0100
,  // measure 58
1000
0001
1000
0001
0100
0010
0100
0010
,  // measure 59
0100
0001
0010
0001
0100
0001
0010
0001
,  // measure 60
0100
0010
1000
0001
0010
0100
1000
0001
,  // measure 61
1000
0010
1000
0001
0010
0001
0100
0010
,  // measure 62
1000
0100
0010
0001
0010
0100
1000
0010
,  // measure 63
0100
0001
0010
0001
0100
0010
1000
0100
,  // measure 64
1000
0010
0100
0000
0001
0010
0100
1000
,  // measure 65
1001
0000
0000
0000
;
