#TITLE:WE NO SPEAK AMERICANO;
#SUBTITLE:;
#ARTIST:YOLANDA BE COOL & DCUP;
#TITLETRANSLIT:;
#SUBTITLETRANSLIT:;
#ARTISTTRANSLIT:;
#CREDIT:Chewi☆;
#BANNER:WE NO SPEAK AMERICANO.png;
#BACKGROUND:WE NO SPEAK AMERICANO-bg.png;
#LYRICSPATH:;
#CDTITLE:;
#MUSIC:WE NO SPEAK AMERICANO.mp3;
#OFFSET:-2.329;
#SAMPLESTART:18.881;
#SAMPLELENGTH:15.000;
#SELECTABLE:YES;
#DISPLAYBPM:128.000;
#BPMS:0.000=125.050;
#STOPS:149.000=2.879;
#MENUCOLOR:;
#METERTYPE:DDR X;
#BGCHANGES:;

//---------------dance-single - Chewi----------------
#NOTES:
     dance-single:
     Chewi:
     Beginner:
     2:
     0.102,0.146,0.020,0.099,0.000:
0000
0000
0000
0000
,
0000
0000
0000
0000
,
0000
0000
0000
0000
,
0000
0000
0000
0000
,
0020
0000
0000
0030
,
0010
0000
0000
0000
,
0200
0000
0000
0300
,
0100
0000
0000
0000
,
0000
1001
0000
0000
,
1000
0000
0000
0000
,
0010
0000
0000
0000
,
0001
0000
0000
0000
,
0100
0000
0000
0000
,
1000
0000
0000
0000
,
0100
0000
0000
0000
,
0001
0000
0000
0000
,
0010
0000
0000
0000
,
2000
0000
0000
3000
,
1000
0000
0000
0000
,
0002
0000
0000
0003
,
0001
0000
0000
0000
,
0010
0010
0010
0000
,
0010
0000
0100
0000
,
0100
0100
0100
0000
,
0100
0000
0010
0000
,
1000
1000
1000
0000
,
0001
0000
0001
0000
,
0001
0001
0001
0000
,
1000
0000
1000
0000
,
0020
0000
0000
0030
,
0010
0000
0000
0000
,
0200
0000
0000
0300
,
0100
0000
0000
0000
,
0002
0000
0000
0003
,
0001
0000
0000
0000
,
2000
0000
0000
3000
,
1000
0000
0000
0000
,
0000
0000
1000
0000
,
0000
0000
0010
0000
,
0000
0000
0001
0000
,
0000
0000
0100
0000
,
0000
0000
1000
0000
,
0000
0000
0100
0000
,
0000
0000
0001
0000
,
0000
0000
0010
0010
,
0010
0000
2000
0000
,
0000
3000
1000
0000
,
0000
0000
0002
0000
,
0000
0003
0001
0000
,
0000
1001
0000
0000
;

//---------------dance-single - Chewi----------------
#NOTES:
     dance-single:
     Chewi:
     Easy:
     3:
     0.174,0.171,0.020,0.178,0.000:
0000
0000
0000
0000
,
0000
0000
0000
0000
,
0000
0000
0000
0000
,
0000
0000
0000
0000
,
2000
0000
0000
3000
,
1000
0001
1000
0000
,
0002
0000
0000
0003
,
1000
0001
1000
0000
,
0000
0110
0000
0000
,
1000
0100
0010
0000
,
0010
0010
0010
0000
,
0001
0100
0010
0000
,
0010
0010
0010
0000
,
0010
0100
0010
0000
,
1000
1000
1000
0000
,
0100
0010
0100
0000
,
0001
0001
0001
0000
,
2000
0000
0000
3000
,
0020
0000
0000
0030
,
0002
0000
0000
0003
,
0200
0000
0000
0300
,
0010
0100
0010
0000
,
0001
0001
0001
0000
,
0001
1000
0001
0000
,
1000
1000
1000
0000
,
0010
0100
0010
0000
,
0010
0010
0010
0000
,
1000
0100
1000
0000
,
0100
0001
0100
1000
,
0002
0000
0000
0003
,
0200
0000
0000
0300
,
2000
0000
0000
3000
,
0020
0000
0000
0030
,
0200
0000
0000
0300
,
0020
0000
0000
0030
,
2000
0000
0000
3000
,
0002
0000
0000
0003
,
0000
1001
1000
0100
,
0010
0000
0010
0010
,
0010
0000
0001
0100
,
0010
0000
0010
0010
,
0010
0000
0010
0100
,
0010
0000
1000
1000
,
1000
0000
0100
0010
,
0100
0000
0001
0001
,
0001
0000
2000
0000
,
0000
3100
0020
0000
,
0000
0031
0002
0000
,
0000
0103
0200
0000
,
0000
0310
0000
0000
;

//---------------dance-single - Chewi----------------
#NOTES:
     dance-single:
     Chewi:
     Medium:
     6:
     0.292,0.342,0.248,0.059,0.050:
0000
0000
0000
0000
,
0000
0000
0000
0000
,
0000
0000
0000
0000
,
0000
0000
0000
0000
,
1000
0100
0001
0010
,
1000
0010
0001
0100
,
1000
0100
1000
0000
0001
0100
0001
0000
,
0200
0000
0000
0000
,
0000
0310
0000
0000
,
0010
0000
0000
0000
1000
0000
0000
0000
0001
0000
0000
0001
0000
0000
0000
0000
,
0010
0100
0010
0011
,
0100
0000
0000
0000
0010
0000
0000
0000
1000
0000
0000
1000
0000
0000
0000
0000
,
0010
0100
0001
0011
,
0100
0000
0000
0000
1000
0000
0000
0000
0100
0000
0000
0100
0000
0000
0000
0000
,
0010
0001
1000
1001
,
1000
0000
0000
0000
0010
0000
0000
0000
0100
0000
0000
0100
0000
0000
0000
0000
,
0101
0011
1010
1100
,
0001
1000
0001
0000
0100
0000
0010
0000
,
1000
0001
0010
0100
,
1000
0100
0001
0010
,
0100
0010
0110
0000
,
0010
0000
0000
0000
0100
0000
0000
0000
0001
0000
0000
0001
0000
0000
0000
0000
,
0010
0100
1000
1100
,
0100
0000
0000
0000
0010
0000
0000
0000
0001
0000
0000
0001
0000
0000
0000
0000
,
0100
0010
1000
1001
,
0001
0000
1100
0000
1000
0001
1000
0000
,
0001
0100
1000
0010
,
0001
0000
0011
0000
1000
0010
1000
0000
,
0010
0110
1001
0110
,
0001
0010
0100
1000
,
1001
0000
0000
0000
1000
1000
1000
0000
,
0001
0100
0010
1000
,
0001
0000
0000
0000
0010
0010
0010
0000
,
0100
0010
0001
1000
,
0010
0000
0000
0000
0010
0010
0010
0000
,
0100
0010
1000
0001
,
2002
0000
0000
0000
,
0000
3003
0010
1000
,
0001
0000
0000
0001
0000
0000
0000
0000
0010
0000
0000
0000
0100
0000
0000
0000
,
0010
0011
0100
0010
,
1000
0000
0000
1000
0000
0000
0000
0000
0010
0000
0000
0000
0100
0000
0000
0000
,
0001
0011
0100
1000
,
0100
0000
0000
0100
0000
0000
0000
0000
0010
0000
0000
0000
0001
0000
0000
0000
,
1000
1001
1000
0010
,
0100
0000
0000
0100
0000
0000
0000
0000
0101
0000
0000
0000
0011
0000
0000
0000
,
1010
1100
0002
0103
,
0100
0010
2000
3001
,
0010
0100
2000
3100
,
0001
0010
0100
0010
,
0001
1001
0000
0000
;

//---------------dance-single - Chewi----------------
#NOTES:
     dance-single:
     Chewi:
     Hard:
     10:
     0.401,0.415,0.168,0.109,0.168:
0000
0000
0000
0000
,
0000
0000
0000
0000
,
0000
0000
0000
0000
,
0000
0000
0000
0000
,
1000
0000
0000
1000
0100
0000
0000
0100
0010
0000
0000
0010
0001
0000
0000
0001
,
0100
0000
0000
0100
0010
0000
0000
0010
1000
0000
0000
1000
0001
0000
0000
0001
,
1000
0000
0000
1000
0001
0000
0000
0001
0010
0000
0000
0010
0100
0000
0000
0100
,
0020
0000
0000
0000
,
0000
0031
0000
0000
,
0001
0010
0100
0000
1000
0000
0101
0000
,
1000
0100
0010
0000
1000
0000
0101
0000
,
0100
0010
1000
0000
0001
0000
1001
0000
,
1000
0100
0010
0000
0001
0000
0011
0000
,
0001
0000
0010
0000
0100
0000
1000
0000
0100
0000
0000
0001
0000
0000
0000
0000
,
0100
0000
1000
0000
0010
0000
0100
0000
0001
0000
0000
0010
0000
0000
0000
0000
,
0001
0000
0010
0000
0100
0000
1000
0000
0010
0000
0000
0100
0000
0000
0000
0000
,
0100
0110
1001
0011
,
0002
0100
0010
1003
,
0200
0010
0001
0310
,
0020
1000
0100
0031
,
0100
0100
0100
0000
0220
0000
0330
0000
,
0010
0000
1000
0000
1001
0010
0001
0000
,
0010
0100
1000
0010
0100
0001
0100
0000
,
0010
0000
1000
0000
0011
0100
1000
0000
,
0001
0010
0100
1000
0010
0100
0001
0100
,
0010
1000
0000
0000
0100
0000
0000
0000
0001
0000
0010
0000
0100
0000
0000
0000
,
1000
0100
0010
0001
0100
0010
1000
0000
,
0010
1000
0000
0000
0100
0000
0000
0000
0010
0000
0001
0000
0100
0000
0000
0000
,
0010
0000
0010
0000
0100
0000
0100
0000
0001
0000
1000
0001
1000
0000
0000
0000
,
0001
0000
0000
0001
0010
0000
0000
0010
0100
0000
0000
0100
1000
0000
0000
1000
,
0200
0000
0000
0000
0010
0010
0310
0000
,
0010
0000
0000
0010
0001
0000
0000
0001
0100
0000
0000
0100
0010
0000
0000
0010
,
1000
0000
0000
1000
0010
0000
0000
0010
0200
0000
0010
0000
0310
0000
0000
0000
,
0010
1000
0001
0000
0010
0001
1000
0000
,
0100
0010
0001
1000
0010
0100
0001
0000
,
0100
0001
1000
0000
0100
1000
0001
0000
,
1000
0100
0001
0100
1000
0010
0001
0010
,
1000
0010
0110
0000
0001
0010
0100
0000
,
1000
0000
0101
0000
1000
0100
0010
0000
,
1000
0000
0101
0000
0100
0010
1000
0000
,
0001
0000
1001
0000
1000
0100
0010
0000
,
0001
0000
0011
0000
0001
0010
0100
1000
,
0100
0000
0000
0001
0000
0000
0000
0000
0100
0000
1000
0000
0010
0000
0100
0000
,
0001
0000
0000
0010
0000
0000
0000
0000
0001
0000
0010
0000
0100
0000
1000
0000
,
0010
0000
0000
0100
0000
0000
0000
0000
0100
0000
0000
0100
0010
0000
0000
0010
,
1000
0000
0000
1000
0001
0000
0000
0000
0002
0000
0000
0000
0100
0000
0000
0000
,
0010
1003
0200
0010
,
0001
0310
0020
1000
,
0100
0000
0031
0000
0100
0010
0100
0000
,
0110
1001
0000
0000
;

//---------------dance-double - Chewi----------------
#NOTES:
     dance-double:
     Chewi:
     Hard:
     10:
     0.422,0.415,0.188,0.099,0.168: // measure 1
00000000
00000000
00000000
00000000
,  // measure 2
00000000
00000000
00000000
00000000
,  // measure 3
00000000
00000000
00000000
00000000
,  // measure 4
00000000
00000000
00000000
00000000
,  // measure 5
10000000
00000000
00000000
10000000
00100000
00000000
00000000
00100000
01000000
00000000
00000000
01000000
00010000
00000000
00000000
00010000
,  // measure 6
00100000
00000000
00000000
00100000
01000000
00000000
00000000
01000000
00100000
00000000
00000000
00100000
00010000
00000000
00000000
00010000
,  // measure 7
01000000
00000000
00000000
01000000
00010000
00000000
00000000
00010000
00100000
00000000
00000000
00100000
00001000
00000000
00000000
00001000
,  // measure 8
00020000
00000000
00000000
00000000
,  // measure 9
00000000
00031000
00000000
00000000
,  // measure 10
00001000
00000000
00000010
00000000
00000100
00000000
00000000
00000000
00000001
00000000
00000000
00000001
00000000
00000000
00000000
00000000
,  // measure 11
00000001
00000100
00000010
00001000
00000100
00000010
00000100
00000000
,  // measure 12
00001000
00000000
00000010
00000000
00001000
00000000
00000000
00000000
00000100
00000000
00000000
00010000
00000000
00000000
00000000
00000000
,  // measure 13
00010000
01000000
10000000
01000000
00010000
00100000
10000000
00100000
,  // measure 14
01000000
00000000
00100000
00000000
01000000
00000000
00000000
00000000
00010000
00000000
00000000
00010000
00000000
00000000
00000000
00000000
,  // measure 15
10000000
01000000
00100000
00010000
00001000
00000100
00000010
00000001
,  // measure 16
00000100
00000000
00000010
00000000
00001000
00000000
00000001
00000000
00000010
00000000
00000000
00000010
00000000
00000000
00000000
00000000
,  // measure 17
00000011
00000101
00001100
00001010
,  // measure 18
00000020
00000100
00001030
00000000
00001000
00000000
00000100
00000000
,  // measure 19
00000200
00010000
00001300
00000000
00000100
00000000
00010000
00000000
,  // measure 20
02000000
00010000
03100000
00000000
00200000
01000000
10300000
10000000
,  // measure 21
00010000
00100000
01000000
10000000
11000000
00000000
00000000
00000000
,  // measure 22
11000000
00000000
00100000
00000000
00010000
00000000
01000000
00000000
00100000
00000000
00000000
00100000
00000000
00000000
00000000
00000000
,  // measure 23
01000000
00010000
00100000
00001000
00010000
01000000
00010000
00000000
,  // measure 24
00010000
00000000
00000100
00000000
00001000
00000000
00000001
00000000
00000100
00000000
00000000
00000100
00000000
00000000
00000000
00000000
,  // measure 25
00000010
00001000
00000001
00000010
00000100
00001000
00000010
00000100
,  // measure 26
00000010
00000000
00001000
00000000
00000100
00000000
00010000
00000000
00001000
00000000
00000000
00001000
00000000
00000000
00000000
00000000
,  // measure 27
00001000
00100000
10000000
01000000
00010000
00100000
01000000
10000000
,  // measure 28
00100000
00000000
01000000
00000000
00010000
00000000
01000000
00000000
00100000
00000000
00000000
00100000
00000000
00000000
00000000
00000000
,  // measure 29
10100000
00110000
01010000
11000000
,  // measure 30
10000000
00000000
00000000
10000000
01000000
00000000
00000000
01000000
00100000
00000000
00000000
00100000
00010000
00000000
00000000
00010000
,  // measure 31
10000000
00000000
00000000
00000000
10000000
00010000
10010000
00000000
,  // measure 32
10000000
00000000
00000000
10000000
00100000
00000000
00000000
00100000
01000000
00000000
00000000
01000000
00010000
00000000
00000000
00010000
,  // measure 33
00100000
00000000
00000000
00100000
00001000
00000000
00000000
00001000
00010000
00000000
00010000
00000000
00010000
00000000
00000000
00000000
,  // measure 34
00010000
00001000
00000010
00000001
00000100
00001000
00000100
00000001
,  // measure 35
00000100
00000010
00001000
00000000
00000001
00001000
00001001
00000000
,  // measure 36
00000001
00000100
00000010
00001000
00000001
00000010
00000100
00001000
,  // measure 37
00000020
00000000
00000000
00000000
,  // measure 38
00000030
00000000
00001010
00000000
00001000
00000010
00000100
00000000
,  // measure 39
00000001
00000000
00000000
00000001
00000000
00000000
00000000
00000000
00000001
00000000
00000100
00000000
00000010
00000000
00001000
00000000
,  // measure 40
00000100
00000010
00000100
00000000
00001000
00000010
00001000
00000000
,  // measure 41
00000100
00000000
00000000
00010000
00000000
00000000
00000000
00000000
00010000
00000000
01000000
00000000
10000000
00000000
01000000
00000000
,  // measure 42
00010000
00100000
10000000
00100000
01000000
00100000
01000000
00000000
,  // measure 43
00010000
00000000
00000000
00010000
00000000
00000000
00000000
00000000
10000000
00000000
01000000
00000000
00100000
00000000
00010000
00000000
,  // measure 44
00001000
00000100
00000010
00000001
00000100
00000010
00001000
00000001
,  // measure 45
00000010
00000000
00000000
00000010
00000000
00000000
00000000
00000000
00000011
00000000
00000000
00000000
00000101
00000000
00000000
00000000
,  // measure 46
00001100
00000000
00001010
00000000
00000020
00000100
00001030
00000000
,  // measure 47
00001000
00000000
00000100
00000000
00000200
00010000
00001300
00000000
,  // measure 48
00000100
00000000
00010000
00000000
02000000
00010000
03100000
00000000
,  // measure 49
00200000
01000000
10300000
10000000
00010000
00100000
01000000
10000000
,  // measure 50
11000000
00110000
00000000
00000000
;

//---------------dance-double - Chewi----------------
#NOTES:
     dance-double:
     Chewi:
     Medium:
     7:
     0.286,0.317,0.168,0.099,0.054:
00000000
00000000
00000000
00000000
,
00000000
00000000
00000000
00000000
,
00000000
00000000
00000000
00000000
,
00000000
00000000
00000000
00000000
,
10000000
01000000
00100000
00010000
,
10000000
00100000
00010000
00100000
,
00100000
00010000
00001000
00000100
,
00000001
00000100
00001000
00000100
,
00000000
00000110
00000000
00000000
,
00000010
00000000
00000000
00000000
00001000
00000000
00000000
00000000
00000001
00000000
00000000
00000001
00000000
00000000
00000000
00000000
,
00000010
00000100
00001000
01010000
,
00010000
00000000
00000000
00000000
00100000
00000000
00000000
00000000
01000000
00000000
00000000
01000000
00000000
00000000
00000000
00000000
,
00100000
00010000
01000000
01010000
,
00100000
00000000
00000000
00000000
00001000
00000000
00000000
00000000
00000010
00000000
00000000
00000010
00000000
00000000
00000000
00000000
,
00000001
00000100
00001000
00001001
,
00000001
00000000
00000000
00000000
00001000
00000000
00000000
00000000
00000100
00000000
00000000
00000100
00000000
00000000
00000000
00000000
,
00000100
00010100
00010000
00011000
,
00002000
00100000
00010000
00103000
,
00020000
01000000
10000000
00130000
,
20000000
01000000
00010000
30100000
,
00100000
01000000
00100000
00000000
01100000
00000000
00000000
00000000
,
10000000
00000000
00000000
00000000
00010000
00000000
00000000
00000000
00100000
00000000
00000000
00100000
00000000
00000000
00000000
00000000
,
01000000
00100000
00001000
00000010
,
00000001
00000000
00000000
00000000
00000100
00000000
00000000
00000000
00001000
00000000
00000000
00001000
00000000
00000000
00000000
00000000
,
00000100
00000001
00000010
00001000
,
00100000
00000000
00000000
00000000
10000000
00000000
00000000
00000000
01000000
00000000
00000000
01000000
00000000
00000000
00000000
00000000
,
01000000
00010000
00100000
01000000
,
00100000
00000000
00000000
00000000
00010000
00000000
00000000
00000000
01000000
00000000
00000000
01000000
00000000
00000000
00000000
00000000
,
00010000
00100000
00001000
00000000
00010000
00000000
00010100
00000000
,
00000100
00000100
00001000
00001010
,
00000101
00000000
00000000
00000000
00000100
00000010
00000100
00000000
,
00000001
00000010
00000100
00001100
,
00000101
00000000
00000000
00000000
00000010
00001000
00000010
00000000
,
00000010
00001000
00010000
01000000
,
10000000
00000000
00100000
00000000
00010000
00100000
00010000
00000000
,
00100000
01000000
10000000
00000000
01000000
00000000
00100000
00000000
,
20020000
00000000
00000000
00000000
,
30030000
10100000
01000000
00010000
,
00100000
00000000
00000000
00100000
00000000
00000000
00000000
00000000
00100000
00000000
00000000
00000000
00001000
00000000
00000000
00000000
,
00000010
00000001
00000100
00000010
,
00001000
00000000
00000000
00001000
00000000
00000000
00000000
00000000
00000010
00000000
00000100
00000000
00000010
00000000
00000000
00000000
,
00001000
00001001
00000001
00000100
,
00001000
00000000
00000000
00001000
00000000
00000000
00000000
00000000
00001000
00000000
00000000
00000000
00010000
00000000
00000000
00000000
,
01000000
10000000
00100000
00010000
,
00100000
01000000
00100000
00000000
02200000
00000000
00000000
00000000
,
00000000
03300000
00020000
00000000
,
01000000
00130000
20000000
00000000
,
01000000
00000000
00000000
00000000
00010000
30000000
00000000
00000000
00200000
00000000
00000000
00000000
00000000
00000000
00000000
00000000
,
00001000
00310000
00001000
00010000
,
00001000
00000010
00001010
00000000
00000000
00000000
00000000
00000000
;

//---------------dance-double - Chewi----------------
#NOTES:
     dance-double:
     Chewi:
     Easy:
     4:
     0.183,0.220,0.030,0.099,0.000:
00000000
00000000
00000000
00000000
,
00000000
00000000
00000000
00000000
,
00000000
00000000
00000000
00000000
,
00000000
00000000
00000000
00000000
,
20000000
00000000
00000000
30000000
,
00100000
10000000
00100000
00000000
,
00020000
00000000
00000000
00030000
,
00100000
00010000
00100000
00000000
,
00000000
01100000
00000000
00000000
,
00100000
00010000
00001000
00000000
,
00000010
00000010
00000100
00000000
,
00000010
00000001
00000100
00000000
,
00000100
00000100
00000010
00000000
,
00000010
00001000
00010000
00000000
,
00010000
01000000
01000000
00000000
,
01000000
10000000
00100000
00000000
,
00100000
00100000
00100000
00000000
,
00200000
00000000
00000000
00300000
,
02000000
00000000
00000000
03000000
,
00020000
00000000
00000000
00030000
,
00002000
00000000
00000000
00003000
,
00000010
00001000
00000100
00000000
,
00000100
00000010
00000010
00000000
,
00000010
00000001
00000100
00000000
,
00000100
00001000
00001000
00000000
,
00001000
00010000
01000000
00000000
,
10000000
01000000
01000000
00000000
,
00100000
10000000
01000000
00000000
,
00100000
00100000
00100000
00100000
,
00010000
00100000
00001000
00010000
,
00001000
00000000
00000000
00000000
,
00001000
00000010
00000001
00000100
,
00001000
00000000
00000000
00000000
,
00000100
00001000
00100000
10000000
,
01000000
00000000
00000000
00000000
,
10000000
01000000
00010000
01000000
,
00200000
00000000
00000000
00000000
,
00000000
01300000
01000000
00010000
,
00100000
00000000
00100000
00001000
,
00000010
00000000
00000001
00000100
,
00000100
00000000
00001000
00000100
,
00000001
00000100
00001000
00010000
,
01000000
00000000
01000000
10000000
,
00100000
00000000
00010000
00100000
,
01000000
00000000
00100000
00100000
,
01100000
00000000
00200000
00000000
,
00000000
00310000
00002000
00000000
,
00000000
00003010
00000020
00000000
,
00000000
00000130
00000100
00000000
,
00000000
00000110
00000000
00000000
;
