#TITLE:Votum stellarum -forest #25 DDR RMX-;
#SUBTITLE:;
#ARTIST:iconoclasm;
#TITLETRANSLIT:;
#SUBTITLETRANSLIT:;
#ARTISTTRANSLIT:;
#GENRE:;
#CREDIT:;
#MENUCOLOR:;
#METERTYPE:DDR;
#BANNER:Votum stellarum -forest #25 DDR RMX-.png;
#BACKGROUND:Votum stellarum -forest #25 DDR RMX--bg.png;
#LYRICSPATH:;
#CDTITLE:./CDTITLES/pop'n music.png;
#MUSIC:Votum stellarum -forest #25 DDR RMX-.mp3;
#OFFSET:0.799;
#SAMPLESTART:12.880;
#SAMPLELENGTH:15.000;
#SELECTABLE:YES;
#LISTSORT:;
#BPMS:0.000=140.010;
#STOPS:;
#BGCHANGES:;
#ATTACKS:;

//---------------dance-single - Chewi (special thx Taro)----------------
#NOTES:
     dance-single:
     Chewi (special thx Taro):
     Hard:
     12:
     0.577,0.568,0.241,0.058,0.332: // measure 1
0000
0000
0000
0000
,  // measure 2
0000
0000
0000
0000
,  // measure 3
0000
0000
0000
0000
,  // measure 4
0000
0000
0000
0000
,  // measure 5
0000
0000
0000
0000
,  // measure 6
1000
0000
0000
1000
0100
0000
0000
0000
0010
0000
0001
0000
0101
0000
0000
0000
,  // measure 7
0001
0000
0000
0001
0100
0000
0000
0000
0010
0000
1000
0000
1100
0000
0000
0000
,  // measure 8
0010
0000
0000
0010
1000
0000
0000
1000
0100
0000
0000
0100
0001
0000
0000
0001
,  // measure 9
0010
1100
1001
0101
,  // measure 10
1000
0000
0000
0100
1000
0000
0000
0000
0001
0010
0001
0000
0010
0000
0000
0000
,  // measure 11
0001
0000
0000
0010
0001
0000
0000
0000
0100
0010
0100
0000
0010
0000
0000
0000
,  // measure 12
1000
0000
0000
0100
1000
0000
0000
0000
0001
1000
0100
0000
0010
0000
0000
0000
,  // measure 13
0100
0000
0000
0010
0100
0000
0000
0000
1000
0010
1000
0000
0100
0000
0000
0000
,  // measure 14
0010
0000
0000
0010
0001
0000
0000
0000
1000
0001
1000
0000
0010
0000
0000
0000
,  // measure 15
0100
0000
0000
0100
0010
0000
0000
0000
1000
0010
1000
0000
0010
0000
0000
0000
,  // measure 16
0100
0000
0000
0100
0001
0000
0000
0000
1000
0001
1000
0000
0010
0000
0000
0000
,  // measure 17
0010
1000
0010
0000
0100
0000
0100
0000
0010
0000
0010
0000
1000
0001
1000
0001
,  // measure 18
1000
0000
0000
0100
0001
0000
0000
0001
0100
0000
0000
1000
0010
0000
0000
0001
,  // measure 19
0010
0000
1000
0000
0010
0000
0100
0000
0001
0000
0010
0000
0001
0010
0001
0000
,  // measure 20
0010
0000
0000
0001
0100
0000
0000
0100
0010
0000
0000
0010
1000
0000
1000
0000
,  // measure 21
0010
0000
1000
0000
0100
0000
0010
0000
0001
0000
0010
0000
0100
1000
0100
1000
,  // measure 22
0010
0000
0000
0010
0100
0000
0000
0100
0001
0000
0000
0001
1000
0000
0000
1000
,  // measure 23
0100
0000
0000
0100
1000
0000
0000
1000
0010
0000
0000
0010
0100
0000
0000
0100
,  // measure 24
0010
0010
0100
0100
0001
0001
1000
1000
,  // measure 25
0001
0010
0100
0000
0010
0100
1000
0000
0100
1000
0001
0000
1000
0001
0010
0000
,  // measure 26
0001
0000
0000
0001
0000
0000
0001
0000
1000
0000
0000
1000
0000
0000
1000
0000
,  // measure 27
0010
0000
0000
0010
0000
0000
0010
0000
0100
0000
0001
0100
0001
0000
0000
0000
,  // measure 28
0100
0000
0000
0100
0010
0000
1000
0000
0001
0000
0000
0001
1000
0000
0100
0000
,  // measure 29
0010
0000
0000
0010
0001
0000
0010
0000
1100
0000
0101
0000
1100
0000
0000
0000
,  // measure 30
1000
0000
0000
1000
0001
0000
0100
0000
0010
0000
0000
0010
0100
0000
0001
0000
,  // measure 31
0010
0000
0000
0010
0100
0000
1000
0000
1010
0000
1100
0000
1010
0000
0000
0000
,  // measure 32
1000
0000
0000
1000
0010
0000
0100
0000
0001
0000
0000
0001
0100
0000
0010
0000
,  // measure 33
1000
0010
1000
0000
0001
0100
0001
0000
1000
0100
1000
0100
1000
0000
0000
0000
,  // measure 34
1000
0100
0001
0100
1000
0100
0001
0100
,  // measure 35
1000
0001
0100
0010
1000
0001
1001
0000
,  // measure 36
0001
0100
1000
0100
0001
0100
1000
0100
,  // measure 37
0001
0010
0100
1000
0010
0100
0110
0000
,  // measure 38
0100
0010
1000
0010
0100
0010
1000
0010
,  // measure 39
0100
0001
0010
0100
1000
0010
1010
0000
,  // measure 40
1000
0100
0010
0100
1000
0100
0010
0100
,  // measure 41
1000
0001
0100
0010
1000
0001
1000
0000
,  // measure 42
0001
0000
0000
0001
1000
0000
0000
0000
0001
0000
0010
0000
0100
0000
1000
0000
,  // measure 43
0010
0000
0000
0010
1000
0000
0000
0000
1000
0000
0010
0000
0100
0000
0001
0000
,  // measure 44
0010
0001
0011
0000
0100
1000
1100
0000
,  // measure 45
1000
0000
1000
0000
0001
0000
0001
0000
0100
0001
0100
0000
0010
1000
0010
0000
,  // measure 46
0100
0000
0000
0001
0100
0000
0000
0000
0010
0000
1000
0000
0100
0000
0010
0000
,  // measure 47
0001
0000
0000
0010
0100
0000
0000
0000
0100
0000
1000
0000
0010
0000
1000
0000
,  // measure 48
0002
0000
0203
0000
,  // measure 49
2300
0000
0000
0000
3020
0000
0000
0000
0031
0000
0010
0000
0100
1000
0100
1000
,  // measure 50
0001
0010
0100
1000
0010
1000
0100
0010
,  // measure 51
0001
0100
0101
0000
1000
0100
1100
0000
,  // measure 52
1000
0010
0100
0010
1000
0100
0010
0001
,  // measure 53
1000
0100
1100
0000
0001
0100
0101
0000
,  // measure 54
0100
0010
1000
0001
0010
0100
1000
0010
,  // measure 55
1000
0100
1100
0000
0001
0010
0011
0000
,  // measure 56
0001
0010
0100
1000
0001
0010
0100
1000
,  // measure 57
0001
1000
1100
0000
1000
0001
0101
0000
,  // measure 58
0220
0000
0000
0000
,  // measure 59
0000
0000
0000
0000
,  // measure 60
0330
0000
0000
0000
;

//---------------dance-single - Chewi----------------
#NOTES:
     dance-single:
     Chewi:
     Beginner:
     1:
     0.076,0.110,0.019,0.000,0.000:
0000
0000
0000
0000
,
0000
0000
0000
0000
,
0000
0000
0000
0000
,
0000
0000
0000
0000
,
0000
0000
0000
0000
,
1000
0000
0000
0000
,
0100
0000
0000
0000
,
0010
0000
0000
0000
,
0001
0000
0000
0000
,
0001
0000
1000
0000
,
0010
0000
0000
0000
,
1000
0000
0000
0000
,
0001
0000
0000
0000
,
0100
0000
0000
0000
,
0001
0000
0000
0000
,
0010
0000
0000
0000
,
1000
0000
0000
0000
,
1000
0000
0000
0000
,
0100
0000
0000
0000
,
0010
0000
0000
0000
,
0001
0000
0000
0000
,
1000
0000
0000
0000
,
0010
0000
0000
0000
,
0010
0000
0000
0000
,
0100
0000
0000
0000
,
1001
0000
0000
0000
,
0000
0000
0000
0000
,
1000
0000
0000
0000
,
1000
0000
0000
0000
,
0001
0000
0000
0000
,
0001
0000
0000
0000
,
0100
0000
0000
0000
,
0100
0000
0000
0000
,
0010
0000
0000
0000
,
1000
0000
0000
0000
,
0001
0000
0000
0000
,
0010
0000
0000
0000
,
0001
0000
0000
0000
,
1000
0000
0000
0000
,
0100
0000
0000
0000
,
0010
0000
0000
0000
,
0001
0000
0000
0000
,
1000
0000
0000
0000
,
0001
0000
0000
0000
,
1000
0000
0000
0000
,
1000
0000
0000
0000
,
0001
0000
0000
0000
,
0100
0000
0000
0000
,
0010
0000
0000
0000
,
1000
0000
0000
0000
,
0010
0000
0000
0000
,
0001
0000
0000
0000
,
0010
0000
0000
0000
,
0100
0000
0000
0000
,
0010
0000
0000
0000
,
0010
0000
0000
0000
,
0100
0000
0000
0000
,
1001
0000
0000
0000
;

//---------------dance-single - ----------------
#NOTES:
     dance-single:
     :
     Easy:
     4:
     0.191,0.199,0.019,0.231,0.000: // measure 1
0000
0000
0000
0000
,  // measure 2
0000
0000
0000
0000
,  // measure 3
0000
0000
0000
0000
,  // measure 4
0000
0000
0000
0000
,  // measure 5
0000
0000
0000
0000
,  // measure 6
2000
0000
0000
3000
,  // measure 7
0200
0000
0000
0300
,  // measure 8
0020
0000
0000
0030
,  // measure 9
0002
0000
0000
0003
,  // measure 10
0002
0000
1000
0000
,  // measure 11
0010
0010
0013
0000
,  // measure 12
2000
0000
0010
0000
,  // measure 13
0001
0001
3001
0000
,  // measure 14
0200
0000
0010
0000
,  // measure 15
0001
0001
0301
0000
,  // measure 16
0020
0000
0100
0000
,  // measure 17
1000
1000
1030
0000
,  // measure 18
1000
1000
1000
0000
,  // measure 19
0100
0000
0001
0000
,  // measure 20
0010
0010
0010
0000
,  // measure 21
0001
0000
0100
0000
,  // measure 22
1000
1000
1000
0000
,  // measure 23
0010
0000
1000
0000
,  // measure 24
0010
0010
0010
0000
,  // measure 25
0100
0000
0001
0000
,  // measure 26
2002
0000
0000
0000
,  // measure 27
0000
0000
0000
3003
,  // measure 28
1000
0000
1000
0000
,  // measure 29
1000
0000
1000
1000
,  // measure 30
0001
0000
0001
0000
,  // measure 31
0001
0000
0001
0001
,  // measure 32
0100
0000
0100
0000
,  // measure 33
0100
0100
0100
0000
,  // measure 34
0020
0000
0000
0030
,  // measure 35
2000
0000
0000
3000
,  // measure 36
0002
0000
0000
0003
,  // measure 37
0020
0000
0000
0030
,  // measure 38
0002
0000
0000
0003
,  // measure 39
2000
0000
0000
3000
,  // measure 40
0200
0000
0000
0300
,  // measure 41
0020
0000
0000
0030
,  // measure 42
0001
0010
0001
0000
,  // measure 43
1000
0010
1000
0000
,  // measure 44
0001
0100
0001
0000
,  // measure 45
1000
0100
1000
0000
,  // measure 46
1000
0001
1000
0000
,  // measure 47
0001
1000
0001
0000
,  // measure 48
0100
0010
0100
0000
,  // measure 49
0010
0100
0010
0000
,  // measure 50
2000
0000
0100
0000
,  // measure 51
0010
0010
3010
0000
,  // measure 52
0002
0000
0100
0000
,  // measure 53
0010
0010
0013
0000
,  // measure 54
0200
0000
0001
0000
,  // measure 55
0010
0010
0310
0000
,  // measure 56
0020
0000
1000
0000
,  // measure 57
0100
0100
0130
0000
,  // measure 58
2002
0000
0000
0000
,  // measure 59
0000
0000
0000
0000
,  // measure 60
3003
0000
0000
0000
;

//---------------dance-single - Chewi----------------
#NOTES:
     dance-single:
     Chewi:
     Medium:
     6:
     0.301,0.313,0.173,0.279,0.000: // measure 1
0000
0000
0000
0000
,  // measure 2
0000
0000
0000
0000
,  // measure 3
0000
0000
0000
0000
,  // measure 4
0000
0000
0000
0000
,  // measure 5
0000
0000
0000
0000
,  // measure 6
2000
0000
3200
0000
,  // measure 7
0302
0000
0023
0000
,  // measure 8
2030
0000
3200
0000
,  // measure 9
0302
0000
0023
0000
,  // measure 10
0130
0100
0100
0100
,  // measure 11
0010
0010
0010
0010
,  // measure 12
1000
0100
0010
0001
,  // measure 13
1000
0100
0010
0001
,  // measure 14
0001
0001
0001
0001
,  // measure 15
1000
1000
1000
1000
,  // measure 16
0010
0100
0001
1000
,  // measure 17
0010
0100
1000
0001
,  // measure 18
2000
0000
3020
0000
,  // measure 19
0032
0000
0203
0000
,  // measure 20
2300
0000
3020
0000
,  // measure 21
0032
0000
0203
0000
,  // measure 22
1300
1000
1000
1000
,  // measure 23
0010
0010
0010
0010
,  // measure 24
0100
0100
0100
0100
,  // measure 25
0001
0001
0001
0001
,  // measure 26
1001
0000
1001
0000
,  // measure 27
1001
0000
0000
0000
1000
0001
1000
0000
,  // measure 28
0011
0000
0011
0000
,  // measure 29
0011
0000
0000
0000
0001
0010
0001
0000
,  // measure 30
1100
0000
1100
0000
,  // measure 31
1100
0000
0000
0000
1000
0100
1000
0000
,  // measure 32
1001
0000
1001
0000
,  // measure 33
1001
0000
0000
0000
1000
0001
1000
0000
,  // measure 34
0001
0100
1000
0010
,  // measure 35
0001
0100
1000
0010
,  // measure 36
1000
0100
0001
0010
,  // measure 37
1000
0100
0001
0010
,  // measure 38
0001
0100
1000
0010
,  // measure 39
0001
0100
1000
0010
,  // measure 40
0001
0010
1000
0100
,  // measure 41
0001
0010
1000
0100
,  // measure 42
0002
0000
0023
0000
,  // measure 43
0032
0000
0203
0000
,  // measure 44
0310
0000
0010
0000
0010
0100
0010
0000
,  // measure 45
0100
0010
1000
0001
,  // measure 46
2000
0000
3200
0000
,  // measure 47
2300
0000
3020
0000
,  // measure 48
0130
0000
0001
0000
0010
0001
0010
0000
,  // measure 49
0001
0100
0010
1000
,  // measure 50
1001
0001
1001
0000
,  // measure 51
1000
0100
0010
0001
,  // measure 52
0011
0010
0011
0000
,  // measure 53
0001
0010
0100
1000
,  // measure 54
1100
0100
1100
0000
,  // measure 55
1000
0010
0100
0001
,  // measure 56
0200
0000
0320
0000
,  // measure 57
2030
0000
3002
0000
,  // measure 58
2003
0000
0000
0000
,  // measure 59
0000
0000
0000
0000
,  // measure 60
3000
0000
0000
0000
;
