#VERSION:0.83;
#TITLE:Vi ska aldrig gå hem;
#SUBTITLE:;
#ARTIST:Molly Sandén;
#TITLETRANSLIT:Vi ska aldrig ga hem;
#SUBTITLETRANSLIT:;
#ARTISTTRANSLIT:Molly Sanden;
#GENRE:;
#ORIGIN:;
#TAGS:;
#CREDIT:Tiffany West;
#BANNER:Vi ska aldrig ga hem.png;
#BACKGROUND:Vi ska aldrig ga hem-bg.png;
#PREVIEWVID:;
#JACKET:Vi ska aldrig ga hem-jacket.png;
#CDIMAGE:;
#DISCIMAGE:;
#LYRICSPATH:;
#CDTITLE:cdtitle.png;
#MUSIC:Vi ska aldrig ga hem.ogg;
#OFFSET:-0.004000;
#SAMPLESTART:30.724001;
#SAMPLELENGTH:12.000000;
#SELECTABLE:YES;
#BPMS:0.000000=124.999992,
128.000000=62.499996,
158.000000=124.999992;
#STOPS:158.000000=1.440000;
#DELAYS:;
#WARPS:;
#TIMESIGNATURES:0.000000=4=4;
#TICKCOUNTS:0.000000=4;
#COMBOS:0.000000=1;
#SPEEDS:0.000000=1.000000=0.000000=0;
#SCROLLS:0.000000=1.000000;
#FAKES:;
#LABELS:0.000000=Song Start;
#BGCHANGES:-0.004=Vi ska aldrig ga hem.avi=1.000=1=0=1===CrossFade==,
223.000=Vi ska aldrig ga hem-bg.png=1.000=1=0=1===CrossFade==,
99999.000=-nosongbg-=1.000=0=0=0=StretchNoLoop====,
99999=-nosongbg-=1.000=0=0=0 // don't automatically add -songbackground-
;
#KEYSOUNDS:;
#ATTACKS:
;

//---------------dance-single - Tiffany West----------------
#NOTEDATA:;
#CHARTNAME:Tiffany West;
#CHARTHASH:1092616192;
#STEPSTYPE:dance-single;
#BANNER:;
#DESCRIPTION:Tiffany West;
#CHARTSTYLE:;
#DIFFICULTY:Hard;
#METER:10;
#METERF:0.000000;
#RADARVALUES:0.391877,0.473011,0.160888,0.128710,0.064355,341.000000,321.000000,20.000000,16.000000,0.000000,0.000000,0.000000,0.000000,0.000000,0.391877,0.473011,0.160888,0.128710,0.064355,341.000000,321.000000,20.000000,16.000000,0.000000,0.000000,0.000000,0.000000,0.000000;
#CREDIT:Tiffany West;
#NOTES:
// measure 0
0000
0000
0000
0000
,  // measure 1
0000
0000
0000
0000
,  // measure 2
0000
0000
0000
0000
,  // measure 3
0000
0000
0000
0000
,  // measure 4
1000
0010
1000
0010
0100
0001
0100
0001
,  // measure 5
0010
0001
0010
0001
0010
0100
0010
0100
,  // measure 6
0000
0000
1000
0000
0001
0001
0100
0000
,  // measure 7
0010
0000
1000
0000
0010
1000
0001
0010
,  // measure 8
0001
0010
0001
0000
0010
0100
0010
0000
,  // measure 9
0100
1000
0010
0100
0001
0010
0001
0000
,  // measure 10
1000
0010
1000
0000
0010
0100
0010
0000
,  // measure 11
0100
0001
0010
0100
1000
0010
1000
0010
,  // measure 12
0100
0010
0100
0000
0001
1000
0001
0000
,  // measure 13
0010
0100
1000
0010
0100
0001
0001
0001
,  // measure 14
0000
0000
1000
0010
0100
0001
0001
0001
,  // measure 15
0000
0000
0000
0000
1000
0000
0001
0000
1000
0000
0000
0000
0001
1000
0001
1000
,  // measure 16
0001
0000
0000
0001
0100
0000
0000
0000
0010
0000
1000
0000
1010
0000
1010
0000
,  // measure 17
0000
0000
0010
1000
0100
1000
1000
0000
,  // measure 18
0010
1000
0010
0000
0100
0001
0100
0000
0001
0000
1000
0000
1001
0000
1001
0000
,  // measure 19
0000
0000
1000
0100
0010
0100
1000
0000
,  // measure 20
1000
0000
0000
1000
0010
0000
0000
0000
0100
0000
0001
0000
0101
0000
0101
0000
,  // measure 21
0000
0000
0001
0010
0100
1000
1000
0000
,  // measure 22
0100
0010
0100
0000
0010
0001
0010
0000
0001
0000
1000
0000
1001
0000
1001
0000
,  // measure 23
0001
1000
0001
1000
0010
1000
0010
1000
,  // measure 24
0200
0010
0310
0000
0001
0100
1000
0001
,  // measure 25
0020
1000
1030
0000
2000
0010
3010
1000
,  // measure 26
1000
0010
0001
1000
0100
0001
0010
0100
,  // measure 27
0100
1000
0001
0100
0001
0001
0100
0000
,  // measure 28
0001
0000
0000
0001
0100
0000
0000
0000
0010
0000
1000
0000
1010
0000
1010
0000
,  // measure 29
0000
0000
0010
1000
0100
1000
1000
0000
,  // measure 30
0010
0000
0100
0001
0010
0001
0100
0000
,  // measure 31
0100
0100
0010
0010
1000
1000
0001
0001
,  // measure 32
2000
0000
3200
0000
,  // measure 33
0320
0000
0032
0000
,  // measure 34
0203
0000
0320
0000
,  // measure 35
2030
0000
3002
0000
,  // measure 36
1003
1000
0000
0000
0000
0000
0000
0000
,  // measure 37
0001
0001
0000
0000
0000
0000
0000
0000
,  // measure 38
0100
0100
0000
0000
0000
0000
0000
0000
,  // measure 39
0010
0000
0000
0000
0010
0000
0000
0000
0010
0000
0000
0000
1000
0000
0000
1000
,  // measure 40
0010
0000
0100
0001
0101
0101
0000
0000
,  // measure 41
0100
0000
0001
0000
0010
0000
0001
0000
0001
0000
0000
0000
0100
0001
0100
0000
,  // measure 42
0010
1000
0010
0000
1000
0000
0001
0000
1001
0000
1001
0000
0000
0000
0000
0000
,  // measure 43
0001
0000
0010
0000
0100
0000
0010
0000
0001
0000
0000
0000
0001
0000
0000
0001
,  // measure 44
0100
0000
0010
1000
1010
1010
0000
0000
,  // measure 45
1000
0000
0100
0000
0010
0000
0001
0000
0001
0000
0000
0000
0010
0100
0010
0000
,  // measure 46
0100
1000
0100
0000
1000
0000
0001
0000
1001
0000
1001
0000
1000
0000
0001
0000
,  // measure 47
1000
0001
0100
0001
0100
0001
0020
0100
,  // measure 48
0130
0000
1000
0010
0001
1000
0200
0001
,  // measure 49
0301
0000
0002
0100
0103
0001
0001
0100
,  // measure 50
1000
0001
0010
1000
0100
0010
0010
0001
,  // measure 51
1000
0000
0010
0000
1000
0000
1000
0000
0010
0000
0000
0000
1000
0000
0000
1000
,  // measure 52
0010
0000
0100
0001
0101
0101
0000
0000
,  // measure 53
0100
0001
0010
0001
0001
0000
0100
0000
,  // measure 54
0010
1000
0100
1000
0010
0000
0010
0010
,  // measure 55
0100
0100
0001
0001
2000
0000
0002
0000
,  // measure 56
3003
0000
0000
0000
;

//---------------dance-single - Tiffany West----------------
#NOTEDATA:;
#CHARTNAME:Tiffany West;
#CHARTHASH:90;
#STEPSTYPE:dance-single;
#BANNER:;
#DESCRIPTION:Tiffany West;
#CHARTSTYLE:;
#DIFFICULTY:Beginner;
#METER:1;
#METERF:0.000000;
#RADARVALUES:0.000000,0.000000,0.000000,0.000000,0.000000,0.000000,0.000000,0.000000,0.000000,0.000000,0.000000,0.000000,0.000000,0.000000,0.000000,0.000000,0.000000,0.000000,0.000000,0.000000,0.000000,0.000000,0.000000,0.000000,0.000000,0.000000,0.000000,0.000000;
#CREDIT:Tiffany West;
#NOTES:
0000
0000
0000
0000
,
0000
0000
0000
0000
,
0000
0000
0000
0000
,
0000
0000
0000
0000
,
0010
0000
0000
0000
,
0100
0000
0000
0000
,
0001
0000
0000
0000
,
1000
0000
0000
0000
,
1000
0000
0000
0000
,
0100
0000
0000
0000
,
0010
0000
0000
0000
,
0001
0000
0000
0000
,
0001
0000
0000
0000
,
0010
0000
0000
0000
,
0100
0000
0000
0000
,
1000
0000
0000
0000
,
1001
0000
0000
0000
,
0100
0000
0000
0000
,
0100
0000
0000
0000
,
0010
0000
0000
0000
,
0110
0000
0000
0000
,
1000
0000
0000
0000
,
0001
0000
0000
0000
,
0001
0000
0000
0000
,
1000
0000
0000
0000
,
1000
0000
0000
0000
,
0100
0000
0000
0000
,
0100
0000
0000
0000
,
0001
0000
0000
0000
,
0001
0000
0000
0000
,
0010
0000
0000
0000
,
0010
0000
0000
0000
,
0020
0000
0000
0030
,
0010
0000
0000
0000
,
0200
0000
0000
0300
,
0100
0000
0000
0000
,
1000
0000
1000
0000
,
0001
0000
0001
0000
,
0100
0000
0100
0000
,
0010
0000
0010
1001
,
0000
0000
0000
0010
,
0000
0000
0000
0010
,
0000
0000
0000
0100
,
0000
0000
0000
0110
,
0000
0000
0000
0001
,
0000
0000
0000
1000
,
0000
0000
0000
1000
,
0000
0000
0000
0001
,
0000
0000
0000
0001
,
0000
0000
0000
0010
,
0000
0000
0000
0010
,
0000
0000
0000
1000
,
0000
0000
0000
1000
,
0000
0000
0000
0100
,
0000
0000
0000
0100
,
0000
0000
0000
0100
;

//---------------dance-single - Tiffany West----------------
#NOTEDATA:;
#CHARTNAME:Tiffany West;
#CHARTHASH:4271898624;
#STEPSTYPE:dance-single;
#BANNER:;
#DESCRIPTION:Tiffany West;
#CHARTSTYLE:;
#DIFFICULTY:Easy;
#METER:4;
#METERF:0.000000;
#RADARVALUES:0.000000,0.000000,0.000000,0.000000,0.000000,0.000000,0.000000,0.000000,0.000000,0.000000,0.000000,0.000000,0.000000,0.000000,0.000000,0.000000,0.000000,0.000000,0.000000,0.000000,0.000000,0.000000,0.000000,0.000000,0.000000,0.000000,0.000000,0.000000;
#CREDIT:Tiffany West;
#NOTES:
0000
0000
0000
0000
,
0000
0000
0000
0000
,
0000
0000
0000
0000
,
0000
0000
0000
0000
,
1000
1000
0100
0000
,
0100
0100
1000
0000
,
1000
0100
1000
0000
,
0001
0100
0001
0000
,
0100
0000
0100
0000
,
0010
0000
0010
0000
,
1000
0000
1000
0000
,
0001
0000
0001
0000
,
0010
0000
0010
0000
,
0100
0000
0100
0000
,
1000
0000
1000
0000
,
0001
0000
0001
0000
,
1001
0000
0001
0000
,
1000
0001
0100
0000
,
0010
0000
0100
0000
,
0001
0010
0100
1000
,
1001
0000
1000
0000
,
0001
1000
0100
0000
,
0010
0000
0100
0000
,
1000
0010
0100
0001
,
0200
0010
0001
0310
,
2000
3000
0002
0003
,
0020
0001
0100
0031
,
0002
0003
2000
3000
,
1000
1000
0100
0000
,
0001
0001
0100
0000
,
1000
1000
0010
0000
,
0001
0001
0010
0000
,
0020
0000
0000
0000
,
0230
0000
0000
0000
,
2300
0000
0000
0000
,
3002
0000
0000
0000
,
1003
1000
0000
0000
1000
0000
0000
0000
,
0001
0001
0000
0000
0001
0000
0000
0000
,
0100
0100
0000
0000
0100
0000
0000
0000
,
0001
1000
0001
1001
,
0000
1000
0000
0001
,
1000
0010
0000
0100
,
0000
0010
0000
1000
,
0100
0010
0001
1001
,
0000
0001
0000
1000
,
0001
0010
0000
0100
,
0000
0010
0000
0001
,
0100
0010
1000
0020
,
0100
1000
0130
0002
,
0003
2000
3000
0200
,
1000
0010
1300
2000
,
3000
0002
0003
0001
,
0001
0010
0000
1000
,
1000
0010
0000
0001
,
0001
0100
0000
1000
,
1000
0100
0000
0100
;

//---------------dance-single - Tiffany West----------------
#NOTEDATA:;
#CHARTNAME:Tiffany West;
#CHARTHASH:1092616192;
#STEPSTYPE:dance-single;
#BANNER:;
#DESCRIPTION:Tiffany West;
#CHARTSTYLE:;
#DIFFICULTY:Medium;
#METER:7;
#METERF:0.000000;
#RADARVALUES:0.000000,0.000000,0.000000,0.000000,0.000000,0.000000,0.000000,0.000000,0.000000,0.000000,0.000000,0.000000,0.000000,0.000000,0.000000,0.000000,0.000000,0.000000,0.000000,0.000000,0.000000,0.000000,0.000000,0.000000,0.000000,0.000000,0.000000,0.000000;
#CREDIT:Tiffany West;
#NOTES:
0000
0000
0000
0000
,
0000
0000
0000
0000
,
0000
0000
0000
0000
,
0000
0000
0000
0000
,
0010
0000
0100
0000
0001
1000
0001
0000
,
1000
0000
0100
0000
0010
0001
0010
0000
,
0001
0100
0101
0000
,
1000
0000
0100
0000
1100
0000
0100
0100
,
0200
0010
0001
0310
,
0002
0100
1000
0103
,
0200
0010
1000
0310
,
2000
0000
0100
0000
0001
0000
3100
0100
,
0020
0100
1000
0130
,
2000
0010
0001
3010
,
0020
0100
0001
0130
,
0002
0000
0010
0000
1000
0000
0013
0010
,
0100
0000
1000
0000
0100
1000
0100
1000
,
0000
0000
1000
0010
1000
0010
1000
0000
,
0010
0110
0100
0101
,
0001
1001
1000
1100
,
0010
0000
0001
0000
0010
0001
0010
0001
,
0000
0000
0001
0100
0001
0100
0001
0000
,
0100
0110
0010
1010
,
1000
1001
0001
0011
,
0001
0010
1000
0001
,
0100
0000
1000
0000
0001
0001
0001
0000
,
1000
0010
0001
1000
,
0100
0000
0001
0000
1000
1000
1000
0000
,
0001
0000
1000
0000
0001
1000
0001
1000
,
0000
0000
0100
0010
0100
0010
0100
0000
,
0000
0000
0010
0001
0010
0001
0010
0000
,
0000
0000
0001
0100
0001
0100
0001
0000
,
0200
0000
0320
0000
,
2030
0000
3002
0000
,
0023
0000
0230
0000
,
2300
0000
3002
0000
,
1003
1000
0000
0000
0001
0000
0100
0000
,
0010
0010
0000
0000
1000
0000
0100
0000
,
0010
0010
0000
0000
0100
0000
1000
0000
,
0001
1000
0000
0010
,
1000
0000
0010
1000
0010
1000
0000
0000
,
1000
0100
1000
0100
1000
0000
0100
0000
,
0110
0010
0011
0001
,
1001
1000
1010
0100
,
0001
0000
0100
0001
0100
0001
0000
0000
,
0001
0010
0001
0010
0001
0000
0010
0000
,
0110
0100
1100
1000
,
1001
0001
0101
0001
,
0100
1000
0001
0010
,
1000
0000
0001
0001
0001
0000
1000
0000
,
0100
0001
1000
0010
,
0001
0000
1000
1000
1000
0000
0001
0000
,
1000
0000
0001
1000
0001
1000
0000
0000
,
0010
0100
0010
0100
0010
0000
0000
0000
,
0100
0001
0100
0001
0100
0000
0000
0000
,
0001
0010
0001
0010
0001
0000
0010
0000
;
