#VERSION:0.83;
#TITLE:Venus Fly;
#SUBTITLE:;
#ARTIST:Grimes feat. Janelle MonĂ¡e;
#TITLETRANSLIT:;
#SUBTITLETRANSLIT:;
#ARTISTTRANSLIT:Grimes feat. Janelle Monae;
#GENRE:;
#ORIGIN:;
#CREDIT:;
#BANNER:Venus Fly.png;
#BACKGROUND:Venus Fly-bg.png;
#PREVIEWVID:;
#JACKET:Venus Fly-jacket.png;
#CDIMAGE:;
#DISCIMAGE:;
#LYRICSPATH:;
#CDTITLE:cdtitle.png;
#MUSIC:Venus Fly.ogg;
#OFFSET:0.005000;
#SAMPLESTART:59.818001;
#SAMPLELENGTH:12.000000;
#SELECTABLE:YES;
#BPMS:0.000=64.189,
16.000=128.378,
80.000=64.189,
96.000=256.756,
224.000=64.189;
#STOPS:;
#DELAYS:;
#WARPS:;
#TIMESIGNATURES:0.000=4=4;
#TICKCOUNTS:0.000=4;
#COMBOS:0.000=1;
#SPEEDS:0.000=1.000=0.000=0;
#SCROLLS:0.000=1.000;
#FAKES:;
#LABELS:0.000=Song Start;
#BGCHANGES:0.000=Venus Fly.avi=1.000=1=0=1===CrossFade==,
224.000=Venus Fly-bg.png=1.000=1=0=1===CrossFade==,
99999=-nosongbg-=1.000=0=0=0 // don't automatically add -songbackground-
;
#KEYSOUNDS:;
#ATTACKS:
;

//---------------dance-single - chewi & Pie-kun----------------
#NOTEDATA:;
#CHARTNAME:;
#STEPSTYPE:dance-single;
#DESCRIPTION:chewi & Pie-kun;
#CHARTSTYLE:;
#DIFFICULTY:Hard;
#METER:13;
#RADARVALUES:0.585511,0.838978,0.074909,0.000000,0.304986,383.000000,376.000000,7.000000,0.000000,0.000000,0.000000,0.000000,0.000000,0.000000,0.585511,0.838978,0.074909,0.000000,0.304986,383.000000,376.000000,7.000000,0.000000,0.000000,0.000000,0.000000,0.000000,0.000000;
#CREDIT:chewi & Pie-kun;
#NOTES:
0000
0000
0000
0000
,
0000
0000
0000
0000
,
0010
0000
0000
0010
0100
0000
0000
0100
0001
0010
0000
0000
0100
0000
1000
0000
,
0001
0010
0100
0010
0001
0100
0010
0100
0000
0000
0010
0100
0001
0100
0010
0100
,
0001
0000
0000
0000
0001
0000
0000
0000
0010
0000
0000
0100
0000
0000
1000
0000
,
0010
0000
0000
0000
0010
0000
0000
0000
0100
0000
0000
0001
0000
0000
1000
0000
,
0010
0000
0000
0000
0010
0000
0000
0000
0001
0000
0000
0010
0000
0000
1000
0000
,
0001
0000
0000
0000
0001
0000
0000
0000
1000
0000
0000
0100
0000
0000
0001
0000
,
0100
0000
1000
0000
0010
0000
0100
0000
0001
0000
0100
0001
0100
0001
0100
0000
,
0010
1000
0001
0100
0101
0100
0010
0010
,
1001
0000
0010
0000
0001
0000
1000
0000
0010
0000
1000
0010
1000
0010
1000
0000
,
0001
0000
1000
0000
0100
0000
0010
0000
0100
0000
1000
0000
0001
1000
0001
1000
,
0001
0000
0000
0000
1000
0000
1000
0000
0010
0100
0001
0100
0010
0000
0100
0000
,
0000
0000
0000
0000
0001
0000
0001
0000
0010
0100
1000
0100
0010
0000
0100
0000
,
1000
0000
0000
0000
0010
0001
0010
0000
0010
0000
1000
0000
1100
0000
0000
0000
,
0100
0000
0100
0000
0010
0000
0001
1000
0010
0000
0100
0000
0001
0100
0001
0100
,
0001
0000
0000
0000
0100
0000
0001
0000
0010
0000
0100
1000
0100
0000
1000
0100
,
1000
0000
0000
0000
1000
0000
0010
0000
0100
0000
0001
1000
0010
0000
0010
1000
,
0001
0000
0000
0000
0010
0100
0010
0000
0100
0000
0100
0000
1000
0000
1000
0000
,
0001
0000
0000
0000
1000
0001
0000
0000
0001
0100
0000
0000
0101
0000
0000
0000
,
1010
0000
0010
0100
0010
1000
0100
0000
0000
1000
0100
0010
0100
1000
0010
0100
,
0000
1000
0100
0010
1000
0100
0010
0100
1000
0000
0010
0000
1000
0001
0100
0000
,
0101
0000
0100
0010
0100
0001
0010
0000
0000
0001
0010
0100
0010
0001
0100
0010
,
0000
0001
0010
0100
0001
0010
0100
0010
0001
0000
0100
0000
0001
1000
0010
0000
,
1000
0000
0100
0010
0100
0000
1000
0001
,
1000
0001
1000
0000
0001
0000
1000
0000
,
0010
0000
0100
0001
0100
0000
0001
0010
,
0001
0010
0001
0000
0010
0000
0100
0000
,
1000
0000
0001
1000
0001
0000
1000
0100
,
1000
0100
1000
0000
0100
0000
0010
0000
,
0100
0000
1000
0010
0100
0000
0001
0100
,
0010
1000
0001
0000
1000
0000
1000
0000
,
0001
0010
0100
1000
0100
0000
0100
1000
,
0100
1000
0100
1000
0100
0000
0100
0010
,
0001
0000
0001
0010
0100
0000
1000
0010
,
0100
0001
1000
0000
0100
0000
0100
0000
,
0000
0000
0010
0001
0010
0000
0001
1000
,
0010
0100
0001
0000
0100
0000
0010
0000
,
0100
0000
0001
0010
0100
0000
1000
0100
,
1000
0100
1000
0000
0100
0000
1000
0000
,
0001
0000
0010
0100
0010
0000
0001
1000
,
0001
1000
0001
0000
1000
0000
0001
0000
,
0100
0000
0010
1000
0010
0000
1000
0100
,
1000
0100
1000
0000
0100
0000
0010
0000
,
0001
0000
1000
0001
1000
0000
0001
0010
,
0001
0010
0001
0000
0010
0000
0100
0000
,
0010
0000
0001
0100
0010
0000
1000
0010
,
0100
0001
1000
0000
0001
0000
0001
0000
,
1000
0100
0010
0001
0010
0000
0010
0001
,
0010
0001
0010
0001
0010
0000
0010
0100
,
1000
0000
1000
0100
0010
0000
0001
0100
,
0010
1000
0001
0000
0010
0000
0010
0000
,
0001
0000
0100
0000
0010
0000
1000
0001
,
0100
0010
1000
0000
0010
0000
0100
0000
,
0001
0000
1000
0100
0010
0000
0001
0000
,
1000
0100
1000
0001
,
1001
0000
0000
0000
;

//---------------dance-single - ----------------
#NOTEDATA:;
#CHARTNAME:;
#STEPSTYPE:dance-single;
#DESCRIPTION:;
#CHARTSTYLE:;
#DIFFICULTY:Medium;
#METER:10;
#RADARVALUES:0.391360,0.809015,0.096311,0.000000,0.176571,256.000000,247.000000,9.000000,0.000000,0.000000,0.000000,0.000000,0.000000,0.000000,0.391360,0.809015,0.096311,0.000000,0.176571,256.000000,247.000000,9.000000,0.000000,0.000000,0.000000,0.000000,0.000000,0.000000;
#CREDIT:chewi;
#NOTES:
0000
0000
0000
0000
,
0000
0000
0000
0000
,
1000
0000
0000
0100
1000
0000
0000
1000
0010
0000
0000
0000
0010
0000
0100
0000
,
0001
0000
0000
0001
0100
0000
0000
0000
0100
0000
0010
0000
1000
0000
0001
0000
,
1000
0000
0000
0000
0100
0000
0000
0000
1000
0000
0000
1000
0000
0000
1000
0000
,
0100
0000
0000
0000
0010
0000
0000
0000
0001
0000
0000
0001
0000
0000
0001
0000
,
1000
0000
0000
0000
0010
0000
0000
0000
0100
0000
0000
0100
0000
0000
0100
0000
,
0010
0000
0000
0000
1000
0000
0000
0000
0001
0000
0000
0100
0000
0000
0001
0000
,
0001
0000
0000
0000
0010
0000
0000
0000
0001
0000
0000
0001
0000
0000
0001
0000
,
0010
0000
0000
0000
0100
0000
0000
0000
1000
0000
0000
1000
0000
0000
1000
0000
,
0001
0000
0000
0000
0100
0000
0000
0000
0010
0000
0000
0010
0000
0000
0010
0000
,
0100
0000
0000
0000
0001
0000
0000
0000
1000
0000
0000
0010
0000
0000
1000
0000
,
0001
1000
1100
0101
,
0100
0010
1010
0011
,
1001
0000
1000
0001
0100
0001
1000
0000
,
0001
1000
0100
1000
0001
0001
0100
0000
,
0110
0000
0010
1000
0100
1000
0010
0010
,
0010
0000
0100
0001
0010
0001
0100
0100
,
0100
0000
0010
1000
0100
0010
0001
0100
,
0010
0000
0000
0000
0100
0001
0000
0000
0001
0100
0000
0000
0101
0000
0000
0000
,
1001
0000
1000
0000
0001
1000
0100
0000
0000
0100
0010
0001
1000
0100
0010
0001
,
0000
0001
0010
0100
1000
0001
0010
0100
1000
0000
0001
0000
0100
0100
0100
0000
,
1001
0000
0001
0000
1000
0001
0010
0000
0000
0010
0100
1000
0001
0010
0100
1000
,
0000
1000
0100
0010
0001
1000
0100
0010
0001
0000
1000
0000
0010
0010
0010
0000
,
0100
0000
0100
0000
,
0100
0001
0100
0010
,
1000
0000
1000
0000
,
1000
0100
0010
0001
,
0010
0000
0010
0000
,
0100
1000
0010
1000
,
0100
0000
0100
0000
,
0010
0001
1000
0010
,
0100
0000
0100
0000
,
0001
0100
0010
0100
,
0001
0000
0001
0000
,
1000
0010
0100
0010
,
1000
0000
1000
0000
,
0001
0010
0100
1000
,
0100
0000
0100
0000
,
0010
0001
1000
0010
,
0010
0000
0010
0000
,
0010
1000
0010
0100
,
0001
0000
0001
0000
,
0001
0010
0100
1000
,
0100
0000
0100
0000
,
0010
0001
0100
0001
,
0010
0000
0010
0000
,
0100
1000
0001
0100
,
0010
0000
0010
0000
,
1000
0010
0100
0010
,
1000
0000
1000
0000
,
0001
0100
0010
0100
,
0001
0000
0001
0000
,
1000
0100
0010
0001
,
0010
0000
0010
0000
,
0100
1000
0001
0100
,
0100
0000
0000
0000
;

//---------------dance-single - ----------------
#NOTEDATA:;
#CHARTNAME:;
#STEPSTYPE:dance-single;
#DESCRIPTION:;
#CHARTSTYLE:;
#DIFFICULTY:Easy;
#METER:6;
#RADARVALUES:0.244600,0.449453,0.053506,0.000000,0.000000,160.000000,155.000000,5.000000,0.000000,0.000000,0.000000,0.000000,0.000000,0.000000,0.244600,0.449453,0.053506,0.000000,0.000000,160.000000,155.000000,5.000000,0.000000,0.000000,0.000000,0.000000,0.000000,0.000000;
#CREDIT:chewi;
#NOTES:
0000
0000
0000
0000
,
0000
0000
0000
0000
,
1000
0000
1000
0000
0001
0000
0001
0100
,
0010
0000
1000
0000
0001
0000
0100
0010
,
1000
0100
1000
0000
,
0100
0001
0100
0000
,
0001
0010
0001
0000
,
0010
1000
0010
0000
,
1000
0100
0010
0000
,
0001
0100
0010
0000
,
0100
0010
1000
0000
,
0100
0010
0001
0000
,
1000
0001
1000
1000
,
0001
1000
0001
0001
,
1000
0001
0100
0100
,
0010
1000
0001
0001
,
1000
0100
0010
0001
,
0001
0010
0100
1000
,
0001
0100
0010
1000
,
1000
0010
0100
0001
,
1001
0000
1000
0001
0000
1000
0001
1000
,
0001
1000
0001
1000
0100
0000
0100
0000
,
1001
0000
0001
1000
0000
0001
1000
0001
,
1000
0001
1000
0001
0010
0000
0010
0000
,
0001
0000
0001
0000
,
0001
0000
0001
0000
,
1000
0000
1000
0000
,
1000
0000
1000
0000
,
0010
0000
0010
0000
,
0010
0000
0010
0000
,
0100
0000
0100
0000
,
0100
0000
0100
0000
,
0001
0000
0100
0000
,
0001
0000
0100
0000
,
0010
0000
1000
0000
,
0010
0000
1000
0000
,
1000
0000
0100
0000
,
1000
0000
0100
0000
,
0010
0000
0001
0000
,
0010
0000
0001
0000
,
1001
0000
0001
0000
,
1000
0000
0001
0000
,
0100
0000
0100
0000
,
0010
0000
0010
0000
,
0110
0000
0100
0000
,
0010
0000
1000
0000
,
0100
0000
0100
0000
,
0010
0000
0010
0000
,
1001
0000
1000
0000
,
0001
0000
1000
0000
,
0001
0000
0010
0000
,
0100
0000
1000
0000
,
0001
0000
0010
0000
,
0100
0000
1000
0000
,
0001
0000
0001
0000
,
1000
0000
1000
0000
,
0010
0000
0000
0000
;

//---------------dance-single - ----------------
#NOTEDATA:;
#CHARTNAME:;
#STEPSTYPE:dance-single;
#DESCRIPTION:;
#CHARTSTYLE:;
#DIFFICULTY:Beginner;
#METER:3;
#RADARVALUES:0.131473,0.269672,0.074909,0.042805,0.000000,86.000000,79.000000,7.000000,4.000000,0.000000,0.000000,0.000000,0.000000,0.000000,0.131473,0.269672,0.074909,0.042805,0.000000,86.000000,79.000000,7.000000,4.000000,0.000000,0.000000,0.000000,0.000000,0.000000;
#CREDIT:chewi;
#NOTES:
// measure 0
0000
0000
0000
0000
,  // measure 1
0000
0000
0000
0000
,  // measure 2
1000
0000
0001
0000
,  // measure 3
0010
0000
0100
0000
,  // measure 4
1000
0000
1000
0000
,  // measure 5
0100
0000
0100
0000
,  // measure 6
0001
0000
0001
0000
,  // measure 7
0010
0000
0010
0000
,  // measure 8
1000
0000
0010
0000
,  // measure 9
0001
0000
0010
0000
,  // measure 10
0100
0000
1000
0000
,  // measure 11
0100
0000
0001
0000
,  // measure 12
1000
0000
1000
0000
,  // measure 13
0001
0000
0001
0000
,  // measure 14
1000
0000
0100
0000
,  // measure 15
0010
0000
0001
0000
,  // measure 16
1000
0000
0010
0000
,  // measure 17
0001
0000
0100
0000
,  // measure 18
0001
0000
0010
0000
,  // measure 19
1000
0000
0100
0000
,  // measure 20
1001
1001
0000
0001
,  // measure 21
0000
0001
0000
0100
,  // measure 22
0110
0110
0000
0100
,  // measure 23
0000
0100
0000
0001
,  // measure 24
0002
0000
0000
0003
,  // measure 25
0001
0000
0000
0000
,  // measure 26
2000
0000
0000
3000
,  // measure 27
1000
0000
0000
0000
,  // measure 28
0020
0000
0000
0030
,  // measure 29
0010
0000
0000
0000
,  // measure 30
0200
0000
0000
0300
,  // measure 31
0100
0000
0000
0000
,  // measure 32
0001
0000
0000
0000
,  // measure 33
0001
0000
0000
0000
,  // measure 34
1000
0000
0000
0000
,  // measure 35
1000
0000
0000
0000
,  // measure 36
0100
0000
0000
0000
,  // measure 37
0100
0000
0000
0000
,  // measure 38
0010
0000
0000
0000
,  // measure 39
0010
0000
0000
0000
,  // measure 40
1001
0000
0000
0000
,  // measure 41
1000
0000
0000
0000
,  // measure 42
0100
0000
0000
0000
,  // measure 43
0100
0000
0000
0000
,  // measure 44
0110
0000
0000
0000
,  // measure 45
0010
0000
0000
0000
,  // measure 46
0010
0000
0000
0000
,  // measure 47
0001
0000
0000
0000
,  // measure 48
1001
0000
0000
0000
,  // measure 49
0001
0000
0000
0000
,  // measure 50
0001
0000
0000
0000
,  // measure 51
0100
0000
0000
0000
,  // measure 52
0010
0000
0000
0000
,  // measure 53
1000
0000
0000
0000
,  // measure 54
0001
0000
0000
0000
,  // measure 55
1000
0000
0000
0000
,  // measure 56
0100
0000
0000
0000
;
