#TITLE:VALLISTA;
#SUBTITLE:;
#ARTIST:削除 / Mentalstock;
#TITLETRANSLIT:;
#SUBTITLETRANSLIT:;
#ARTISTTRANSLIT:sakuzyo / Mentalstock;
#CREDIT:TaroNuke;
#BANNER:VALLISTA.png;
#BACKGROUND:VALLISTA-bg.png;
#LYRICSPATH:;
#CDTITLE:;
#MUSIC:VALLISTA.ogg;
#OFFSET:-0.247;
#SAMPLESTART:44.234;
#SAMPLELENGTH:12.000;
#SELECTABLE:YES;
#DISPLAYBPM:90.000:180.000;
#BPMS:0.000=90.000,32.000=360.000,34.000=180.000,162.000=90.000,170.000=180.000,250.000=90.000,258.000=180.000,337.500=360.000,338.500=180.000;
#STOPS:32.000=1.000
;
#BGCHANGES:;

//---------------dance-single - TaroNuke----------------
#NOTES:
     dance-single:
     TaroNuke:
     Challenge:
     18:
     0.882,1.000,0.409,0.363,0.860:
0000
0000
0000
0000
,
0000
0000
0000
0000
,
0000
0000
0000
0000
,
0000
0000
0000
0000
,
1000
0000
0000
1000
0100
0000
0000
0100
0001
0000
0000
0001
0010
0000
0000
0010
,
0001
0000
0000
0001
0100
0000
0000
0100
1000
0000
0000
1000
0010
0000
0000
0010
,
0001
0000
0000
0001
0100
0000
0000
0100
0001
0000
0000
0001
0010
0000
0000
0010
,
1000
0000
0000
1000
0100
0000
0000
0100
0001
0000
0000
0001
0010
0000
0000
0000
,
0000
0000
0000
0000
0000
0000
0000
0000
1000
0000
0001
0000
0010
0000
0001
1000
,
0100
1000
0001
0000
0010
0000
0001
0100
0001
0000
0010
0000
0100
0000
1000
0001
,
0010
0001
1000
0000
0010
0000
0100
0001
0010
0000
0100
0000
1000
0000
0001
0010
,
0100
1000
0001
0000
0100
0000
0010
1000
0100
0000
0010
0000
0001
0000
1000
0100
,
0010
0001
1000
0000
0010
0000
0100
0001
0100
0000
0010
0000
1000
0000
0001
0100
,
0010
1000
0001
0000
0010
0000
0100
0010
0001
0000
0100
0000
0001
0000
1000
0010
,
0100
0001
1000
0000
0010
0000
0100
0001
0010
0000
0100
0000
1000
0000
0001
0010
,
0100
0010
0001
0000
1000
0000
0010
0100
0001
0000
0010
0000
0100
0000
1000
0100
,
0010
0100
1000
0000
0001
0000
0010
0100
1000
0002
1000
0000
0103
0000
0001
0000
,
0100
0000
0010
0000
1010
0000
1000
0000
0100
2000
0100
0000
3001
0000
1000
0000
,
0010
0000
0100
0000
0101
0000
0001
0000
0010
0002
0010
0000
0103
0000
0001
0000
,
1000
0000
0010
0000
0110
0000
0100
0000
0001
0200
0010
0000
0301
0000
0100
0000
,
0010
0000
1000
0000
1000
0200
0010
0000
1300
0000
0100
0000
0010
0000
0001
0010
,
0100
0010
0001
0000
0010
0000
0100
1000
0010
0000
0100
0000
0001
0000
1000
0010
,
0100
0010
1000
0000
0010
0000
0100
0001
0010
0000
0100
0000
1000
0000
0001
0010
,
0100
0010
0001
0000
0010
0000
0100
1000
0010
0000
0100
0000
0001
0000
1000
0010
,
0100
0010
1000
0000
0010
0100
0001
0010
0001
0000
0001
0000
1000
0000
1000
0000
,
0010
0000
0100
0001
0100
0000
0010
0000
2000
0000
3020
0000
0230
0000
0302
0000
,
0023
2030
3020
0032
0203
1000
0302
0010
,
2003
0001
3200
1000
0320
0001
1000
0100
,
0032
0000
1000
0000
0010
0000
0100
0000
1003
0010
0100
0000
0010
0100
0001
0000
,
0100
0001
1000
0010
0100
0010
1000
0010
0200
0000
0302
0000
0023
0000
0230
0000
,
2300
3002
0203
0320
2030
0100
0100
0100
,
3200
0010
0010
0010
0320
0001
0001
0001
,
0032
0000
1000
0000
1000
0000
0000
0000
1003
0100
0010
0100
0001
0100
0010
0000
,
0001
0100
0010
0100
1000
0100
0010
0000
1000
0100
0010
0001
0100
0010
1000
0010
,
0100
0001
0100
0010
0100
1000
0100
0010
1000
0000
0001
0000
0100
0000
0010
1000
,
0010
0100
0010
1000
0010
0000
1000
0100
0010
0000
0001
0000
0100
0000
0010
0100
,
0010
0100
0010
0000
1000
0100
0000
0010
0001
0100
0010
0100
1000
0100
0010
0000
,
1000
0100
0010
0100
0001
0100
0010
0000
0001
0100
0010
0100
1000
0100
0010
0100
,
0001
0010
0100
0010
1000
0010
0100
1000
0001
0000
0001
0000
0100
0000
0010
1000
,
0010
0000
0000
1100
0000
0000
0110
0000
0011
0000
0001
0000
0100
0000
0010
1000
,
0100
0010
0001
0010
0100
1000
0000
1000
0001
0000
0000
1100
0000
0000
0001
0100
,
0101
0000
0000
1010
0000
0000
0100
0010
1010
0000
0000
0101
0000
0000
1000
0001
,
1000
0000
0000
1100
0000
0000
1000
0100
0010
0000
0001
0100
0001
0000
1000
0100
,
1000
0000
0001
0100
0001
0000
1000
0100
0010
0000
0001
0100
0010
0000
1000
0001
,
0010
0000
0001
1000
0010
0000
0100
0001
1000
0010
0100
0010
1000
0010
0100
0010
,
1000
0010
0001
0010
1000
0010
0001
0010
0200
0000
0000
0000
1000
0000
0000
0000
,
0302
0000
0000
0000
0000
0000
0000
0000
0000
0000
0000
0000
0013
0000
0100
0000
0010
0000
0100
0000
0010
0000
0100
0000
0010
0000
0000
0001
0000
0000
1000
0000
0000
0100
0000
0000
0020
0000
0000
0000
0000
0000
0000
0000
0000
0000
0000
0000
,
0031
0000
1000
0010
0100
0000
0110
0000
0000
0000
1100
0000
0010
0000
0101
0000
,
0010
0000
1100
0000
0010
0000
1001
0000
1000
0100
0010
0001
0100
0000
0010
0000
,
1000
0001
1000
0000
0100
0000
1010
0000
0100
0000
0011
0000
0100
0000
1010
0000
,
0100
0000
1001
0000
0001
0100
0001
0000
1000
0010
0100
0001
0020
0000
0000
0000
,
0031
0110
1100
1010
0100
0011
0100
1010
,
0100
0000
1001
0000
0011
0000
1001
0000
1000
0100
0010
0100
1000
0100
0001
0100
,
1000
0010
0100
0001
0010
1000
0010
0001
1000
0010
0001
0010
0100
0001
0010
0100
,
1000
0100
0010
0001
1000
0010
0100
0010
1000
0000
0100
0000
1100
0000
0100
0010
,
0001
0000
0100
0000
0101
0000
0001
0010
0001
0000
0010
0000
0011
0000
0010
0100
,
1000
0000
0010
0000
1010
0000
1000
0100
2000
0000
0000
0000
3001
0000
0000
0000
,
0011
0000
0000
0110
0000
0000
1100
0000
1010
0000
0000
0110
0000
0000
0101
0000
,
0000
0000
1001
0000
0000
0000
1010
0000
1000
0100
0010
0001
1000
0100
0010
0001
,
1000
0010
0100
0001
1000
0010
0100
0001
0010
0100
1000
0001
0010
0100
1000
0001
,
0100
0010
1000
0001
0100
0010
1000
0001
1000
0001
1000
0001
1000
0001
1000
0001
,
1000
0001
1000
0001
1000
0000
0001
0000
1000
0000
0001
0000
1000
0000
0001
1000
0002
0000
0000
0000
0000
0000
0000
0000
0203
0000
0000
0000
0000
0000
0000
0000
,
0320
0000
0000
0000
0000
0000
0000
0000
0000
0000
0000
0000
2030
0000
0000
0000
0000
0000
0000
0000
0000
0000
0000
0000
3001
0000
0000
0000
0000
0000
0000
0000
0000
0001
0010
0100
1000
0000
0000
0000
0000
0000
0000
0000
0000
0000
0000
0000
,
1002
0000
0000
0000
0000
0000
0000
0000
0000
0000
0000
0000
0203
0000
0000
0000
0000
0000
0000
0000
0000
0000
0000
0000
0301
0000
0000
0000
0000
0000
0000
0000
0000
1000
0010
0100
0001
0000
0000
0000
0000
0000
0000
0000
0000
0000
0000
0000
,
2001
0000
0000
3020
0000
0000
1030
0100
0001
0100
0010
1000
,
0001
0100
1000
0100
0010
0001
1000
0010
0001
0010
0100
1000
,
0001
0000
0000
0000
0010
0000
0000
0000
1000
0000
0000
0000
0010
0000
0000
0000
0100
0000
0000
0000
0001
0000
0000
0000
0200
0000
0000
0000
0000
0000
0000
0000
0000
0000
0000
0000
0300
0000
0000
0000
0000
0000
0001
0000
0000
0010
0000
0000
,
0001
0000
1000
0000
0010
0000
1000
0000
0001
0000
0010
0000
0100
1000
0100
1000
,
0100
0000
0010
0000
0001
0100
0001
0100
0001
0000
0010
0000
0100
0000
1000
0000
,
1100
0000
1100
0000
0100
0000
0010
0001
1000
0000
0010
0000
0100
0000
0001
0000
,
0101
0101
0100
0010
1000
0100
1000
1100
,
0000
0000
0001
0100
0001
0000
0101
0000
0000
0000
1010
0000
0000
0000
1000
0000
,
0011
0000
0000
0000
0001
0010
0100
0000
0220
0000
0000
0000
0000
0000
0000
0000
,
0000
0000
0000
0000
,
0000
0000
0000
0000
,
0000
0000
0000
0000
,
0000
0000
0330
0000
,
0000
0000
0000
0000
,
0000
0000
0000
0000
,
0000
0000
0000
0000
,
0000
0000
0000
0000
,
0000
0000
0000
0000
,
0000
0000
0000
0000
,
0000
0000
0000
0000
,
0000
0000
0000
0000
0000
1001
0000
0000
;

//---------------dance-single - TaroNuke----------------
#NOTES:
     dance-single:
     TaroNuke:
     Hard:
     14:
     0.563,0.708,0.355,0.255,0.154:
0000
0000
0000
0000
,
0000
0000
0000
0000
,
0000
0000
0000
0000
,
0000
0000
0000
0000
,
1000
0100
0001
1000
,
0010
0001
1000
0010
,
0001
1000
0100
0001
,
1000
0100
0001
0010
,
0000
0000
0000
0000
1000
0100
0010
0100
,
1000
0001
0110
0000
0001
0100
0010
0100
,
0001
1000
0110
0000
0001
0010
0100
0010
,
0001
1000
0110
0000
1000
0010
0100
0010
,
1000
0001
0110
0000
1000
0100
0010
0001
,
0100
0010
1000
0100
0010
0001
0100
0010
,
1000
0010
0100
0001
0010
0100
1000
0010
,
0100
0000
0001
0000
0010
0000
0100
0000
1000
0000
0001
0000
0100
0000
0010
0100
,
0000
0100
0001
0000
1000
0001
1000
0001
1000
0000
0100
0000
0001
0000
0100
0000
,
1000
0001
0110
0000
0001
0100
1000
0100
,
0001
1000
0110
0000
0001
0010
1000
0010
,
0001
1000
0110
0000
1000
0010
0001
0010
,
1000
0001
0110
0000
1000
0100
0010
0001
,
0100
1000
0100
0001
1000
0010
0100
0001
,
0010
1000
0010
0001
1000
0010
0001
0010
,
1000
0100
0010
0001
1000
0100
0001
0100
,
1000
0010
0100
0001
2000
0000
3200
0000
,
0320
0000
0032
0000
0103
0010
1000
0010
,
0100
0001
0100
0010
2000
0000
3200
0000
,
0320
0000
0032
0000
1003
0010
0100
0010
,
1000
0001
0010
0001
2000
0000
3020
0000
,
0230
0000
0302
0000
1003
0100
0010
0001
,
0010
0100
1000
0010
0200
0000
0000
0000
,
0302
0000
2003
0000
,
3020
0000
0000
0000
0130
0001
0100
0010
,
0100
1000
0100
0010
0100
0001
0100
0010
,
0100
1000
0100
0010
1000
0100
0010
0100
,
1000
0000
0101
0000
0000
0110
0000
0000
1010
0000
0000
0000
0001
0000
0100
0000
,
0010
0000
1000
0000
0100
1000
0000
1000
0100
0000
1000
0000
0100
0000
0010
0000
,
0100
0001
0100
0010
0100
1000
0100
0010
,
0100
0001
0100
0010
0001
0100
0010
0100
,
0001
0000
0101
0000
0000
1001
0000
0000
1010
0000
0000
0000
1000
0000
0100
0000
,
0010
0000
0001
0000
0100
0001
0000
0001
0100
0000
0000
0000
0000
0000
0000
0100
,
0100
0000
0000
0000
0000
0000
0000
0100
0100
0000
0000
0000
0000
0000
0000
0000
,
0001
0001
0100
0010
1000
0100
0001
0100
,
1000
0100
0001
0100
1000
0010
0001
0010
,
1000
0010
0001
0010
1000
0100
0010
0001
,
0100
0010
0001
0010
0200
0000
1000
0000
,
0010
0301
1100
0011
,
0101
0000
1010
0000
1000
0001
0010
0001
,
1000
0100
0010
0100
1100
0000
0011
0000
,
0101
0000
1010
0000
0001
0100
1000
0100
,
0001
0000
0010
0000
0100
0000
1000
0000
0100
1000
0100
1000
0100
0000
0000
0000
,
1100
0000
0011
0000
0001
0010
0100
0010
,
0001
0100
0010
0100
0001
0100
1000
0100
,
0001
0010
1000
0010
0001
0100
1000
0100
,
0010
1000
0100
0010
0022
0033
0000
0000
,
0202
0303
0000
0000
2002
3003
0000
0000
,
2020
3030
0000
0000
2200
3300
0000
0000
,
1000
0000
0000
0100
0000
0000
0001
0000
1000
0000
0000
0010
0000
0000
0001
0000
,
0000
0011
0000
0101
0001
0100
1000
0100
,
0010
0100
1000
0100
0001
0010
1000
0010
,
0100
0000
0010
0000
1000
0000
0010
0000
0001
0100
0001
0100
0001
0100
0001
0100
,
0001
0100
0001
0100
0001
0100
0001
0100
0002
0000
0000
0000
0023
0000
0000
0000
,
0230
2300
3001
0011
,
0110
1100
1001
1010
,
0110
0000
0000
0101
0000
0000
1000
0100
0010
0001
0010
0100
,
1000
0100
0010
0001
0010
0100
1000
0100
0010
0001
0010
0100
,
1000
0010
0100
0001
0100
0010
1000
0000
0000
0000
0000
0000
,
0100
0000
0001
0000
,
0010
0000
1100
0000
,
0001
0001
0000
0000
0101
0000
0000
0000
,
1000
1000
0000
0000
1001
0000
0000
0110
,
0000
0000
0000
1001
0000
1001
0000
0000
,
0110
0000
0100
0010
2002
0000
0000
0000
,
0000
0000
0000
0000
,
0000
0000
0000
0000
,
0000
0000
0000
0000
,
0000
0000
3003
0000
;

//---------------dance-single - TaroNuke----------------
#NOTES:
     dance-single:
     TaroNuke:
     Medium:
     9:
     0.391,0.472,0.162,0.455,0.000:
0000
0000
0000
0000
,
0000
0000
0000
0000
,
0000
0000
0000
0000
,
0000
0000
0000
0000
,
1000
0000
0001
0000
,
1000
0000
0001
0000
,
1000
0000
0001
0000
,
0100
0000
0010
0000
,
0000
0000
1000
0010
,
0100
0000
0001
0000
1000
0100
1000
0100
,
1000
0100
1000
0000
0001
0000
0010
0000
,
0100
0000
1000
0000
0001
0100
0001
0100
,
0001
0100
0001
0000
1000
0000
0100
0000
,
0001
0000
0100
0000
1000
0010
1000
0010
,
1000
0010
1000
0000
0001
0000
0100
0000
,
1000
0000
0100
0000
0001
0010
0001
0010
,
0001
0010
0001
0000
0100
0000
0100
0000
,
0010
0000
0010
0000
1000
0001
1000
0001
,
1000
0001
1000
0000
0010
0000
0010
0000
,
0100
0000
0100
0000
0001
1000
0001
1000
,
0001
1000
0001
0000
0100
0000
0100
0000
,
0100
0000
0100
0000
1000
0100
0010
0001
,
0010
0100
1000
0000
0010
0000
0010
0000
,
0010
0000
0010
0000
0001
0010
0100
1000
,
0100
0010
0001
0000
2000
0000
3200
0000
,
0320
0032
2003
3200
,
0320
0032
2003
3020
,
0230
0302
0023
0230
,
0320
0032
2003
3020
,
0230
0302
2003
3020
,
0230
0302
2003
0000
,
3200
0000
0320
0000
,
0032
0000
1003
0100
,
0001
0100
1000
0010
,
0001
0010
1000
1000
,
0001
0001
0100
0100
,
0100
0000
0001
0100
,
1000
0100
0001
0010
,
1000
0010
0001
0001
,
1000
1000
0010
0010
,
0010
0010
1001
0000
,
1001
0000
0110
0000
,
1001
0000
1000
0010
,
0100
0001
1000
0010
,
0100
0000
0001
0000
1000
0010
0100
0001
,
1000
0010
0100
0001
2000
0000
3200
0000
,
0320
0000
0031
0000
1000
0100
0001
0000
,
0100
1000
0001
0100
,
1000
0000
0100
0000
0001
0010
1000
0000
,
0010
0001
1000
0010
,
0001
0000
0010
0000
1000
0100
0001
0000
,
0100
1000
0010
0001
,
0010
0000
1000
0000
0001
0100
1000
0000
,
0001
0010
1000
0000
0001
0100
1000
0000
,
0001
0010
1000
0100
0001
0000
0000
0000
,
0100
0000
1000
0000
,
0010
0000
0001
0000
,
0110
0000
0000
0000
2010
0000
0000
0001
,
0000
3001
0000
0000
2000
0000
3002
0000
,
0203
0320
2030
3002
,
0023
0032
2003
3020
,
0230
0302
0023
0230
,
2300
3002
0103
0010
,
1000
0100
0010
0001
,
1000
0010
2001
3001
,
0120
0130
1002
1003
,
0210
0310
2002
3000
,
0200
0003
0020
0300
,
2000
0030
3001
0000
,
1001
0000
1100
0000
,
1100
0000
0000
0000
0101
0000
0000
0101
,
0000
0000
0000
1001
0000
1001
0000
0000
,
1001
0110
2002
0000
,
0000
0000
0000
0000
,
0000
0000
0000
0000
,
0000
0000
0000
0000
,
0000
0000
3003
0000
;

//---------------dance-single - TaroNuke----------------
#NOTES:
     dance-single:
     TaroNuke:
     Beginner:
     3:
     0.128,0.196,0.062,0.100,0.000:
0000
0000
0000
0000
,
0000
0000
0000
0000
,
0000
0000
0000
0000
,
0000
0000
0000
0000
,
0100
0000
0000
0000
,
0010
0000
0000
0000
,
1000
0000
0000
0000
,
0001
0000
0000
0000
,
1000
0000
0000
0000
,
0000
0000
1000
0000
,
0010
0000
1000
0000
,
0000
0000
0001
0000
,
0010
0000
0001
0000
,
0000
0000
1000
0000
,
0100
0000
0010
0000
,
0000
0000
0001
0000
,
0100
0000
0010
0000
,
0000
0000
1000
0000
,
0100
0000
0001
0000
,
0000
0000
0001
0000
,
0010
0000
1000
0000
,
0000
0000
1000
0000
,
0100
0000
0001
0000
,
0000
0000
0010
0000
,
1000
0000
0200
0000
,
0320
0000
0230
0000
,
0000
0000
2300
0000
,
3002
0000
2003
0000
,
0000
0000
3200
0000
,
0320
0000
0230
0000
,
0000
0000
2300
0000
,
3002
0000
0203
0000
,
0320
0000
1030
0000
,
1000
0000
1000
0000
,
1000
0000
1001
0000
,
0000
0000
0000
0000
,
0000
0000
0001
0000
,
0001
0000
0001
0000
,
0001
0000
1001
0000
,
0000
0000
0000
0000
,
0000
0000
1000
0000
,
0100
0000
0010
0000
,
0001
0000
1000
0000
,
0000
0000
1000
0000
,
0000
0000
0001
0000
,
0001
0000
0001
0000
,
0000
0000
1000
0100
,
0000
0000
0000
0000
,
0000
0000
0001
0100
,
0000
0000
0000
0000
,
0000
0000
1000
0010
,
0000
0000
0000
0000
,
0000
0000
0001
0010
,
0000
0010
0000
0010
,
0010
0010
0001
0000
,
1000
0000
0001
0000
,
1000
0000
0010
0000
,
0000
0000
0000
0000
,
0000
0000
1000
0000
,
0100
0000
0010
0000
,
0001
0000
0100
0000
,
0010
0000
1000
0000
,
0001
0000
1001
0000
,
0000
0000
0000
0000
,
0000
0000
1000
0000
,
0100
0000
0010
0000
,
0001
0000
1001
0000
,
0000
0000
0000
0000
,
0000
0000
1100
0000
,
0000
0000
0101
0000
,
0000
0000
1001
0000
,
0000
0000
0000
0000
,
0000
0000
1001
0000
;

//---------------dance-single - Blank----------------
#NOTES:
     dance-single:
     Blank:
     Easy:
     6:
     0.297,0.413,0.309,0.301,0.000:
0000
0000
0000
0000
,
0000
0000
0000
0000
,
0000
0000
0000
0000
,
0000
0000
0000
0000
,
1001
0000
0100
0000
,
1001
0000
0010
0000
,
1001
0000
0100
0000
,
1001
0000
0010
0000
,
1001
0000
0000
0000
,
0000
0000
1000
0100
,
0010
0001
1000
0000
,
0000
0000
0001
0100
,
0010
1000
0001
0000
,
0000
0000
1000
0010
,
0100
0001
1000
0000
,
0000
0000
0001
0010
,
0100
1000
0001
0001
,
1000
0001
1000
0000
,
0100
0000
0010
0010
,
0100
0010
0100
0000
,
0001
0000
0100
0100
,
0010
0100
0010
0000
,
1000
0000
1000
1000
,
0001
1000
0001
0000
,
0100
0000
0002
0203
,
0302
0203
0310
0000
,
1001
0000
2000
3200
,
2300
3200
0310
0000
,
1001
0000
0002
0203
,
0320
0230
0301
0000
,
1001
0000
2000
3200
,
0320
0032
0203
0320
,
1030
0000
1000
1000
,
1000
1000
1000
1000
,
1000
1000
0100
0010
,
0001
0010
0100
0000
,
1001
0000
0001
0001
,
0001
0001
0001
0001
,
0001
0001
0100
0010
,
1000
0010
0100
0000
,
1001
0000
0110
0000
,
1001
0000
0110
0000
,
1001
0000
1100
1000
,
0100
0010
0011
0001
,
0100
0010
1000
0100
,
0001
0100
1000
0000
,
1001
0000
0110
1001
,
0001
0100
0010
0100
,
0001
0000
0101
1100
,
1000
0100
0010
0001
,
0100
0000
0101
0011
,
0010
0001
0100
0010
,
1000
0000
1100
0000
,
0011
0000
0101
0000
,
1010
0000
2001
0000
,
3200
0000
0320
0000
,
0032
0000
1003
0000
,
1000
0000
1001
0000
,
0001
0000
0020
0032
,
0013
0000
0200
2300
,
3100
0000
0020
0230
,
0310
0000
0002
2003
,
3010
0000
1010
0000
,
1001
0000
0101
0000
,
1001
0000
2000
0000
,
3200
0000
0320
0000
,
0032
0000
1003
0000
,
1010
0000
0101
0000
,
0011
0000
2001
0000
,
3001
0000
1002
0000
,
1003
0000
0000
0000
0210
0000
0000
0010
,
0000
0000
0000
0010
0000
0010
0000
0000
,
0310
0000
2002
0000
,
0000
0000
0000
0000
,
0000
0000
0000
0000
,
0000
0000
0000
0000
,
0000
0000
3003
0000
;
