#VERSION:0.83;
#TITLE:위아래;
#SUBTITLE:;
#ARTIST:EXID;
#TITLETRANSLIT:Up & Down;
#SUBTITLETRANSLIT:;
#ARTISTTRANSLIT:;
#GENRE:Pop;
#ORIGIN:;
#CREDIT:chewi;
#BANNER:Up & Down.png;
#BACKGROUND:Up & Down-bg.png;
#PREVIEWVID:;
#JACKET:Up & Down-jacket.png;
#CDIMAGE:;
#DISCIMAGE:;
#LYRICSPATH:;
#CDTITLE:cdtitle.png;
#MUSIC:Up & Down.ogg;
#OFFSET:-0.461639;
#SAMPLESTART:59.632000;
#SAMPLELENGTH:15.000000;
#SELECTABLE:YES;
#BPMS:0.000=112.000;
#STOPS:;
#DELAYS:;
#WARPS:;
#TIMESIGNATURES:0.000=4=4;
#TICKCOUNTS:0.000=4;
#COMBOS:0.000=1;
#SPEEDS:0.000=1.000=0.000=0;
#SCROLLS:0.000=1.000;
#FAKES:;
#LABELS:0.000=Song Start;
#BGCHANGES:;
#KEYSOUNDS:;
#ATTACKS:
;

//---------------dance-single - ----------------
#NOTEDATA:;
#CHARTNAME:;
#STEPSTYPE:dance-single;
#DESCRIPTION:;
#CHARTSTYLE:;
#DIFFICULTY:Hard;
#METER:10;
#RADARVALUES:0.347683,0.345380,0.007702,0.200248,0.100124,316.000000,315.000000,1.000000,26.000000,0.000000,0.000000,0.000000,0.000000,0.000000,0.347683,0.345380,0.007702,0.200248,0.100124,316.000000,315.000000,1.000000,26.000000,0.000000,0.000000,0.000000,0.000000,0.000000;
#CREDIT:;
#NOTES:
// measure 0
0000
0000
0000
0000
,  // measure 1
0000
0000
0000
0000
,  // measure 2
0000
0000
0000
0000
,  // measure 3
2002
0000
0000
3003
,  // measure 4
0010
0000
0000
0000
0100
0000
0000
0010
0000
0000
0010
0000
0100
0000
0000
0000
,  // measure 5
0010
0000
0000
0000
0100
0000
0000
0010
0000
0000
0010
0000
0100
0000
0000
0000
,  // measure 6
0010
0000
0000
0000
0100
0000
0000
0010
0000
0000
0010
0000
0100
0000
0000
0000
,  // measure 7
0010
0000
0000
0010
0000
0000
0010
0000
0000
0010
0000
0000
0010
0000
0010
0000
,  // measure 8
0010
0000
0000
0000
0100
0000
0000
0010
0000
0000
0010
0000
0100
0000
0000
0000
,  // measure 9
0010
0000
0000
0000
0100
0000
0000
0010
0000
0000
0010
0000
0100
0000
0000
0000
,  // measure 10
0010
0000
0000
0000
0100
0000
0000
0010
0000
0000
0010
0000
0100
0000
0000
0000
,  // measure 11
0100
0000
0000
0100
0000
0000
0100
0000
0000
0100
0000
0000
0100
0000
0100
0000
,  // measure 12
1000
0010
1000
0001
0000
1000
0001
0000
,  // measure 13
0001
0010
0001
0100
0000
0001
1000
0000
,  // measure 14
0001
0010
1000
0000
0001
0100
1000
0000
,  // measure 15
1000
0000
0000
1000
0000
0000
1000
0000
0000
0000
0000
0000
1000
0000
1000
0000
,  // measure 16
0001
0100
0001
0010
0000
0001
1000
0000
,  // measure 17
1000
0100
1000
0010
0000
1000
0001
0000
,  // measure 18
1000
0010
0001
0000
1000
0100
0001
0000
,  // measure 19
0001
0000
0000
0001
0000
0000
0001
0000
0000
0000
0001
0000
1000
0000
0001
0000
,  // measure 20
1000
1000
0100
0000
0001
0001
0100
0000
,  // measure 21
2000
3200
0302
0023
,  // measure 22
1030
1000
0010
0000
0001
0001
0010
0000
,  // measure 23
2000
3020
0032
0203
,  // measure 24
1300
1000
0001
0000
0001
1000
0001
0000
,  // measure 25
0001
0001
1000
0000
1000
0001
1000
0000
,  // measure 26
0010
0000
0000
0000
0100
0000
0000
0010
0000
0000
0010
0000
0100
0000
0000
0000
,  // measure 27
1000
0000
1000
0000
0000
1000
0000
0000
0000
0000
1000
0000
0100
0000
1000
0000
,  // measure 28
0000
0001
0010
1000
0001
0100
1000
0100
,  // measure 29
2000
0000
3000
0000
1000
0100
0010
0002
,  // measure 30
0000
0013
0001
0020
0000
0031
0010
0002
,  // measure 31
0010
0000
0010
0000
0100
0000
0103
0001
,  // measure 32
0000
0001
0010
1000
0001
0100
1000
0100
,  // measure 33
2000
0000
3000
0000
1000
0100
0010
0002
,  // measure 34
0000
0013
0001
0020
0000
0031
0010
0002
,  // measure 35
0010
0010
1000
1003
,  // measure 36
0001
0010
1000
0000
0001
0100
1000
0000
,  // measure 37
1000
0100
0001
1000
0010
0001
1000
0000
,  // measure 38
0001
0100
1000
0000
0001
0010
1000
0000
,  // measure 39
1000
0010
0001
1000
0100
0001
1000
0001
,  // measure 40
1000
0100
0010
0000
0001
0010
0100
0000
,  // measure 41
0100
1000
0001
0010
0001
1000
0100
1000
,  // measure 42
0010
0000
0000
0000
0100
0000
0000
0010
0000
0000
0010
0000
0100
0000
0000
0000
,  // measure 43
0010
0000
0000
0000
0100
0000
0000
0010
0000
0000
0010
0000
0100
0000
0000
0000
,  // measure 44
0000
1000
0100
0001
1000
0010
0001
0010
,  // measure 45
0002
0000
0003
0000
0001
0010
0100
2000
,  // measure 46
0000
3100
1000
0200
0000
1300
0100
2000
,  // measure 47
0100
0000
0100
0000
0010
0000
3010
1000
,  // measure 48
0000
1000
0100
0001
1000
0010
0001
0010
,  // measure 49
0002
0000
0003
0000
0001
0010
0100
2000
,  // measure 50
0000
3100
1000
0200
0000
1300
0100
2000
,  // measure 51
0100
0100
0001
3001
,  // measure 52
0010
0000
0000
0000
0100
0000
0000
0010
0000
0000
0010
0000
0100
0000
0000
0000
,  // measure 53
0010
0000
0000
0000
0100
0000
0000
0010
0000
0000
0010
0000
0100
0000
0000
0000
,  // measure 54
0010
0000
0000
0000
0100
0000
0000
0010
0000
0000
0010
0000
0100
0000
0000
0000
,  // measure 55
0010
0000
0000
0010
0000
0000
0010
0000
0000
0010
0000
0000
0010
0000
0010
0000
,  // measure 56
0010
0000
0000
0000
0100
0000
0000
0010
0000
0000
0010
0000
0100
0000
0000
0000
,  // measure 57
0010
0000
0000
0000
0100
0000
0000
0010
0000
0000
0010
0000
0100
0000
0000
0000
,  // measure 58
0010
0000
0000
0000
0100
0000
0000
0010
0000
0000
0010
0000
0100
0000
0000
0000
,  // measure 59
0100
0000
0000
0000
0000
0000
0100
0000
0000
0000
0000
0000
0000
0000
0000
0100
0000
0000
0000
0000
0000
0000
0000
0000
0000
0000
0000
0000
0000
0000
0100
0000
0000
0000
0000
0000
0000
0000
0100
0000
0000
0000
0000
0000
0000
0000
0000
0000
;

//---------------dance-single - ----------------
#NOTEDATA:;
#CHARTNAME:;
#STEPSTYPE:dance-single;
#DESCRIPTION:;
#CHARTSTYLE:;
#DIFFICULTY:Medium;
#METER:7;
#RADARVALUES:0.323478,0.322354,0.130931,0.092422,0.042360,294.000000,277.000000,17.000000,12.000000,0.000000,0.000000,0.000000,0.000000,0.000000,0.323478,0.322354,0.130931,0.092422,0.042360,294.000000,277.000000,17.000000,12.000000,0.000000,0.000000,0.000000,0.000000,0.000000;
#CREDIT:;
#NOTES:
// measure 0
0000
0000
0000
0000
,  // measure 1
0000
0000
0000
0000
,  // measure 2
0000
0000
0000
0000
,  // measure 3
2002
0000
0000
3003
,  // measure 4
0010
0000
0100
0000
0010
0010
0100
0000
,  // measure 5
0010
0000
0100
0000
0010
0010
0100
0000
,  // measure 6
0010
0000
0100
0000
0010
0010
0100
0000
,  // measure 7
0010
0000
0000
0010
0000
0000
0010
0000
0000
0010
0000
0000
0010
0000
0010
0000
,  // measure 8
0010
0000
0100
0000
0010
0010
0100
0000
,  // measure 9
0010
0000
0100
0000
0010
0010
0100
0000
,  // measure 10
0010
0000
0100
0000
0010
0010
0100
0000
,  // measure 11
0100
0000
0000
0100
0000
0000
0100
0000
0000
0100
0000
0000
0100
0000
0100
0000
,  // measure 12
1000
0000
1000
0000
0001
1000
0001
0000
,  // measure 13
0001
0000
0001
0000
1000
0001
1000
0000
,  // measure 14
0020
0230
0302
2003
,  // measure 15
3001
0000
0000
0001
0000
0000
0001
0000
0000
0000
0001
0000
0001
0000
0000
0000
,  // measure 16
0001
0000
0001
0000
1000
0001
1000
0000
,  // measure 17
1000
0000
1000
0000
0001
1000
0001
0000
,  // measure 18
0200
0320
2030
3002
,  // measure 19
1003
0000
0000
1000
0000
0000
1000
0000
0000
0000
1000
0000
1000
0000
1000
0000
,  // measure 20
1000
0100
0001
0010
,  // measure 21
2000
0100
0100
3100
,  // measure 22
1000
0010
0001
0100
,  // measure 23
2000
0010
0010
3010
,  // measure 24
0010
0100
0001
0001
,  // measure 25
0010
0100
1000
1000
,  // measure 26
0010
0000
0100
0000
0010
0010
0100
0000
,  // measure 27
0001
0000
1000
0000
0000
0001
0000
0000
0000
0000
1000
0000
1000
0000
1000
0000
,  // measure 28
0010
1001
0010
1001
,  // measure 29
0010
0100
1000
0000
0010
0100
0001
0000
,  // measure 30
0100
1001
0100
1001
,  // measure 31
0100
0010
1000
0000
0100
0010
0001
0000
,  // measure 32
1000
1100
0001
0101
,  // measure 33
0100
0001
0100
0000
0001
0100
0001
0000
,  // measure 34
1000
1010
0001
0011
,  // measure 35
0001
0010
0001
0000
0010
0001
0010
0000
,  // measure 36
0001
0000
0100
0000
0001
1000
0010
0000
,  // measure 37
1000
0000
0100
0000
1000
0001
0010
0000
,  // measure 38
0100
0100
0100
0000
0010
0010
0010
0000
,  // measure 39
0100
1000
0010
0100
,  // measure 40
1000
0000
0010
0000
1000
0001
0100
0000
,  // measure 41
0001
0000
0010
0000
0001
1000
0100
0000
,  // measure 42
0010
0000
0100
0000
0010
0010
0100
0000
,  // measure 43
0010
0000
0100
0000
0010
0010
0100
0000
,  // measure 44
0000
1001
0100
1001
,  // measure 45
0100
0010
0001
0000
0100
0010
1000
0000
,  // measure 46
0010
1001
0010
1001
,  // measure 47
0010
0100
0001
0000
0010
0100
1000
0000
,  // measure 48
0001
0011
1000
1010
,  // measure 49
0010
1000
0010
0000
1000
0010
1000
0000
,  // measure 50
0001
0101
1000
1100
,  // measure 51
1000
0100
1000
0000
0100
1000
0100
0000
,  // measure 52
0010
0000
0100
0000
0010
0010
0100
0000
,  // measure 53
0010
0000
0100
0000
0010
0010
0100
0000
,  // measure 54
0010
0000
0100
0000
0010
0010
0100
0000
,  // measure 55
0010
0000
0000
0010
0000
0000
0010
0000
0000
0010
0000
0000
0010
0000
0010
0000
,  // measure 56
0010
0000
0100
0000
0010
0010
0100
0000
,  // measure 57
0010
0000
0100
0000
0010
0010
0100
0000
,  // measure 58
0010
0000
0100
0000
0010
0010
0100
0000
,  // measure 59
0100
0000
0000
0000
0000
0000
0100
0000
0000
0000
0000
0000
0000
0000
0000
0100
0000
0000
0000
0000
0000
0000
0000
0000
0000
0000
0000
0000
0000
0000
0100
0000
0000
0000
0000
0000
0000
0000
0100
0000
0000
0000
0000
0000
0000
0000
0000
0000
;

//---------------dance-single - ----------------
#NOTEDATA:;
#CHARTNAME:;
#STEPSTYPE:dance-single;
#DESCRIPTION:;
#CHARTSTYLE:;
#DIFFICULTY:Easy;
#METER:4;
#RADARVALUES:0.174942,0.207083,0.000000,0.053913,0.000000,159.000000,159.000000,0.000000,7.000000,0.000000,0.000000,0.000000,0.000000,0.000000,0.174942,0.207083,0.000000,0.053913,0.000000,159.000000,159.000000,0.000000,7.000000,0.000000,0.000000,0.000000,0.000000,0.000000;
#CREDIT:;
#NOTES:
// measure 0
0000
0000
0000
0000
,  // measure 1
0000
0000
0000
0000
,  // measure 2
0000
0000
0000
0000
,  // measure 3
0020
0000
0000
0030
,  // measure 4
0010
0100
0010
0100
,  // measure 5
0010
0100
0010
0100
,  // measure 6
0010
0100
0010
0100
,  // measure 7
0020
0000
0000
0030
,  // measure 8
0010
0100
0010
0100
,  // measure 9
0010
0100
0010
0100
,  // measure 10
0010
0100
0010
0100
,  // measure 11
0200
0000
0000
0300
,  // measure 12
1000
0000
1000
0000
,  // measure 13
0001
1000
0001
0000
,  // measure 14
0001
0000
0001
0000
,  // measure 15
1000
0001
1000
0000
,  // measure 16
0010
0000
0010
0000
,  // measure 17
0010
0100
0001
0000
,  // measure 18
0010
0000
0010
0000
,  // measure 19
0010
0100
1000
0000
,  // measure 20
1000
1000
1000
1000
,  // measure 21
2000
0000
0000
3000
,  // measure 22
0001
0001
0001
0001
,  // measure 23
0002
0000
0000
0003
,  // measure 24
0100
0100
0100
0000
,  // measure 25
0010
0010
0010
0000
,  // measure 26
0010
0100
0010
0100
,  // measure 27
0010
0000
0000
0000
,  // measure 28
1000
0100
0001
0010
,  // measure 29
1000
0000
0100
0100
,  // measure 30
0100
0000
0100
0000
,  // measure 31
0100
0000
0000
0000
,  // measure 32
1000
0010
0001
0100
,  // measure 33
1000
0000
0010
0010
,  // measure 34
0010
0000
0010
0000
,  // measure 35
0010
0010
0010
0010
,  // measure 36
1000
0000
0001
0000
,  // measure 37
1000
1000
0001
0000
,  // measure 38
0001
0000
1000
0000
,  // measure 39
0001
0001
1000
0000
,  // measure 40
0010
0000
0100
0000
,  // measure 41
0010
0010
0100
0000
,  // measure 42
0010
0100
0010
0100
,  // measure 43
0010
0100
0010
0100
,  // measure 44
0000
0100
0001
0010
,  // measure 45
1000
0000
0100
0100
,  // measure 46
0100
0000
0100
0000
,  // measure 47
0100
0000
0000
0000
,  // measure 48
1000
0010
0001
0100
,  // measure 49
1000
0000
0010
0010
,  // measure 50
0010
0000
0010
0000
,  // measure 51
0010
0000
0000
0000
,  // measure 52
0010
0100
0010
0100
,  // measure 53
0010
0100
0010
0100
,  // measure 54
0010
0100
0010
0100
,  // measure 55
0020
0000
0000
0030
,  // measure 56
0010
0100
0010
0100
,  // measure 57
0010
0100
0010
0100
,  // measure 58
0010
0100
0010
0100
,  // measure 59
0200
0000
0000
0300
;

//---------------dance-single - ----------------
#NOTEDATA:;
#CHARTNAME:;
#STEPSTYPE:dance-single;
#DESCRIPTION:;
#CHARTSTYLE:;
#DIFFICULTY:Beginner;
#METER:2;
#RADARVALUES:0.092422,0.115046,0.000000,0.061615,0.000000,84.000000,84.000000,0.000000,8.000000,0.000000,0.000000,0.000000,0.000000,0.000000,0.092422,0.115046,0.000000,0.061615,0.000000,84.000000,84.000000,0.000000,8.000000,0.000000,0.000000,0.000000,0.000000,0.000000;
#CREDIT:;
#NOTES:
// measure 0
0000
0000
0000
0000
,  // measure 1
0000
0000
0000
0000
,  // measure 2
0000
0000
0000
0000
,  // measure 3
0000
0000
0000
0000
,  // measure 4
0010
0000
0010
0000
,  // measure 5
0010
0000
0010
0000
,  // measure 6
0010
0000
0010
0000
,  // measure 7
0020
0000
0000
0030
,  // measure 8
0100
0000
0100
0000
,  // measure 9
0100
0000
0100
0000
,  // measure 10
0100
0000
0100
0000
,  // measure 11
0200
0000
0000
0300
,  // measure 12
1000
0000
0000
0000
,  // measure 13
0001
0000
0000
0000
,  // measure 14
1000
0000
0000
0000
,  // measure 15
0001
0000
0000
0000
,  // measure 16
0100
0000
0000
0000
,  // measure 17
0010
0000
0000
0000
,  // measure 18
0100
0000
0000
0000
,  // measure 19
0010
0000
0000
0000
,  // measure 20
1000
0000
1000
0000
,  // measure 21
2000
0000
0000
3000
,  // measure 22
0001
0000
0001
0000
,  // measure 23
0002
0000
0000
0003
,  // measure 24
0100
0000
0000
0000
,  // measure 25
0010
0000
0000
0000
,  // measure 26
0010
0000
0010
0000
,  // measure 27
0010
0000
0000
0000
,  // measure 28
1000
0000
0001
0000
,  // measure 29
1000
0000
0000
0000
,  // measure 30
0100
0000
0100
0000
,  // measure 31
0100
0000
0000
0000
,  // measure 32
1000
0000
0001
0000
,  // measure 33
1000
0000
0000
0000
,  // measure 34
0010
0000
0010
0000
,  // measure 35
0010
0000
0000
0000
,  // measure 36
1000
0000
0001
0000
,  // measure 37
2000
0000
0000
3000
,  // measure 38
1000
0000
0001
0000
,  // measure 39
1000
0000
0001
0000
,  // measure 40
0010
0000
0100
0000
,  // measure 41
0020
0000
0000
0030
,  // measure 42
0010
0000
0010
0000
,  // measure 43
0010
0000
0010
0000
,  // measure 44
0000
0000
0001
0000
,  // measure 45
1000
0000
0000
0000
,  // measure 46
0100
0000
0100
0000
,  // measure 47
0100
0000
0000
0000
,  // measure 48
1000
0000
0001
0000
,  // measure 49
1000
0000
0000
0000
,  // measure 50
0010
0000
0010
0000
,  // measure 51
0010
0000
0000
0000
,  // measure 52
0010
0000
0010
0000
,  // measure 53
0010
0000
0010
0000
,  // measure 54
0010
0000
0010
0000
,  // measure 55
0020
0000
0000
0030
,  // measure 56
0100
0000
0100
0000
,  // measure 57
0100
0000
0100
0000
,  // measure 58
0100
0000
0100
0000
,  // measure 59
0200
0000
0000
0300
;
