#TITLE:Unicorn tail;
#SUBTITLE:;
#ARTIST:DJ YOSHITAKA;
#TITLETRANSLIT:;
#SUBTITLETRANSLIT:;
#ARTISTTRANSLIT:;
#GENRE:;
#CREDIT:Chewi☆;
#MENUCOLOR:;
#METERTYPE:DDR X;
#BANNER:Unicorn tail.png;
#BACKGROUND:Unicorn tail-bg.png;
#LYRICSPATH:;
#CDTITLE:;
#MUSIC:Unicorn tail.mp3;
#OFFSET:-0.037;
#SAMPLESTART:59.327;
#SAMPLELENGTH:15.000;
#SELECTABLE:YES;
#LISTSORT:;
#DISPLAYBPM:85.000:170.000;
#BPMS:0.000=170.000,65.000=85.000,81.000=170.000,208.000=85.000;
#STOPS:64.000=2.471
;
#BGCHANGES:;
#ATTACKS:;

//---------------dance-single - Chewi----------------
#NOTES:
     dance-single:
     Chewi:
     Beginner:
     4:
     0.197,0.278,0.011,0.023,0.000: // measure 1
0000
0000
0000
0000
,  // measure 2
0000
0000
0000
0000
,  // measure 3
0000
0000
0000
0000
,  // measure 4
0000
0000
0000
0000
,  // measure 5
0000
1000
0000
0000
0000
1000
0000
0000
,  // measure 6
0000
0001
0000
0000
0000
0001
0000
0000
,  // measure 7
0000
0100
0000
0000
0000
0100
0000
0000
,  // measure 8
0200
0000
0000
0300
,  // measure 9
0001
0000
0100
0000
,  // measure 10
1000
0000
0010
0000
,  // measure 11
1000
0000
0100
0000
,  // measure 12
0100
0000
0100
0000
,  // measure 13
0010
0000
1000
0000
,  // measure 14
0001
0000
0010
0000
,  // measure 15
0100
0000
1000
0000
,  // measure 16
1000
0000
0010
0000
,  // measure 17
1001
1000
0000
0100
,  // measure 18
0000
0010
0000
0001
,  // measure 19
0000
0100
0000
0010
,  // measure 20
0000
0001
0000
1000
,  // measure 21
0000
0010
0000
0100
,  // measure 22
0000
0010
0000
1000
,  // measure 23
0000
1000
0000
0010
,  // measure 24
0000
0001
0000
1000
,  // measure 25
0000
0001
0000
0100
,  // measure 26
0000
0010
0000
0001
,  // measure 27
0000
0100
0000
1000
,  // measure 28
0000
1000
0000
0001
,  // measure 29
0000
0010
0000
0100
,  // measure 30
0000
0010
0000
1000
,  // measure 31
0000
1000
0000
0010
,  // measure 32
0000
0001
0000
1000
,  // measure 33
0000
0001
0000
0100
,  // measure 34
0000
0010
0000
0001
,  // measure 35
0000
0100
0000
1000
,  // measure 36
0000
1000
0000
0001
,  // measure 37
0000
1000
1000
1000
,  // measure 38
0000
0010
0000
0010
0000
0010
0000
0000
,  // measure 39
0000
0100
0100
0100
,  // measure 40
0000
0001
0000
0001
0000
0001
0000
0000
,  // measure 41
0000
0010
0010
0010
,  // measure 42
0000
1000
0000
1000
0000
1000
0000
0000
,  // measure 43
1000
1000
0001
0001
,  // measure 44
1000
1000
0001
0001
,  // measure 45
0000
0001
0001
0001
,  // measure 46
0000
0100
0000
0100
0000
0100
0000
0000
,  // measure 47
0000
0010
0010
0010
,  // measure 48
0000
1000
0000
1000
0000
1000
0000
0000
,  // measure 49
0000
0100
0100
0100
,  // measure 50
0000
0001
0000
0001
0000
0001
0000
0000
,  // measure 51
0001
0001
1000
1000
,  // measure 52
0001
0001
1000
1000
,  // measure 53
0020
0000
0000
0000
,  // measure 54
0000
0000
0000
0030
;

//---------------dance-single - Chewi----------------
#NOTES:
     dance-single:
     Chewi:
     Easy:
     7:
     0.399,0.432,0.218,0.276,0.000: // measure 1
0000
0000
0000
0000
,  // measure 2
0000
0000
0000
0000
,  // measure 3
0000
0000
0000
0000
,  // measure 4
0000
0000
0000
0000
,  // measure 5
0000
1000
0000
1000
0000
0001
0000
0001
,  // measure 6
0000
0100
0000
0100
0000
0010
0000
0010
,  // measure 7
0000
1000
0000
1000
0000
0001
0000
0001
,  // measure 8
2000
0000
0000
3000
,  // measure 9
0001
0010
0100
1100
,  // measure 10
1000
0010
1000
0010
,  // measure 11
1000
0010
0100
0101
,  // measure 12
0100
0001
0100
0001
,  // measure 13
0010
0100
1000
1100
,  // measure 14
0001
0100
0010
0110
,  // measure 15
0100
0010
1000
1001
,  // measure 16
1000
0100
0010
0011
,  // measure 17
1001
2000
0000
3200
,  // measure 18
0000
0320
0000
0032
,  // measure 19
0000
0000
0103
0100
0100
0000
0010
0000
,  // measure 20
1000
0000
0001
0001
0001
0000
1000
0000
,  // measure 21
0100
0010
0001
0100
,  // measure 22
0001
0010
0100
1000
,  // measure 23
0010
0000
1000
0100
1000
0000
0010
0000
,  // measure 24
0100
0001
0101
1000
,  // measure 25
1100
0001
0010
0100
,  // measure 26
1000
0000
0010
0000
0100
0000
0001
0100
,  // measure 27
0001
0100
0010
1000
,  // measure 28
0001
1000
1100
0001
,  // measure 29
0011
0010
0001
0100
,  // measure 30
0001
0010
0100
1000
,  // measure 31
0010
0000
1000
0100
1000
0000
0010
0000
,  // measure 32
0100
0001
0101
1000
,  // measure 33
1100
0001
0010
0100
,  // measure 34
1000
0000
0010
0000
0100
0000
0001
0100
,  // measure 35
0001
0100
0010
1000
,  // measure 36
0001
1000
1100
0001
,  // measure 37
0011
2000
3200
2300
,  // measure 38
3000
0010
0000
0010
0000
0010
0000
0100
,  // measure 39
0001
0200
0302
0203
,  // measure 40
0300
0001
0000
0001
0000
0001
0000
1000
,  // measure 41
0001
0020
0032
0023
,  // measure 42
0130
1000
0000
1000
0000
1000
0000
0001
,  // measure 43
1000
0010
0100
0000
0101
0000
1000
0000
,  // measure 44
1100
0000
0001
0010
0001
0000
1000
0100
,  // measure 45
1000
0002
0023
0032
,  // measure 46
0003
0100
0000
0100
0000
0100
0000
0010
,  // measure 47
1000
0020
2030
3020
,  // measure 48
0030
1000
0000
1000
0000
1000
0000
0001
,  // measure 49
1000
0200
2300
3200
,  // measure 50
0310
0001
0000
0001
0000
0001
0000
1000
,  // measure 51
0001
0100
0010
0000
1010
0000
0001
0000
,  // measure 52
0011
0000
1000
0100
1000
0000
0001
0010
,  // measure 53
0002
0000
0000
0000
,  // measure 54
0000
0000
0000
0003
;

//---------------dance-single - Chewi----------------
#NOTES:
     dance-single:
     Chewi:
     Medium:
     11:
     0.528,0.710,0.437,0.149,0.086: // measure 1
0000
0000
0000
0000
,  // measure 2
0000
0000
0000
0000
,  // measure 3
0000
0000
0000
0000
,  // measure 4
0000
0000
0000
0000
,  // measure 5
0000
1000
0000
1010
0000
0001
0000
0101
,  // measure 6
0000
1000
0000
1100
0000
0001
0000
0011
,  // measure 7
0000
0010
0000
0100
0000
1000
0000
0001
,  // measure 8
2000
0000
0000
3000
,  // measure 9
0010
0100
0001
0000
1000
0000
1100
0000
,  // measure 10
0001
0010
0100
1000
0010
0010
0010
0000
,  // measure 11
1000
0000
1100
0000
0010
0100
1000
0000
,  // measure 12
1000
0010
0100
0001
0100
0100
0100
0000
,  // measure 13
0010
0000
0101
0000
1000
0100
0010
0000
,  // measure 14
0001
0000
0011
0000
0001
0010
0100
0000
,  // measure 15
1000
1001
0001
1001
,  // measure 16
0100
0010
0100
0010
1000
0010
1000
0010
,  // measure 17
1000
0000
0000
0000
1000
0000
0100
0000
0010
0000
0000
0001
0000
0010
0000
0100
,  // measure 18
0000
1000
0000
0000
0010
0000
0100
0000
0001
0000
0000
0100
0000
0010
0000
1000
,  // measure 19
0000
0001
0000
0000
1000
0000
0100
0000
0010
0000
0000
0100
0000
1000
0000
0010
,  // measure 20
0000
0100
0000
0000
0001
0000
0100
0000
0010
0000
0000
1000
0000
0001
0000
1000
,  // measure 21
0002
0000
1003
0010
1000
0000
0001
0000
,  // measure 22
1100
0000
1000
0001
0010
0100
1000
0010
,  // measure 23
1000
0000
0001
0100
0001
0000
1000
0000
,  // measure 24
1100
0000
0001
0010
0100
1000
0001
0010
,  // measure 25
0100
0000
1000
0010
1000
0000
0001
0000
,  // measure 26
1100
0000
0010
0001
0100
0001
0010
0100
,  // measure 27
1000
0000
0001
1000
0100
0000
1000
0000
,  // measure 28
0101
0000
0100
0010
1000
0001
2001
0000
,  // measure 29
3001
0000
0010
0100
1000
0010
1000
0100
,  // measure 30
1000
0000
0010
0100
0001
0010
0001
0100
,  // measure 31
0001
0000
0010
0100
1000
0001
0100
0010
,  // measure 32
1000
0000
0100
1000
0010
1000
2002
0000
,  // measure 33
0000
3003
0010
0001
0010
0100
1000
0010
,  // measure 34
1000
0000
0100
0010
0100
1000
0010
1000
,  // measure 35
0010
0000
1000
0010
0100
0000
0001
0010
,  // measure 36
0100
0000
1000
0001
1000
0001
1002
0000
,  // measure 37
1003
1000
0001
0101
,  // measure 38
0001
0010
0000
0100
0000
1100
0000
1000
,  // measure 39
0100
1000
0010
0000
0100
0000
0101
0000
,  // measure 40
1000
1100
0000
0101
0000
1100
0000
0001
,  // measure 41
0100
0010
1000
0000
0100
0000
0110
0000
,  // measure 42
0010
0001
0000
0010
0000
1100
0000
0001
,  // measure 43
0010
0100
1000
0000
0010
0000
0110
0000
,  // measure 44
0010
1010
0000
1001
0000
0101
0000
0001
,  // measure 45
1000
0001
1000
0000
0100
0000
1001
0000
,  // measure 46
1000
0010
0000
0100
0000
0101
0000
0001
,  // measure 47
0010
0100
1000
0000
0100
0000
1010
0000
,  // measure 48
1000
1100
0000
0101
0000
1100
0000
0001
,  // measure 49
0100
0010
0100
0000
0010
0000
1010
0000
,  // measure 50
0001
0010
0000
0100
0000
1100
0000
1000
,  // measure 51
0100
0010
0002
0023
0032
1003
0020
2030
,  // measure 52
3020
1030
0010
0100
0001
1000
1001
0000
,  // measure 53
0200
0000
0000
0000
,  // measure 54
0000
0000
0000
0300
;

//---------------dance-single - Chewi----------------
#NOTES:
     dance-single:
     Chewi:
     Hard:
     15:
     0.737,1.000,0.735,0.184,0.437: // measure 1
0000
0000
0000
0000
,  // measure 2
0000
0000
0000
0000
,  // measure 3
0000
0000
0000
0000
,  // measure 4
0000
0000
0000
0000
,  // measure 5
0000
1000
0000
1100
0000
0001
0000
0011
,  // measure 6
0000
1000
0000
1001
0000
0001
0000
1001
,  // measure 7
0000
0100
0000
0110
0000
0010
0000
1010
,  // measure 8
2002
0000
0000
3003
,  // measure 9
0001
0000
0010
0000
0100
0000
1000
0100
0000
0100
1000
0000
0010
0000
0100
0000
,  // measure 10
0001
0000
0100
0000
0010
0000
0100
0001
0000
0001
0100
0000
0010
0000
1000
0000
,  // measure 11
0001
0000
0010
0000
0100
0000
1000
0010
0000
0010
1000
0000
0100
0000
0010
0000
,  // measure 12
0001
0000
0100
0000
0010
0000
0100
0001
0000
0001
0100
0000
0010
0000
1000
0000
,  // measure 13
0001
0000
1000
0000
0100
0000
0010
0100
0000
0100
1000
0000
0010
0000
1000
0000
,  // measure 14
0100
0000
0010
0000
0001
0000
0100
0010
0000
0010
0100
0000
0001
0000
0010
0000
,  // measure 15
0100
0000
1000
0000
0010
0000
1000
0100
0000
0100
1000
0000
0001
0000
1000
0000
,  // measure 16
0010
1000
0010
0000
0001
0000
0100
0000
0001
0100
0001
0000
0100
0000
0010
0000
,  // measure 17
1001
0000
0000
0000
1000
0100
0010
0100
1000
0000
0100
1100
0000
0101
0000
1100
,  // measure 18
0000
1000
0001
0100
0020
0000
2030
0000
3002
0000
0103
0110
0000
0101
0000
0011
,  // measure 19
0000
0010
0100
1000
0010
1000
0100
1000
0010
0000
1000
1100
0000
1001
0000
1100
,  // measure 20
0000
0001
0010
0100
2000
0000
3020
0000
0230
0000
0310
1010
0000
1100
0000
1010
,  // measure 21
1002
0000
0103
0000
1000
0000
0100
0000
1000
0000
0010
0000
1000
0010
1000
0010
,  // measure 22
1000
0000
0000
0000
0010
0000
0001
0000
0100
0000
0001
0000
0010
0001
0010
0001
,  // measure 23
0010
0000
0000
0000
0001
0000
0010
0000
0100
0000
1000
0000
0001
1000
0001
1000
,  // measure 24
0001
0000
0000
0000
1000
0000
0010
0000
0100
0000
0001
0000
0100
0001
0100
0001
,  // measure 25
0100
0000
0000
0000
0100
0000
0010
0000
1000
0000
0001
0000
1000
0100
1000
0100
,  // measure 26
1000
0000
0000
0000
0001
0000
0010
0000
0100
0000
1000
0000
0010
1000
0010
1000
,  // measure 27
0010
0000
0000
0000
1000
0000
0001
0000
0010
0000
0100
0000
1000
0100
1000
0100
,  // measure 28
1000
0000
0000
0000
1000
0000
0001
0000
0100
0000
0010
0000
1000
0010
1000
0010
,  // measure 29
1000
0000
0000
0000
0001
0000
0100
0000
0010
0000
0100
0000
0001
0010
0001
0010
,  // measure 30
0001
0000
0010
0000
0100
0000
1000
0000
0010
0000
1000
0000
0001
0100
0001
0100
,  // measure 31
0001
0000
0100
0000
0010
0000
1000
0000
0001
0000
1000
0000
0010
1000
0010
1000
,  // measure 32
0010
1000
0001
1000
0001
0100
0220
0000
,  // measure 33
0000
0000
0330
0000
1000
0000
0001
0000
0010
0000
0100
0000
1000
0100
1000
0100
,  // measure 34
0010
0001
0010
0001
1000
0000
0100
0000
0010
0000
0001
0000
0100
0001
0100
0001
,  // measure 35
0100
0010
0100
0010
1000
0000
1000
0000
0100
0000
0100
0000
0010
0000
0010
0000
,  // measure 36
0001
0000
0001
0000
0020
0000
0230
0000
2300
0000
3002
0000
1003
0010
0100
0010
,  // measure 37
1000
1100
0101
1100
,  // measure 38
0001
0011
0000
0101
0000
0011
0000
0010
,  // measure 39
0100
1000
1010
0000
1100
0000
1010
0000
,  // measure 40
1000
1100
0000
0101
0000
1100
0000
0001
,  // measure 41
0100
0010
1010
0000
1100
0000
1010
0000
,  // measure 42
0100
0101
0000
0011
0000
0101
0000
0001
,  // measure 43
0010
0100
1100
0000
1010
0000
1100
0000
,  // measure 44
0010
1010
0000
1001
0000
0101
0000
0001
,  // measure 45
1000
0001
1001
0000
1100
0000
1001
0000
,  // measure 46
1000
1010
0000
0101
0000
1010
0000
0001
,  // measure 47
0010
0100
1010
0000
1100
0000
1010
0000
,  // measure 48
1000
1100
0000
0101
0000
1100
0000
0001
,  // measure 49
0100
0010
0101
0000
0011
0000
0101
0000
,  // measure 50
0001
0011
0000
1100
0000
0011
0000
1000
,  // measure 51
0100
0000
0010
0000
0001
0010
0001
0010
0001
0000
1000
0000
0010
1000
0010
1000
,  // measure 52
0010
0000
1000
0000
0010
0000
0100
0000
0001
0000
1000
0000
0001
0010
0100
1000
,  // measure 53
0200
0000
0000
0000
,  // measure 54
0000
0000
0000
0300
;
