#TITLE:UNBELIEVABLE (Sparky remix);
#SUBTITLE:;
#ARTIST:jun feat. Sarah-Jane;
#TITLETRANSLIT:;
#SUBTITLETRANSLIT:;
#ARTISTTRANSLIT:;
#GENRE:;
#CREDIT:yamamoto_;
#MENUCOLOR:;
#METERTYPE:DDR X;
#BANNER:UNBELIEVABLE (Sparky Remix).png;
#BACKGROUND:UNBELIEVABLE (Sparky Remix)-bg.png;
#LYRICSPATH:;
#CDTITLE:;
#MUSIC:UNBELIEVABLE (Sparky Remix).mp3;
#OFFSET:-0.063;
#SAMPLESTART:43.949;
#SAMPLELENGTH:15.000;
#SELECTABLE:YES;
#LISTSORT:;
#DISPLAYBPM:87.000:175.000;
#BPMS:0.000=175.000,256.000=87.500,272.000=175.000;
#STOPS:;
#BGCHANGES:;
#ATTACKS:;

//---------------dance-single - yamamoto_----------------
#NOTES:
     dance-single:
     yamamoto_:
     Beginner:
     3:
     0.179,0.200,0.036,0.000,0.000:
0000
0000
0000
0000
,
0000
0000
0000
0000
,
0000
0000
0000
0000
,
0000
0000
0000
0000
,
1000
0000
0000
0000
,
0100
0000
0000
0000
,
0100
0000
0000
0000
,
0110
0000
0000
0000
,
1000
0000
0001
0000
,
1000
0000
0001
0000
,
0001
0000
1000
0000
,
0001
0000
1000
0000
,
1000
0000
0001
0000
,
1000
0000
0001
0000
,
0001
0000
1000
0000
,
0001
0000
1000
0000
,
1000
0000
0100
0000
,
1000
0000
0010
0000
,
0001
0000
0100
0000
,
0001
0000
0010
0000
,
0100
0000
0010
0000
,
0100
0000
0010
0000
,
0100
0000
1000
0000
,
1000
0000
0010
0000
,
0001
0000
0100
0000
,
0001
0000
0100
0000
,
0001
0000
0010
0000
,
0001
0000
0100
0000
,
0001
0000
0100
0000
,
0001
0000
0100
0000
,
0001
0000
0010
0000
,
0110
0000
0000
0000
,
1000
0000
1000
0000
,
0100
0000
0001
0000
,
0001
0000
0010
0000
,
0001
0000
1000
0000
,
1000
0000
0010
0000
,
1000
0000
0010
0000
,
0010
0000
0010
0000
,
0001
0010
0100
0000
,
0010
0000
0100
0000
,
0010
0000
0010
0000
,
0100
0000
0100
0000
,
0010
0000
1000
0000
,
1000
0000
1000
0000
,
1000
0000
0100
0000
,
0100
0000
1000
0000
,
1001
0000
0000
0000
,
0010
0000
1000
0000
,
1000
0000
0010
0000
,
0100
0000
0100
0000
,
1000
0000
0001
0000
,
1000
0000
0100
0000
,
1000
0000
0010
0000
,
0010
0000
1000
0000
,
1000
0000
0100
0000
,
0010
0000
0001
0000
,
0010
0000
0001
0000
,
1000
0000
0010
0000
,
0100
0000
0001
0000
,
0100
0000
0010
0000
,
1000
0000
0001
0000
,
0100
0000
0010
0000
,
0110
0000
0000
0000
,
1000
0000
1000
0000
,
0100
0000
0100
0000
,
0010
0000
0010
0000
,
0001
0000
0001
0000
,
0010
0000
0010
0000
,
1000
0000
1000
0000
,
0100
0000
0100
0000
,
1000
0000
1000
0000
,
0010
0000
0010
0000
,
0100
0000
0100
0000
,
0100
0000
0010
0000
,
0010
0000
0000
0000
;

//---------------dance-single - yamamoto_----------------
#NOTES:
     dance-single:
     yamamoto_:
     Easy:
     6:
     0.359,0.433,0.186,0.000,0.000:
0000
0000
0000
0000
,
0000
0000
0000
0000
,
0000
0000
0000
0000
,
0000
0000
0000
0000
,
1000
0001
0000
1000
,
0100
0010
0001
0010
,
0100
0010
0010
0100
,
0110
0000
0000
1001
,
1000
0100
0001
0010
,
1000
0100
0001
0000
,
0001
0100
1000
0010
,
0001
0100
1000
0000
,
1000
0100
0001
0010
,
1000
0100
0001
0000
,
0001
0100
1000
0010
,
0001
0100
1000
0000
,
1000
0010
0100
0001
,
1000
0100
0010
0000
,
0001
0010
0100
1000
,
0001
0100
0010
1000
,
0100
1000
0010
0001
,
0100
1000
0010
0000
,
0100
0010
1000
0001
,
1000
0100
0010
0000
,
0001
0010
0100
1000
,
0001
0010
0100
1000
,
0001
1000
0010
0100
,
0001
1000
0100
0010
,
0001
0010
0100
1000
,
0001
0010
0100
1000
,
0001
1000
0010
0110
,
0110
0000
0000
1001
,
1000
0100
1000
0100
,
1100
0000
0101
0000
,
0001
0100
0010
1000
,
0001
1000
1001
0000
,
1000
0100
0010
0001
,
1000
0100
0010
0001
,
0010
0011
0010
0011
,
0001
0010
0100
1000
,
0010
1000
0100
1000
,
0010
1100
0010
0101
,
0100
0010
0100
0001
,
0010
0100
1000
0010
,
1000
0100
1000
1010
,
1000
0001
0100
0101
,
0100
0010
1000
0001
,
1001
0000
0000
0110
,
0010
0100
1000
0010
,
1000
0100
0010
0001
,
0100
0010
0100
0001
,
1000
0100
0001
0100
,
1000
0010
0100
0001
,
1000
0100
0010
0001
,
0010
0100
1000
0001
,
1000
0100
0100
1000
,
0010
0100
0001
0100
,
0010
1000
0001
0010
,
1000
1000
0010
1000
,
0100
0010
0001
1000
,
0100
1001
0010
1001
,
1000
1100
0001
0101
,
0100
0100
0010
0010
,
0110
0000
0000
0000
,
1000
0000
0001
1000
,
0100
0001
0010
1000
,
0100
0000
0010
0100
,
1000
0001
0100
0000
,
0010
0010
0010
0010
,
1000
0001
1000
0001
,
0100
0100
0100
0100
,
1000
0001
1000
0001
,
0010
1000
0010
0001
,
0100
1000
0100
0001
,
0100
1000
0010
0001
,
1000
0000
0000
0000
;

//---------------dance-single - yamamoto_----------------
#NOTES:
     dance-single:
     yamamoto_:
     Medium:
     10:
     0.472,0.632,0.399,0.018,0.000:
0000
0000
0000
0000
,
0000
0000
0000
0000
,
0000
0000
0000
0000
,
0000
0000
0000
0000
,
1000
0000
0001
0000
0000
1000
0001
1000
,
0000
0001
0000
1000
0000
0010
0100
0000
,
0001
0000
0100
0000
0010
0000
1000
0010
,
1000
0000
1000
1001
,
1000
0100
1000
0100
0000
0000
0010
0000
,
0001
0010
0001
0010
0000
0000
0010
0000
,
0100
1000
0010
1000
0000
0100
0000
1000
,
0000
0000
1100
0101
,
0100
0001
0100
0001
0000
0000
0000
0000
,
1000
0010
1000
0010
0000
0000
1000
0001
,
1000
0000
0000
0001
0000
0000
1000
0100
,
0010
0001
0011
1100
,
0001
1000
0001
1000
0000
0000
0001
0000
,
0100
0001
0100
0001
0000
0000
0100
0000
,
0010
1000
0010
1000
0000
0001
0000
1000
,
0000
0000
1100
0011
,
0010
0001
0010
0001
0000
0000
1000
0000
,
0100
1000
0100
1000
0000
0000
0001
1000
,
0001
0000
0000
0000
0000
0000
1000
0001
,
1000
0000
1001
0000
,
1000
0000
0010
0000
0100
0001
0100
0000
,
0001
0000
0100
0000
0010
1000
0010
0000
,
1000
0000
0001
0000
1000
0001
1000
0000
,
0100
0000
0010
0000
0100
0010
0100
0000
,
0010
0000
0001
0000
0010
0001
0010
0000
,
0100
0000
1000
0000
0100
1000
0100
0000
,
1000
0000
0001
0000
1000
0001
1000
0000
,
2002
0000
0000
3003
,
1001
1000
1001
0001
,
0001
1000
0100
0000
1000
0001
0100
0000
,
0010
0101
0010
1100
,
1000
0100
1000
0000
0001
0010
0001
0000
,
1001
0010
1001
0010
,
1000
0010
1000
0000
0001
0010
0001
0000
,
1000
1100
0001
0101
,
0100
0010
0100
0010
0100
0000
0100
0000
,
0010
1000
0100
0010
,
0001
0010
0100
1000
0001
0010
0100
1000
,
0010
1000
0100
1000
,
0010
1000
0100
1000
0010
1000
0100
1000
,
0100
0001
0100
0010
,
1000
0010
0100
0001
1000
0010
0100
0001
,
1000
0100
0010
0001
,
0010
0000
0110
0110
,
0010
0000
0100
0000
0000
1000
0100
1000
,
0000
0001
0000
1000
0000
0000
0010
0000
,
0100
0001
0100
0010
,
1000
1001
0001
1001
,
1100
0000
1100
0000
0000
1000
0100
1000
,
0000
0100
0000
1000
0000
0000
0010
0000
,
0100
0001
0100
0010
,
1000
1001
0001
1001
,
1100
0000
1001
0000
0000
0001
0100
0001
,
0000
0100
0000
0010
0000
0000
1000
0000
,
0010
0100
0001
1000
,
1000
1100
0001
0011
,
0011
0000
1100
0000
0000
1000
0100
1000
,
0000
0100
0000
1000
0000
0010
0000
0000
,
0100
0000
0001
0000
0100
0000
0010
1000
,
0001
0000
0000
0000
,
1001
0000
0000
1000
1100
0110
0011
0000
,
0001
0000
1000
0000
0101
0110
1010
0000
,
1001
0000
0010
0000
0110
1100
0110
0000
,
0010
0000
0001
0000
0011
0101
0011
0000
,
0001
1000
0001
1000
,
0010
0100
0010
0100
,
0001
0100
0001
0000
1000
0100
1000
0000
,
0001
0010
0001
0000
1000
0010
1000
0000
,
1000
1000
1000
1000
,
0001
0001
0001
0001
,
0010
0100
0010
0100
0010
0100
0010
0100
,
0010
0000
0000
0000
;

//---------------dance-single - yamamoto_----------------
#NOTES:
     dance-single:
     yamamoto_:
     Hard:
     13:
     0.682,0.732,0.666,0.364,0.089:
0000
0000
0000
0000
,
0000
0000
0000
0000
,
0000
0000
0000
0000
,
0000
0000
0000
0000
,
1100
0000
0101
0000
0000
0100
0100
0200
,
0000
0320
0000
2030
0000
3010
0100
0001
,
0101
0000
0011
0000
1100
0000
1001
1000
,
0001
0000
0000
0000
0000
0000
0000
0000
1000
0001
1000
0001
1000
0000
0000
0000
,
0001
0100
1000
0010
0000
0001
0100
0010
,
1000
0100
0001
0010
0000
1000
0100
0010
,
0001
0010
0100
2000
0000
3020
0000
0230
,
0000
0300
0000
0000
0011
0000
0101
0000
,
0011
0100
1000
0010
0000
1000
0100
0010
,
0001
0100
0010
0100
0000
0000
0001
0100
,
0110
0000
0000
1001
0000
0000
1000
0100
,
0010
0000
0000
0011
0000
0000
1001
0000
1000
0001
1000
0001
1000
0000
0000
0000
,
1000
0001
0100
0010
0000
1000
0001
0010
,
0100
1000
0010
1000
0000
0100
0010
0100
,
1000
0010
0100
0002
0000
0203
0000
0320
,
0000
0030
0000
0000
1100
0000
1010
0000
,
1000
0100
0010
0001
0000
0100
0010
0100
,
0001
0010
0100
1000
0000
0010
0100
0001
,
0100
0010
1000
0000
0001
1000
0010
0000
,
1010
0011
0101
1100
,
2000
0001
3100
0000
0001
0010
0100
0000
,
2000
0010
3010
0000
1000
0010
0100
0000
,
0001
0100
0010
1000
0001
0010
0011
0000
,
1000
0010
0100
0010
1000
0010
1010
0000
,
2000
0100
3001
0000
0001
0010
0100
0000
,
2000
0010
3001
0000
0100
1000
0010
0000
,
0100
0001
0100
0010
1000
0001
0010
0100
,
1000
0000
0000
1100
0000
0000
0011
0000
0001
0000
0000
0000
0000
0000
0000
0000
,
2001
3100
1002
0103
,
1000
0010
0100
0001
1000
0010
0100
0000
,
0001
1000
1100
0000
1000
0001
0101
0000
,
0010
0100
0001
1000
0100
0010
0001
0000
,
2001
3001
1002
0103
,
1000
0001
0101
0000
0001
1000
1010
0000
,
1000
0010
0100
0010
1000
0100
0010
0000
,
0001
0010
0001
0010
0001
1000
0001
1000
0001
0000
0000
0000
1100
0000
0000
0000
,
1001
0101
1010
1001
,
0001
0010
0100
1000
0010
1000
0100
0000
,
1000
0001
0101
0000
0001
1000
1010
0000
,
1000
0010
0100
0001
0010
0100
1000
0000
,
1100
1001
0101
0110
,
0100
0010
0110
0000
0010
1000
1010
0000
,
1000
0100
0001
0100
1000
0010
0001
0010
,
2002
0000
3003
0110
,
0011
0000
1010
0000
0000
0010
0010
0020
,
0000
0230
0000
0302
0000
0103
0010
1000
,
1010
0000
1100
0000
0011
0000
1001
0001
,
0000
1000
0100
0010
0001
0000
1001
0000
,
0101
0000
1010
0000
0000
1000
0010
0200
,
0000
0302
0000
2003
0000
3010
1000
0100
,
1100
0000
0011
0000
1100
0000
1000
0010
,
0100
0001
0100
0001
0100
0000
0000
0000
0010
0000
1000
0000
1010
0000
0000
0000
,
1010
0000
0101
0000
0000
1000
0010
0200
,
0000
0302
0000
2003
0000
3100
0010
0001
,
0011
0000
1100
0000
1000
0100
0001
0100
,
1000
0010
0100
0001
0100
0000
1010
0000
,
1001
0000
0101
0000
0000
0100
0010
2000
,
0000
3002
0000
2003
0000
3001
0010
0100
,
0011
0000
1010
0000
1001
0000
0010
0100
,
0110
0000
0000
0000
,
0020
0000
0000
0000
0000
1030
0100
0010
0002
0000
0203
0000
0302
0000
1003
0000
,
0010
0000
0000
0010
0000
0000
0010
0000
0100
0000
0000
0010
0110
0000
0000
0000
,
0200
0000
0000
0000
0000
0301
1000
0100
0020
0000
0032
0000
0203
0000
0301
0000
,
0020
0000
0000
0230
0000
0000
1300
0000
0100
0000
0000
0010
0011
0000
0000
0000
,
0100
0001
0100
0001
0100
0001
0100
0001
,
0010
0001
0010
0001
0010
0001
0010
0001
,
0010
0100
0010
0100
0010
0100
0010
0100
,
1000
0100
1000
0100
1000
0100
1000
0100
,
1000
0001
0100
0010
1000
0001
0100
0010
,
1000
0100
0010
0001
1000
0100
0010
0001
,
0011
0000
1100
0000
1001
0000
0100
0100
,
0100
0000
0000
0000
;
