#TITLE:U-Go-Girl;
#SUBTITLE:;
#ARTIST:LEE HYORI with NASSUN;
#TITLETRANSLIT:;
#SUBTITLETRANSLIT:;
#ARTISTTRANSLIT:LEE HYORI with NASSUN;
#GENRE:;
#CREDIT:Chewi☆;
#MENUCOLOR:#FFFF00;
#METERTYPE:DDR X;
#BANNER:U-Go-Girl.png;
#BACKGROUND:U-Go-Girl-bg.png;
#LYRICSPATH:;
#CDTITLE:;
#MUSIC:U-Go-Girl.mp3;
#OFFSET:-0.525;
#SAMPLESTART:38.507;
#SAMPLELENGTH:15.000;
#SELECTABLE:YES;
#LISTSORT:;
#DISPLAYBPM:101.000;
#BPMS:0.000=101.000;
#STOPS:;
#BGCHANGES:;
#ATTACKS:;

//---------------dance-single - Chewi----------------
#NOTES:
     dance-single:
     Chewi:
     Beginner:
     1:
     0.057,0.082,0.020,0.000,0.000:
0000
0000
0000
0000
,
0000
0000
0000
0000
,
0000
0000
0000
0000
,
0000
0000
0000
0000
,
1000
0000
0000
0000
,
0001
0000
0000
0000
,
1000
0000
0000
0000
,
0010
0000
0000
0000
,
0100
0000
0000
0000
,
0010
0000
0000
0000
,
0100
0000
0000
0000
,
0001
0000
0000
0000
,
0110
0000
0000
0000
,
0010
0000
0000
0000
,
1000
0000
0000
0000
,
0100
0000
0000
0000
,
0010
0000
0000
0000
,
0100
0000
0000
0000
,
1000
0000
0000
0000
,
1001
0000
0000
0000
,
0100
0000
0000
0000
,
0010
0000
0000
0000
,
1000
0000
0000
0000
,
0001
0000
0000
0000
,
0100
0000
0000
0000
,
0010
0000
0000
0000
,
0100
0000
0000
0000
,
0010
0000
0000
0000
,
0100
0000
0000
0000
,
1000
0000
0000
0000
,
0100
0000
0000
0000
,
0001
0000
0000
0000
,
1000
0000
0000
0000
,
1000
0000
0000
0000
,
0010
0000
0000
0000
,
0001
0000
0000
0000
,
0100
0000
0000
0000
,
0010
0000
0000
0000
,
0001
0000
0000
0000
,
0100
0000
0000
0000
,
0001
0000
0000
0000
;

//---------------dance-single - Chewi----------------
#NOTES:
     dance-single:
     Chewi:
     Easy:
     3:
     0.178,0.225,0.031,0.133,0.000:
0000
0000
0000
0000
,
0000
0000
0000
0000
,
0000
0000
0000
0000
,
0000
0000
0000
0000
,
0000
1000
0001
1000
,
0001
0001
1000
0001
,
1000
0010
0100
0100
,
0010
1000
0001
1000
,
0000
0100
0010
0100
,
0010
0100
1000
1000
,
0100
0001
0100
0100
,
0001
1000
0001
0010
,
0110
0000
0001
0000
,
0010
0010
0010
0010
,
1000
0000
0001
0000
,
0100
0100
0100
0100
,
0020
0030
0010
0100
,
0200
0300
0100
0010
,
2000
3000
1000
0001
,
1001
0000
0110
0000
,
0200
0300
0100
0010
,
0020
0030
0010
0100
,
2000
3000
1000
0001
,
0002
1003
2000
3001
,
0100
0000
1000
0000
,
0010
1000
0010
0000
,
0100
0000
0001
0000
,
0010
1000
0010
0000
,
0100
0000
0010
0000
,
1000
0100
0001
0000
,
0100
0000
0010
0000
,
0001
1000
0010
0000
,
2000
0000
3000
0000
,
1000
0100
0001
0010
,
0020
0000
0030
0000
,
0001
0100
1000
0010
,
0200
0000
0300
0000
,
0010
1000
0100
0001
,
0002
0000
0003
0000
,
0100
1000
0010
0002
,
0003
0000
0000
0000
;

//---------------dance-single - Chewi----------------
#NOTES:
     dance-single:
     Chewi:
     Medium:
     6:
     0.249,0.328,0.174,0.174,0.000:
0000
0000
0000
0000
,
0000
0000
0000
0000
,
0000
0000
0000
0000
,
0000
0000
0000
0000
,
0000
0001
0010
0100
,
1000
1000
0100
0010
,
0001
1000
0001
0100
,
0010
1000
0001
0010
,
0000
0001
0010
1000
,
0100
0100
1000
0010
,
0001
0100
0010
0100
,
0010
0001
1000
1001
,
0101
0000
0000
0000
0100
1000
0100
0000
,
1000
0010
0100
0001
,
0011
0000
0000
0000
0001
0010
0001
0000
,
0010
0100
1000
0001
,
1001
0000
0100
0010
0100
0000
0010
0000
,
0110
0000
0010
0100
0010
0000
1000
0000
,
1001
0000
1000
0001
1000
0000
0001
0000
,
0220
0330
2002
3003
,
0101
0000
1000
0010
1000
0000
0010
0000
,
0110
0000
0100
0010
0100
0000
0010
0000
,
1100
0000
0100
0010
0100
0000
0010
0000
,
0022
0033
0202
0303
,
0010
0000
0010
0000
0010
0100
0010
0000
,
1000
0100
0010
0001
,
0100
0000
0100
0000
0010
0100
0010
0000
,
0001
0010
0100
1000
,
0001
0000
0100
0000
1000
0010
1000
0000
,
1000
0001
0010
0100
,
0001
0000
0010
0000
1000
0010
1000
0000
,
0010
0001
0100
1000
,
2002
0000
0000
3003
,
1000
0100
0001
0010
,
0220
0000
0000
0330
,
0001
0100
1000
0010
,
2020
0000
0000
3030
,
0010
1000
0100
0001
,
0022
0000
0000
0033
,
0010
0001
0100
0020
,
0030
0000
0000
0000
;

//---------------dance-single - Chewi----------------
#NOTES:
     dance-single:
     Chewi:
     Hard:
     9:
     0.366,0.389,0.184,0.195,0.000:
0000
0000
0000
0000
,
0000
0000
0000
0000
,
0000
0000
0000
0000
,
0000
0000
0000
0000
,
0000
0000
0010
0100
1000
0100
0010
0100
,
1000
0000
0010
0100
0001
0100
0010
0100
,
0001
0000
1000
1000
1000
0000
0001
0001
,
0001
0110
1001
0110
,
0000
0000
0100
1000
0010
1000
0100
1000
,
0010
0000
0100
0001
0010
0001
0100
0001
,
0010
0000
0100
0100
0100
0000
0010
0010
,
0010
0110
1001
0110
,
0102
0000
0000
0000
1003
0100
1000
0000
,
0100
0010
1000
0100
,
2100
0000
0000
0000
3100
0001
0010
0000
,
0100
0000
0010
0000
0001
1000
0100
0000
,
0011
0000
1000
0100
1000
0100
1000
0100
,
0101
0000
0100
0001
0100
0001
0100
0001
,
0011
0000
0010
0100
0010
0100
0010
0100
,
1000
0100
0001
0000
0001
0100
1000
0010
,
0110
0100
0010
0100
0010
0100
0010
0100
,
0110
0000
1000
0100
1000
0100
1000
0100
,
1100
0000
0001
0010
0001
0010
0001
0010
,
0001
0010
1000
0000
1000
0010
0001
0100
,
0010
0000
1100
0000
0010
0100
0010
0000
,
0002
0203
2300
3020
,
0130
0000
1010
0000
0100
0010
1000
0000
,
2000
3200
0302
0023
,
0130
0000
0110
0000
0010
0100
0010
0000
,
2000
3002
0023
0230
,
0310
0000
1001
0000
0100
0010
0100
0000
,
0200
0320
2030
3002
,
1003
0100
1000
0100
1000
0100
0001
0100
,
1000
0100
0001
0100
1000
0100
0000
0000
,
0001
0010
0001
0010
0001
0010
1000
0010
,
0001
0010
1000
0010
0001
0010
0000
0000
,
1000
0100
1000
0100
1000
0100
1000
0100
,
0010
0100
1000
0100
0010
0100
0000
0000
,
0001
0100
0001
0100
0001
0100
0010
0100
,
0001
0100
0010
0100
0001
0010
0200
0000
,
0300
0000
0000
0000
;

//---------------dance-double - Chewi----------------
#NOTES:
     dance-double:
     Chewi:
     Easy:
     3:
     0.173,0.184,0.020,0.236,0.000: // measure 1
00000000
00000000
00000000
00000000
,  // measure 2
00000000
00000000
00000000
00000000
,  // measure 3
00000000
00000000
00000000
00000000
,  // measure 4
00000000
00000000
00000000
00000000
,  // measure 5
10000000
00000000
00100000
00000000
,  // measure 6
01000000
00000000
00010000
00000000
,  // measure 7
00001000
00000000
00010000
00000000
,  // measure 8
00000010
00000000
00000100
00000000
,  // measure 9
00000001
00000000
00000100
00000000
,  // measure 10
00000010
00000000
00001000
00000000
,  // measure 11
00010000
00000000
00001000
00000000
,  // measure 12
01000000
00000000
00010000
00000000
,  // measure 13
01100000
00000000
00100000
00100000
,  // measure 14
00100000
00000000
01000000
00000000
,  // measure 15
00011000
00000000
00010000
00010000
,  // measure 16
00010000
00000000
00001000
00000000
,  // measure 17
00000020
00000030
00000100
00000010
,  // measure 18
00000200
00000300
00000010
00000100
,  // measure 19
00002000
00003000
00000100
00010000
,  // measure 20
00002000
00003000
00020000
00030000
,  // measure 21
00002000
00003000
00100000
00010000
,  // measure 22
02000000
03000000
10000000
00100000
,  // measure 23
20000000
30000000
10000000
00010000
,  // measure 24
00200000
00300000
02000000
03000000
,  // measure 25
00100000
00010000
00100000
00000000
,  // measure 26
00020000
00030000
00002000
00003000
,  // measure 27
00010000
00001000
00000010
00000000
,  // measure 28
00000200
00000300
00000020
00000030
,  // measure 29
00001000
00000100
00010000
00000000
,  // measure 30
00002000
00003000
00020000
00030000
,  // measure 31
00001000
00100000
00010000
00000000
,  // measure 32
20000000
30000000
02000000
03000000
,  // measure 33
00200000
00000000
01300000
00100000
,  // measure 34
01000000
00100000
01000000
00100000
,  // measure 35
00020000
00000000
00000000
00031000
,  // measure 36
00010000
00001000
00010000
00001000
,  // measure 37
00000020
00000000
00000000
00001030
,  // measure 38
00000001
00001000
00000001
00001000
,  // measure 39
00000200
00000000
00000000
00001300
,  // measure 40
00000100
00010000
00001000
00020000
,  // measure 41
00030000
00000000
00000000
00000000
;

//---------------dance-double - Chewi----------------
#NOTES:
     dance-double:
     Chewi:
     Medium:
     6:
     0.272,0.287,0.184,0.092,0.000: // measure 1
00000000
00000000
00000000
00000000
,  // measure 2
00000000
00000000
00000000
00000000
,  // measure 3
00000000
00000000
00000000
00000000
,  // measure 4
00000000
00000000
00000000
00000000
,  // measure 5
01010000
00000000
01000000
00000000
10000000
01000000
00010000
00000000
,  // measure 6
00110000
00000000
00100000
00000000
00010000
00100000
00001000
00000000
,  // measure 7
00010000
00001000
00000010
00000001
,  // measure 8
00000100
00001000
00000010
00000001
,  // measure 9
00001010
00000000
00000010
00000000
00001000
00000010
00001000
00000000
,  // measure 10
00010000
00000000
00011000
00000000
00001000
00010000
01000000
00000000
,  // measure 11
10000000
00100000
00010000
01000000
,  // measure 12
10000000
01000000
00010000
00100000
,  // measure 13
01100000
00000000
00000000
00000000
00010000
00010000
00010000
00000000
,  // measure 14
00010000
00001000
00000100
00001000
,  // measure 15
00001100
00000000
00000000
00000000
00000100
00000100
00000100
00000000
,  // measure 16
00000100
00001000
00010000
01000000
,  // measure 17
01100000
00000000
10000000
00000000
10000000
10000000
10000000
00000000
,  // measure 18
10010000
00000000
00010000
00000000
00010000
00010000
00010000
00000000
,  // measure 19
00110000
00000000
00100000
00000000
00100000
00100000
00100000
00000000
,  // measure 20
00010000
00001000
00001000
00010000
,  // measure 21
00001010
00000000
00001000
00000000
00001000
00001000
00001000
00000000
,  // measure 22
00000101
00000000
00000001
00000000
00000001
00000001
00000001
00000000
,  // measure 23
00001001
00000000
00000010
00000000
00000010
00000010
00000010
00000000
,  // measure 24
00001000
00001100
00000010
00001010
,  // measure 25
00000010
00001000
00010000
01000000
,  // measure 26
10000000
01000000
00100000
00010000
00100000
00000000
01000000
00000000
,  // measure 27
00100000
00010000
00001000
00000100
,  // measure 28
00000001
00000010
00000100
00001000
00000010
00000000
00000100
00000000
,  // measure 29
00000010
00001000
00010000
01000000
,  // measure 30
00100000
10000000
01000000
00100000
00010000
00000000
00100000
00000000
,  // measure 31
01000000
00100000
00010000
00001000
,  // measure 32
00000010
00000001
00000100
00001000
00000010
00000000
00000100
00000000
,  // measure 33
00002002
00000000
00003003
00001000
,  // measure 34
00000001
00000000
00000010
00000000
00000100
00000100
00000100
00000000
,  // measure 35
00002200
00000000
00003300
00000100
,  // measure 36
00010000
00000000
00001000
00000000
00100000
00100000
00100000
00000000
,  // measure 37
00220000
00000000
00000000
00000000
00000000
00330000
10000000
00000000
,  // measure 38
01000000
00000000
10000000
00000000
01000000
01000000
01000000
00000000
,  // measure 39
20020000
00000000
30030000
10000000
,  // measure 40
00010000
00000000
00100000
00000000
00010000
00100000
00001000
00020000
,  // measure 41
00000000
00030000
00000000
00000000
00000000
00000000
00000000
00000000
00000000
00000000
00000000
00000000
00000000
00000000
00000000
00000000
00000000
00000000
00000000
00000000
00000000
00000000
00000000
00000000
00000000
00000000
00000000
00000000
00000000
00000000
00000000
00000000
00000000
00000000
00000000
00000000
00000000
00000000
00000000
00000000
00000000
00000000
00000000
00000000
00000000
00000000
00000000
00000000
00000000
00000000
00000000
00000000
00000000
00000000
00000000
00000000
00000000
00000000
00000000
00000000
00000000
00000000
00000000
00000000
00000000
00000000
00000000
00000000
00000000
00000000
00000000
00000000
00000000
00000000
00000000
00000000
00000000
00000000
00000000
00000000
00000000
00000000
00000000
00000000
00000000
00000000
00000000
00000000
00000000
00000000
00000000
00000000
00000000
00000000
00000000
00000000
00000000
00000000
00000000
00000000
00000000
00000000
00000000
00000000
00000000
00000000
00000000
00000000
00000000
00000000
00000000
00000000
00000000
00000000
00000000
00000000
00000000
00000000
00000000
00000000
00000000
00000000
00000000
00000000
00000000
00000000
00000000
00000000
00000000
00000000
00000000
00000000
00000000
00000000
00000000
00000000
00000000
00000000
00000000
00000000
00000000
00000000
00000000
00000000
00000000
00000000
00000000
00000000
00000000
00000000
00000000
00000000
00000000
00000000
00000000
00000000
00000000
00000000
00000000
00000000
00000000
00000000
00000000
00000000
00000000
00000000
00000000
00000000
00000000
00000000
00000000
00000000
00000000
00000000
00000000
00000000
00000000
00000000
00000000
00000000
00000000
00000000
00000000
00000000
00000000
00000000
00000000
00000000
00000000
00000000
00000000
00000000
;

//---------------dance-double - Chewi----------------
#NOTES:
     dance-double:
     Chewi:
     Hard:
     9:
     0.379,0.369,0.205,0.215,0.000:
00000000
00000000
00000000
00000000
,
00000000
00000000
00000000
00000000
,
00000000
00000000
00000000
00000000
,
00000000
00000000
00000000
00000000
,
10000000
00000000
11000000
00000000
01000000
00100000
00010000
00000000
,
01000000
00000000
01010000
00000000
01000000
00010000
00001000
00000000
,
00001000
00000000
00001010
00000000
00001000
00000001
00000010
00000000
,
00000100
00000010
00000100
00000000
00000010
00000100
00000010
00000000
,
00000001
00000000
00000101
00000000
00000100
00000010
00001000
00000000
,
00000100
00000000
00010100
00000000
00001000
00010000
01000000
00000000
,
00100000
00000000
10010000
00000000
10000000
01000000
00100000
00000000
,
00010000
10000000
00010000
10000000
00100000
01000000
00100000
01000000
,
02020000
00000000
03030000
00000000
00100000
00010000
00100000
00000000
,
01000000
00100000
00010000
00000000
00100000
00000000
00101000
00000000
,
00022000
00000000
00033000
00000000
00010000
00001000
00000010
00000000
,
00001000
00000100
00000010
00000000
00000001
00000000
00000101
00000000
,
00001010
00000000
00000001
00001000
00000100
00001000
00000001
00000100
,
00000110
00000000
00000010
00001000
00000100
00010000
00001000
00100000
,
00110000
00000000
00010000
00100000
01000000
00100000
00010000
01000000
,
00100000
00100000
00100000
00000000
01000000
01000000
01000000
00100000
,
10100000
00000000
10000000
01000000
00100000
00010000
00100000
01000000
,
00110000
00000000
00100000
00010000
00001000
00000100
00000010
00000001
,
00000101
00000000
00000001
00000100
00001000
00000010
00001000
00000100
,
00000010
00000010
00000010
00000000
00000100
00000100
00000100
00000100
,
00001000
00000000
00001100
00000000
00000001
00000100
00001000
00000000
,
00000020
00002030
00023000
02030000
,
03100000
00000000
01010000
00000000
10000000
01000000
00100000
00000000
,
02000000
03200000
00320000
00032000
,
00003100
00000000
00001100
00000000
00001000
00000100
00000010
00000000
,
00000002
00002003
00003200
00002300
,
00003100
00000000
00001100
00000000
00000100
00010000
00001000
00000000
,
00002000
00023000
02030000
03200000
,
10300000
00010000
10000000
00010000
10000000
00010000
10000000
00100000
,
01000000
00010000
10000000
00100000
01000000
00010000
00100000
00100000
,
00010000
00100000
00010000
00100000
00010000
00100000
00010000
00100000
,
00001000
00010000
00001000
00000010
00001000
00010000
00001000
00000100
,
00000001
00000100
00000001
00000100
00000001
00000100
00000010
00000100
,
00000001
00000100
00000010
00001000
00000100
00001000
00000010
00001000
,
00000100
00001000
00000100
00001000
00000100
00001000
00000100
00001000
,
00000100
00010000
00001000
00010000
00000100
00010000
00001000
00020000
,
00030000
00000000
00000000
00000000
;
