#TITLE:Two Is Better Than One (Mike Rizzo Remix);
#SUBTITLE:;
#ARTIST:Boys Like Girls feat. Taylor Swift;
#TITLETRANSLIT:;
#SUBTITLETRANSLIT:;
#ARTISTTRANSLIT:;
#GENRE:;
#CREDIT:Chewi☆;
#MENUCOLOR:#FFFFFF;
#METERTYPE:DDR X;
#BANNER:Two Is Better Than One (Mike Rizzo Remix).png;
#BACKGROUND:Two Is Better Than One (Mike Rizzo Remix)-bg.png;
#LYRICSPATH:;
#CDTITLE:./CDTITLES/DanceDanceRevolution skyMIX2 -FREEDOM-.png;
#MUSIC:Two Is Better Than One (Mike Rizzo Remix).mp3;
#OFFSET:-0.077;
#SAMPLESTART:36.168;
#SAMPLELENGTH:15.000;
#SELECTABLE:YES;
#LISTSORT:;
#DISPLAYBPM:128.000;
#BPMS:0.000=128.000;
#STOPS:;
#BGCHANGES:;
#ATTACKS:;

//---------------dance-single - Chewi----------------
#NOTES:
     dance-single:
     Chewi:
     Beginner:
     1:
     0.076,0.130,0.043,0.007,0.000: // measure 1
0000
0000
0000
0000
,  // measure 2
0000
0000
0000
0000
,  // measure 3
0000
0000
0000
0000
,  // measure 4
0000
0000
0000
0000
,  // measure 5
1000
0000
0000
0000
,  // measure 6
1000
0000
0000
0000
,  // measure 7
0001
0000
0000
0000
,  // measure 8
0001
0000
0000
0000
,  // measure 9
1000
0000
0000
0000
,  // measure 10
1000
0000
0000
0000
,  // measure 11
0001
0000
0000
0000
,  // measure 12
0001
0000
0000
0000
,  // measure 13
0001
0000
0000
0000
,  // measure 14
1000
0000
0000
0000
,  // measure 15
0001
0000
0000
0000
,  // measure 16
1000
0000
0000
0000
,  // measure 17
0001
0000
0000
0000
,  // measure 18
1000
0000
0000
0000
,  // measure 19
0100
0000
0000
0000
,  // measure 20
0010
0000
0000
0000
,  // measure 21
1000
0000
0000
0000
,  // measure 22
0001
0000
0000
0000
,  // measure 23
0100
0000
0000
0000
,  // measure 24
0010
0000
0000
0000
,  // measure 25
1000
0000
0000
0000
,  // measure 26
0001
0000
0000
0000
,  // measure 27
0001
0000
0000
0000
,  // measure 28
1000
0000
0000
0000
,  // measure 29
0100
0000
0000
0000
,  // measure 30
0010
0000
0000
0000
,  // measure 31
0010
0000
0000
0000
,  // measure 32
0100
0000
0000
0000
,  // measure 33
0001
0000
0000
0000
,  // measure 34
0001
0000
0000
0000
,  // measure 35
0010
0000
0000
0000
,  // measure 36
0010
0000
0000
0000
,  // measure 37
1000
0000
0000
0000
,  // measure 38
0100
0000
0000
0000
,  // measure 39
0001
0000
0000
0000
,  // measure 40
0000
0000
0000
0000
,  // measure 41
1001
0000
0000
0000
,  // measure 42
0001
0000
0000
0000
,  // measure 43
0110
0000
0000
0000
,  // measure 44
0100
0000
0000
0000
,  // measure 45
1001
0000
0000
0000
,  // measure 46
0010
0000
0000
0000
,  // measure 47
1000
0000
0000
0000
,  // measure 48
0010
0000
0000
0000
,  // measure 49
0001
0000
0000
0000
,  // measure 50
1000
0000
0000
0000
,  // measure 51
0010
0000
0000
0000
,  // measure 52
0100
0000
0000
0000
,  // measure 53
0100
0000
0000
0000
,  // measure 54
0010
0000
0000
0000
,  // measure 55
0100
0000
0000
0000
,  // measure 56
0010
0000
0000
0000
,  // measure 57
0010
0000
0000
0000
,  // measure 58
0010
0000
0000
0000
,  // measure 59
1000
0000
0000
0000
,  // measure 60
1001
0000
0000
0000
,  // measure 61
1001
0000
0000
0000
,  // measure 62
0100
0000
0000
0000
,  // measure 63
0010
0000
0000
0000
,  // measure 64
1000
0000
0000
0000
,  // measure 65
1000
0000
0000
0000
,  // measure 66
1000
0000
0000
0000
,  // measure 67
1000
0000
0000
0000
,  // measure 68
0100
0000
0000
0000
,  // measure 69
0110
0000
0000
0000
,  // measure 70
0010
0000
0000
0000
,  // measure 71
0020
0000
0000
0000
,  // measure 72
0000
0000
0000
0000
,  // measure 73
0030
0000
0000
0000
;

//---------------dance-single - Chewi----------------
#NOTES:
     dance-single:
     Chewi:
     Easy:
     4:
     0.221,0.287,0.094,0.109,0.000: // measure 1
0000
0000
0000
0000
,  // measure 2
0000
0000
0000
0000
,  // measure 3
0000
0000
0000
0000
,  // measure 4
0000
0000
0000
0000
,  // measure 5
1000
0000
0100
0000
,  // measure 6
1000
0100
1000
0000
,  // measure 7
0001
0000
0100
0000
,  // measure 8
0001
0100
0001
0000
,  // measure 9
1000
0000
0010
0000
,  // measure 10
1000
0010
1000
0000
,  // measure 11
0001
0000
0010
0000
,  // measure 12
0001
0010
0001
0000
,  // measure 13
0001
0000
0100
0000
,  // measure 14
1000
0010
0001
0000
,  // measure 15
0001
0000
0010
0000
,  // measure 16
1000
0100
0001
0000
,  // measure 17
0001
0000
1001
0000
,  // measure 18
1000
0000
1001
0000
,  // measure 19
0100
0010
0100
0000
,  // measure 20
0010
0100
0010
0000
,  // measure 21
2000
0000
0001
0002
,  // measure 22
0000
3003
0001
0010
,  // measure 23
0200
0000
0010
0020
,  // measure 24
0000
0330
0001
0100
,  // measure 25
2000
0000
0001
0002
,  // measure 26
0000
3003
0100
0010
,  // measure 27
0001
1000
0100
0000
,  // measure 28
1000
0001
0100
0000
,  // measure 29
0200
0000
0010
0020
,  // measure 30
0000
0330
0000
0000
,  // measure 31
0010
1000
0010
1000
,  // measure 32
0100
0001
1000
0100
,  // measure 33
0001
0010
0100
1000
,  // measure 34
0001
1000
0001
0100
,  // measure 35
0010
1001
0010
0100
,  // measure 36
0010
0110
1000
0001
,  // measure 37
2000
0000
0000
0001
,  // measure 38
0100
0010
0001
0002
,  // measure 39
0000
0000
0000
0000
,  // measure 40
0000
0000
0000
3003
,  // measure 41
1001
0000
0110
0000
,  // measure 42
0001
0100
1000
0010
,  // measure 43
0110
0000
1001
0000
,  // measure 44
0100
0001
0100
1000
,  // measure 45
1001
0000
0110
0000
,  // measure 46
0010
0001
0100
1000
,  // measure 47
2000
0000
0001
0000
,  // measure 48
0010
0000
0100
0000
,  // measure 49
3002
0000
0100
0000
,  // measure 50
1000
0000
0010
0100
,  // measure 51
0020
0000
0000
0003
,  // measure 52
0200
0000
0000
0330
,  // measure 53
0100
1000
0010
0000
,  // measure 54
0010
0001
0100
0000
,  // measure 55
0100
1000
0010
0000
,  // measure 56
0010
0001
0100
0000
,  // measure 57
0010
0001
0100
0000
,  // measure 58
0010
1000
0100
0000
,  // measure 59
1000
1000
0001
0001
,  // measure 60
1000
1001
0001
1001
,  // measure 61
0100
1000
0010
0000
,  // measure 62
0100
0001
0010
0000
,  // measure 63
0010
0100
0100
0010
,  // measure 64
1000
0100
0001
0100
,  // measure 65
1000
0001
0100
0010
,  // measure 66
1000
0001
0010
0100
,  // measure 67
1000
0100
0001
1000
,  // measure 68
0100
0001
1000
0100
,  // measure 69
0110
0000
0000
0001
,  // measure 70
0010
0100
1000
0100
,  // measure 71
0020
0000
0000
0000
,  // measure 72
0000
0000
0000
0000
,  // measure 73
0030
0000
0000
0000
;

//---------------dance-single - Chewi----------------
#NOTES:
     dance-single:
     Chewi:
     Medium:
     7:
     0.322,0.391,0.174,0.195,0.000: // measure 1
0000
0000
0000
0000
,  // measure 2
0000
0000
0000
0000
,  // measure 3
0000
0000
0000
0000
,  // measure 4
0000
0000
0000
0000
,  // measure 5
1000
0100
0001
0100
,  // measure 6
1000
0010
0001
0010
,  // measure 7
0100
0010
0100
0000
0010
0100
0010
0000
,  // measure 8
2000
3002
2003
3002
,  // measure 9
0023
0000
2030
0000
,  // measure 10
3200
0000
0302
0000
,  // measure 11
1003
1100
0001
0101
,  // measure 12
0100
0010
0100
0000
0010
0100
0010
0000
,  // measure 13
1000
0010
0001
0010
,  // measure 14
1000
0100
0001
0010
,  // measure 15
0001
0100
1000
0100
,  // measure 16
0001
0100
1000
0010
,  // measure 17
0100
0010
0100
0000
0010
0100
0010
0000
,  // measure 18
2000
3002
2003
3002
,  // measure 19
0023
0000
0032
0000
,  // measure 20
0203
0000
2300
0000
,  // measure 21
3010
0000
0000
0011
0000
0000
1100
0000
,  // measure 22
0000
0000
0001
0100
,  // measure 23
0010
0000
0000
1010
0000
0000
0101
0000
,  // measure 24
0000
0000
0001
0010
,  // measure 25
0100
0000
0000
1001
0000
0000
0110
0000
,  // measure 26
0000
0000
0010
1000
,  // measure 27
0100
0001
0100
1000
,  // measure 28
0001
1000
0001
0000
1000
0001
1000
0000
,  // measure 29
0010
0000
0000
0110
0000
0000
1001
0000
,  // measure 30
0000
0000
0000
0001
,  // measure 31
0010
1000
0100
0001
,  // measure 32
0100
1000
0010
0001
,  // measure 33
0100
0010
0100
0000
0001
1000
0001
0000
,  // measure 34
0010
0100
1000
0100
,  // measure 35
0010
0001
0100
0010
,  // measure 36
0001
0100
1000
0001
,  // measure 37
0100
0010
1000
0000
0001
0010
0100
0000
,  // measure 38
1000
1100
0101
1100
,  // measure 39
0001
0000
0001
0000
0100
0010
0100
0000
,  // measure 40
1000
0000
1000
0000
0010
0100
0010
0000
,  // measure 41
0001
0000
0000
0010
0100
0000
0000
1000
,  // measure 42
0100
0001
0100
1000
,  // measure 43
0001
1000
0010
0000
0100
0000
0101
0000
,  // measure 44
0001
1000
0100
0000
0010
0000
1100
0000
,  // measure 45
0001
1000
0001
1000
0100
0000
0000
0000
,  // measure 46
0100
0010
0001
0010
,  // measure 47
1100
0000
0100
0010
,  // measure 48
0001
0000
0000
1000
0000
0001
0000
1000
,  // measure 49
0000
0000
0010
0100
,  // measure 50
0001
0000
0000
0010
0000
1000
0000
0200
,  // measure 51
0000
0000
0000
0000
,  // measure 52
0020
0000
0000
0330
,  // measure 53
0010
1100
0010
0001
,  // measure 54
0010
0100
0010
0000
0100
0010
0100
0000
,  // measure 55
0010
0101
1000
0010
,  // measure 56
0100
0010
0100
0000
0001
1000
0001
0000
,  // measure 57
2000
3200
0302
0203
,  // measure 58
1300
0100
1000
0000
0001
0010
0001
0000
,  // measure 59
0100
0010
0001
0100
,  // measure 60
0010
0001
0100
1000
,  // measure 61
0010
1010
0010
0011
,  // measure 62
0010
0100
0010
0000
0100
0010
0100
0000
,  // measure 63
0020
2030
3200
2300
,  // measure 64
3001
1100
1000
0101
,  // measure 65
0100
0010
1001
0100
,  // measure 66
1000
0010
0001
0100
,  // measure 67
1000
0100
1000
0000
0001
0000
0100
0000
,  // measure 68
0001
0100
0001
0000
1000
0000
0100
0000
,  // measure 69
0110
0000
0000
0001
,  // measure 70
0010
0000
1000
0000
0100
0000
0001
1000
,  // measure 71
0002
0000
0000
0000
,  // measure 72
0000
0000
0000
0000
,  // measure 73
0003
0000
0000
0000
;

//---------------dance-single - Chewi----------------
#NOTES:
     dance-single:
     Chewi:
     Hard:
     10:
     0.445,0.469,0.181,0.333,0.000: // measure 1
0000
0000
0000
0000
,  // measure 2
0000
0000
0000
0000
,  // measure 3
0000
0000
0000
0000
,  // measure 4
0000
0000
0000
0000
,  // measure 5
1000
0100
1000
0000
0001
0100
0001
0000
,  // measure 6
0200
0320
2030
3002
,  // measure 7
0013
0100
0010
0000
0100
0010
0100
0000
,  // measure 8
0020
2030
3200
0302
,  // measure 9
0103
0001
1000
0000
0100
1000
0001
0000
,  // measure 10
1000
0001
1000
0000
0001
1000
0001
0000
,  // measure 11
0010
0000
1000
0000
0100
0001
0010
0000
,  // measure 12
0001
0000
0100
0000
1000
0010
0100
0000
,  // measure 13
0020
0000
0031
0000
0100
0010
0100
0001
,  // measure 14
0020
0000
1030
0000
0100
0010
1000
0001
,  // measure 15
0020
0000
0130
0000
0010
0001
1000
0010
,  // measure 16
0200
0000
0310
0000
1000
0001
0010
0100
,  // measure 17
1000
0101
0001
1100
,  // measure 18
0010
0100
1000
0000
0010
0100
0001
0000
,  // measure 19
0200
1000
0001
1300
,  // measure 20
0020
0100
0001
0130
,  // measure 21
0100
0001
0010
0100
1000
0010
0100
0000
,  // measure 22
0001
1100
1000
0101
,  // measure 23
1000
0100
0010
0001
0100
0010
0100
0001
,  // measure 24
0010
0110
1000
1010
,  // measure 25
1000
0010
0100
0010
1000
0100
0010
0001
,  // measure 26
0010
0110
1000
1001
,  // measure 27
0001
0100
0010
0100
0001
0010
0100
1000
,  // measure 28
0010
1001
0100
1001
,  // measure 29
1000
0100
1000
0100
0001
0100
0001
0100
,  // measure 30
1000
0100
1000
0100
1000
0010
1000
0010
,  // measure 31
1000
0010
0001
0010
1000
0010
0001
0010
,  // measure 32
0001
0100
1000
0100
0001
0100
1000
0001
,  // measure 33
0100
0000
0010
1000
0001
0010
0100
1000
,  // measure 34
0001
1000
0100
0010
0001
0100
0110
0000
,  // measure 35
0101
0011
1010
1100
,  // measure 36
0110
1001
0110
0011
,  // measure 37
2200
0000
0000
3300
,  // measure 38
0001
1000
0001
1000
0100
0010
0100
0010
,  // measure 39
0011
0100
1000
0010
,  // measure 40
1000
0100
0001
0010
,  // measure 41
0210
0000
0000
0010
0020
0000
0300
0001
,  // measure 42
0002
0000
0000
0033
,  // measure 43
0001
0010
0100
1000
0100
0010
0001
0000
,  // measure 44
1000
0100
0010
0001
0010
0100
1000
0000
,  // measure 45
0001
1000
0010
0100
0001
1000
0100
0000
,  // measure 46
0010
0100
1000
0001
0100
0010
1000
0000
,  // measure 47
1001
0000
1000
0000
0001
0000
1000
0010
,  // measure 48
1000
0000
0001
0100
0000
0100
0001
0010
,  // measure 49
0100
0000
0010
0000
0100
1000
0010
1000
,  // measure 50
0100
0000
0100
1000
0000
1000
0010
0100
,  // measure 51
0202
0000
0000
0300
,  // measure 52
2000
0000
0000
3003
,  // measure 53
0001
0010
1000
0000
0001
0010
1000
0000
,  // measure 54
0200
0302
0023
2030
,  // measure 55
3100
1000
0010
0000
0100
1000
0010
0000
,  // measure 56
0200
2300
3020
0032
,  // measure 57
0103
1000
0001
0000
0100
1000
0001
0000
,  // measure 58
0200
2300
3002
0203
,  // measure 59
0310
0100
0010
0000
0100
0010
0100
0000
,  // measure 60
0010
1000
0100
0010
0001
0100
0010
0000
,  // measure 61
0100
0001
0010
0000
0100
0001
0010
0000
,  // measure 62
2000
3200
0320
2030
,  // measure 63
3100
0010
1000
0000
0100
0001
0010
0000
,  // measure 64
0200
0302
0023
0230
,  // measure 65
1300
0001
1000
0000
0001
1000
0001
0010
,  // measure 66
0100
1000
0100
0000
1000
0100
0010
0001
,  // measure 67
0100
1000
0010
0000
0100
1000
0001
0000
,  // measure 68
0100
0010
0001
0000
0100
0010
0001
1000
,  // measure 69
0020
0001
1000
0130
,  // measure 70
2000
0100
0001
3010
,  // measure 71
0220
0000
0000
0000
,  // measure 72
0000
0000
0000
0000
,  // measure 73
0330
0000
0000
0000
;
