#TITLE:トルコ行進曲;
#SUBTITLE:;
#ARTIST:Ryu☆;
#TITLETRANSLIT:Turkish March;
#SUBTITLETRANSLIT:;
#ARTISTTRANSLIT:Ryu;
#GENRE:Classical Remix;
#CREDIT:chewi;
#BANNER:Turkish March.png;
#BACKGROUND:Turkish March-bg.png;
#LYRICSPATH:;
#CDTITLE:cdtitle.png;
#MUSIC:Turkish March.ogg;
#OFFSET:-0.153000;
#SAMPLESTART:47.013000;
#SAMPLELENGTH:15.000000;
#SELECTABLE:YES;
#BPMS:0.000000=142.000000
;
#STOPS:
;
#BGCHANGES:;
#KEYSOUNDS:;
#ATTACKS:;

//---------------dance-single - ----------------
#NOTES:
     dance-single:
     :
     Beginner:
     2:
     0.150103,0.196135,0.043780,0.070048,0.000000,107.000000,5.000000,8.000000,0.000000,0.000000,0.000000,0.150103,0.196135,0.043780,0.070048,0.000000,107.000000,5.000000,8.000000,0.000000,0.000000,0.000000:
// measure 0
0000
0000
0000
0000
,  // measure 1
0000
0000
0000
0000
,  // measure 2
0000
0000
0000
0000
,  // measure 3
0000
0000
0000
0000
,  // measure 4
2000
0000
0000
3000
,  // measure 5
1000
0000
0000
0000
,  // measure 6
0002
0000
0000
0003
,  // measure 7
0001
0000
0000
0000
,  // measure 8
0200
0000
0000
0300
,  // measure 9
0100
0000
0000
0000
,  // measure 10
0020
0000
0000
0030
,  // measure 11
0010
0000
0000
0000
,  // measure 12
2000
0000
0000
3000
,  // measure 13
1000
0000
0000
0000
,  // measure 14
0002
0000
0000
0003
,  // measure 15
0001
0000
0000
0000
,  // measure 16
0001
0000
0001
0000
,  // measure 17
0001
0000
0001
0000
,  // measure 18
1000
0000
1000
0000
,  // measure 19
1000
0000
1000
0000
,  // measure 20
0010
0000
0010
0000
,  // measure 21
0010
0000
0010
0000
,  // measure 22
0100
0000
0100
0000
,  // measure 23
0100
0000
0100
0000
,  // measure 24
1000
0000
1000
0000
,  // measure 25
0001
0000
0001
0000
,  // measure 26
0010
0000
0010
0000
,  // measure 27
0001
0000
0001
0000
,  // measure 28
1000
0000
1000
0000
,  // measure 29
1000
0000
1000
0000
,  // measure 30
0100
0000
0100
0000
,  // measure 31
0100
0000
0100
0000
,  // measure 32
0110
0000
0000
0000
,  // measure 33
0010
0010
0010
0000
,  // measure 34
1001
0000
0000
0000
,  // measure 35
0001
0001
0001
0000
,  // measure 36
1001
0000
0000
0000
,  // measure 37
1000
1000
1000
0000
,  // measure 38
0110
0000
0000
0000
,  // measure 39
0100
0100
0100
0000
,  // measure 40
0200
0000
0000
0300
,  // measure 41
0100
0000
0100
0000
,  // measure 42
0010
0000
0010
0000
,  // measure 43
0020
0000
0000
0030
,  // measure 44
0010
0000
0010
0000
,  // measure 45
0100
0000
0100
0000
,  // measure 46
0001
0000
0001
0000
,  // measure 47
1000
0000
1000
0000
,  // measure 48
0001
0000
1000
0000
,  // measure 49
0001
0000
1000
0000
,  // measure 50
1000
0000
1000
0000
,  // measure 51
1000
0000
0001
0000
,  // measure 52
0001
0000
0001
0000
,  // measure 53
0001
0000
0100
0000
,  // measure 54
0100
0000
0100
0000
,  // measure 55
0100
0000
0010
0000
,  // measure 56
0010
0000
0010
0000
,  // measure 57
0010
0000
0010
0000
,  // measure 58
0100
0000
0100
0000
,  // measure 59
0100
0000
0100
0000
,  // measure 60
1000
0000
1000
0000
,  // measure 61
0001
0000
0001
0000
,  // measure 62
1000
0000
1000
0000
,  // measure 63
0001
0000
0001
0000
,  // measure 64
1001
0000
0000
0000
;

//---------------dance-single - ----------------
#NOTES:
     dance-single:
     :
     Easy:
     5:
     0.206392,0.280193,0.105072,0.035024,0.000000,149.000000,12.000000,4.000000,0.000000,0.000000,0.000000,0.206392,0.280193,0.105072,0.035024,0.000000,149.000000,12.000000,4.000000,0.000000,0.000000,0.000000:
// measure 0
0000
0000
0000
0000
,  // measure 1
0000
0000
0000
0000
,  // measure 2
0000
0000
0000
0000
,  // measure 3
0000
0000
0000
0000
,  // measure 4
0000
1000
0000
0100
,  // measure 5
0000
0010
0000
0001
,  // measure 6
0000
1000
0000
0100
,  // measure 7
0000
0000
0000
0000
,  // measure 8
0000
0001
0000
0100
,  // measure 9
0000
0010
0000
1000
,  // measure 10
0000
0001
0000
0100
,  // measure 11
0000
1000
0000
0100
,  // measure 12
0000
0010
0000
0100
,  // measure 13
0000
1000
0000
0001
,  // measure 14
0000
0010
0000
0100
,  // measure 15
0000
0000
0000
1000
,  // measure 16
1000
0001
0001
1000
,  // measure 17
0001
1000
0001
0000
,  // measure 18
1000
0000
1001
0000
,  // measure 19
0001
0000
1001
0100
,  // measure 20
0010
0100
0010
0100
,  // measure 21
0100
0010
0010
0100
,  // measure 22
0110
0000
0010
0000
,  // measure 23
0110
0000
0100
0000
,  // measure 24
1000
0100
0001
0000
,  // measure 25
1000
0100
0001
0000
,  // measure 26
1000
0010
0001
0000
,  // measure 27
1000
0010
0001
0000
,  // measure 28
0010
0000
0010
0000
,  // measure 29
0010
0100
0010
0000
,  // measure 30
0110
0000
0100
0000
,  // measure 31
0110
0000
0010
0000
,  // measure 32
0001
0000
0001
0000
,  // measure 33
1000
0100
0010
0001
,  // measure 34
1000
0000
1000
0000
,  // measure 35
0001
0100
0010
1000
,  // measure 36
0010
0000
0010
0000
,  // measure 37
0100
0010
1000
0001
,  // measure 38
0010
0000
0010
0000
,  // measure 39
0100
1000
0001
0010
,  // measure 40
0001
0000
0001
0000
,  // measure 41
0002
0000
0003
0000
,  // measure 42
2000
0000
3000
0000
,  // measure 43
1001
0000
0100
0000
,  // measure 44
0020
0000
0030
0000
,  // measure 45
0200
0000
0300
0000
,  // measure 46
0110
0000
0010
0000
,  // measure 47
0110
0000
0100
0000
,  // measure 48
1000
0100
0001
0010
,  // measure 49
1000
0000
1000
0010
,  // measure 50
0001
0000
1001
0000
,  // measure 51
0010
0000
1001
0000
,  // measure 52
0100
0000
0001
0010
,  // measure 53
1000
0100
0001
0010
,  // measure 54
1000
0100
0001
0010
,  // measure 55
1000
0100
0001
0100
,  // measure 56
1000
0100
1000
0000
,  // measure 57
0100
0000
0100
0000
,  // measure 58
0001
0100
0001
0000
,  // measure 59
0100
0000
0100
0000
,  // measure 60
1000
0010
1000
0000
,  // measure 61
0010
0000
0010
0000
,  // measure 62
0001
0010
0001
0000
,  // measure 63
0010
0000
0010
0000
,  // measure 64
0110
0000
0000
0000
;

//---------------dance-single - ----------------
#NOTES:
     dance-single:
     :
     Medium:
     8:
     0.347740,0.420289,0.297705,0.122584,0.000000,230.000000,34.000000,14.000000,0.000000,0.000000,0.000000,0.347740,0.420289,0.297705,0.122584,0.000000,230.000000,34.000000,14.000000,0.000000,0.000000,0.000000:
// measure 0
0000
0000
0000
0000
,  // measure 1
0000
0000
0000
0000
,  // measure 2
0000
0000
0000
0000
,  // measure 3
0000
0000
0000
0000
,  // measure 4
0000
1100
0000
0010
,  // measure 5
0000
0101
0000
0010
,  // measure 6
0000
1001
0000
0100
,  // measure 7
0000
1001
0000
0010
,  // measure 8
0020
0100
1000
0130
,  // measure 9
0200
0001
0010
0301
,  // measure 10
0002
1000
0010
1003
,  // measure 11
2000
0001
0010
3001
,  // measure 12
1000
0100
0010
0001
,  // measure 13
1000
0010
0100
0001
,  // measure 14
0100
0010
1000
0001
,  // measure 15
2002
0000
0000
0000
3003
0000
1000
1000
,  // measure 16
1000
0000
0001
0001
0001
0000
1000
0000
,  // measure 17
0100
0010
0001
0100
,  // measure 18
0101
0010
0101
0010
,  // measure 19
1100
0000
0010
0000
1000
0000
0010
0010
,  // measure 20
0010
0000
0100
0100
0100
0000
0010
0000
,  // measure 21
1000
0001
0010
0100
,  // measure 22
1001
0010
1001
1000
,  // measure 23
1100
1010
1100
1000
,  // measure 24
0100
0000
0010
0001
0010
0000
0001
0000
,  // measure 25
0100
0000
0010
1000
0010
0000
1000
0000
,  // measure 26
0001
0000
0010
0100
0010
0000
0100
0000
,  // measure 27
0010
0000
0001
1000
0001
0000
1000
1000
,  // measure 28
1000
0000
0001
0001
0001
0000
1000
0000
,  // measure 29
0010
0100
0001
1000
,  // measure 30
1010
0001
0011
1000
,  // measure 31
1010
0011
1010
1000
,  // measure 32
2000
3000
0002
0003
,  // measure 33
1000
0100
0001
0010
,  // measure 34
2000
3000
0020
0030
,  // measure 35
0001
0100
1000
0010
,  // measure 36
0002
0003
0020
0030
,  // measure 37
1000
0010
0001
0010
,  // measure 38
2000
3000
0002
0003
,  // measure 39
1000
0100
0010
0001
0010
0000
0000
0000
,  // measure 40
0011
0000
0010
0000
,  // measure 41
0001
0010
0100
1000
0100
0000
0000
0000
,  // measure 42
1000
0100
0010
0001
0010
0000
0000
0000
,  // measure 43
1001
0000
0100
0000
,  // measure 44
0100
0010
0100
0010
0100
0000
0000
0000
,  // measure 45
0010
0100
0010
0100
0010
0000
0000
0000
,  // measure 46
1010
0100
0001
0000
,  // measure 47
0011
0100
1000
1000
,  // measure 48
1001
0000
0110
0000
,  // measure 49
1001
0000
1000
0100
,  // measure 50
0001
0000
0010
0000
1000
0100
1000
0100
,  // measure 51
1000
0000
0000
0000
1000
0010
1000
0010
,  // measure 52
1000
0000
1010
0000
,  // measure 53
0101
0000
1001
1100
,  // measure 54
1001
0000
1001
0101
,  // measure 55
1001
1000
1000
1000
,  // measure 56
0100
0100
0100
0100
,  // measure 57
0001
0001
0001
0001
,  // measure 58
0010
0010
0010
0010
,  // measure 59
1000
1000
1000
1000
,  // measure 60
0100
0001
0010
1000
,  // measure 61
0100
0001
0010
0100
,  // measure 62
0001
0010
0100
0001
,  // measure 63
0010
0000
0100
0000
1000
0001
0010
0000
,  // measure 64
0011
0000
0000
0000
;

//---------------dance-single - ----------------
#NOTES:
     dance-single:
     :
     Hard:
     11:
     0.497843,0.532367,0.245169,0.000000,0.017512,378.000000,28.000000,0.000000,0.000000,0.000000,8.000000,0.497843,0.532367,0.245169,0.000000,0.017512,378.000000,28.000000,0.000000,0.000000,0.000000,8.000000:
// measure 0
0000
0000
0000
0000
,  // measure 1
0000
0000
0000
0000
,  // measure 2
0000
0000
0000
0000
,  // measure 3
0000
0000
0000
0000
,  // measure 4
0000
0010
1000
0001
0000
0010
0001
1000
,  // measure 5
0000
0100
1000
0001
0000
0100
0001
1000
,  // measure 6
0000
0010
1000
1010
0000
0100
0001
0101
,  // measure 7
0000
1000
0001
1001
0000
0001
1000
0100
,  // measure 8
0010
0000
0010
0000
0100
1000
0010
0000
,  // measure 9
0100
0000
0100
0000
0001
0010
0100
0000
,  // measure 10
1000
0100
0001
0000
0001
0100
1000
0000
,  // measure 11
1000
0010
0001
0000
0001
0010
1000
0000
,  // measure 12
0001
1000
0001
1000
0001
1000
0100
0010
,  // measure 13
0100
1000
0100
1000
0100
1000
0001
0010
,  // measure 14
0100
0010
0100
0010
0100
0010
0100
1000
,  // measure 15
1001
0000
0000
0000
0000
0000
1000
0100
,  // measure 16
1000
0000
0001
0100
0001
0000
0100
0010
,  // measure 17
1000
0001
0010
0100
1000
0000
0001
0010
,  // measure 18
0011
0010
0100
1000
1100
1000
0001
1000
,  // measure 19
1001
0100
0010
0100
0010
0000
0100
0010
,  // measure 20
0100
0000
0010
0100
0010
0000
0100
0010
,  // measure 21
1000
0100
0010
0001
1000
0000
0001
1000
,  // measure 22
1100
1000
0001
0010
0110
0010
0100
1000
,  // measure 23
1001
0000
1100
0000
0101
0000
1000
0001
,  // measure 24
0100
0000
0010
0000
4000
0040
0000
0000
3030
0000
0000
0000
0100
0000
0010
0000
,  // measure 25
1000
0000
0001
0000
0040
0400
0000
0000
0330
0000
0000
0000
1000
0000
0100
0000
,  // measure 26
0010
0000
0001
0000
0040
0004
0000
0000
0033
0000
0000
0000
0001
0000
0010
0000
,  // measure 27
0100
0000
1000
0000
0400
4000
0000
0000
3300
0000
0000
0000
1000
0000
0001
0000
,  // measure 28
0010
0000
1000
0100
1000
0000
0001
0100
,  // measure 29
1000
0010
0001
0010
1000
0000
0001
0010
,  // measure 30
1100
1000
0010
1000
1001
0010
0100
0010
,  // measure 31
0011
0000
1100
0000
0101
0000
0100
0001
,  // measure 32
0100
0000
0001
0100
0010
0100
0001
0010
,  // measure 33
0100
1000
0010
1000
0100
0100
1000
0001
,  // measure 34
0010
0000
0001
1000
0100
0100
1000
1000
,  // measure 35
0001
0001
0100
0100
0010
0000
0100
0010
,  // measure 36
1000
0000
0010
0100
0001
1000
0010
0100
,  // measure 37
0001
0010
0100
1000
0001
0010
0100
1000
,  // measure 38
0001
0000
1000
0100
0010
0100
1000
0001
,  // measure 39
1000
1000
0001
0001
0100
0000
0010
0000
,  // measure 40
1010
0100
0101
0010
,  // measure 41
1000
0100
0010
0001
0010
0000
0100
0000
,  // measure 42
0010
0100
0010
0001
0100
0000
0001
0000
,  // measure 43
0101
1000
1100
0001
,  // measure 44
1000
0100
0010
0100
1000
0000
0001
0000
,  // measure 45
1000
0001
0010
0001
1000
0000
0001
0000
,  // measure 46
0001
1000
0100
1000
0001
0000
1000
0000
,  // measure 47
1001
0000
0100
0000
0110
0000
0100
0010
,  // measure 48
0100
0000
0001
0000
0010
0100
1000
0010
,  // measure 49
1000
0000
0001
0000
1000
0100
1000
0000
,  // measure 50
0001
0100
0001
0000
0100
0010
0100
0001
,  // measure 51
0010
0100
1000
0001
0010
0100
0010
0001
,  // measure 52
0100
0010
0100
0001
1001
0000
0100
0010
,  // measure 53
0110
0000
0010
1000
1010
0000
0001
0100
,  // measure 54
0101
0100
0010
0010
1000
1000
0001
0001
,  // measure 55
0001
0010
0100
0010
0100
1000
0001
0010
,  // measure 56
0100
1000
0010
1000
0000
0100
0000
0010
,  // measure 57
0001
1000
0100
1000
0000
0100
0000
0010
,  // measure 58
0100
1000
0001
0010
0000
0001
0000
1000
,  // measure 59
0010
0100
0010
1000
0000
0001
0000
0001
,  // measure 60
0010
1000
0010
0001
0000
0010
0000
0010
,  // measure 61
0000
1000
0100
0001
0000
0100
0000
0100
,  // measure 62
0000
0010
0100
0001
0000
1000
0000
0001
,  // measure 63
0000
0010
0100
1000
0000
0001
0000
1000
,  // measure 64
1001
0000
0000
0000
;
