#VERSION:0.82;
#TITLE:つま先;
#SUBTITLE:;
#ARTIST:宇宙まお;
#TITLETRANSLIT:Tsumasaki;
#SUBTITLETRANSLIT:;
#ARTISTTRANSLIT:Mao Uchuu;
#GENRE:Rock 'n' Roll Fantasy;
#ORIGIN:;
#CREDIT:chewi;
#BANNER:Tsumasaki.png;
#BACKGROUND:Tsumasaki-bg.png;
#PREVIEWVID:;
#JACKET:Tsumasaki-jacket.png;
#CDIMAGE:;
#DISCIMAGE:;
#LYRICSPATH:;
#CDTITLE:cdtitle.png;
#MUSIC:Tsumasaki.ogg;
#OFFSET:-2.772000;
#SAMPLESTART:54.341000;
#SAMPLELENGTH:15.000000;
#SELECTABLE:YES;
#BPMS:0.000=186.000;
#STOPS:;
#DELAYS:;
#WARPS:;
#TIMESIGNATURES:0.000=4=4;
#TICKCOUNTS:0.000=4;
#COMBOS:0.000=1;
#SPEEDS:0.000=1.000=0.000=0;
#SCROLLS:0.000=1.000;
#FAKES:;
#LABELS:0.000=Song Start;
#BGCHANGES:-0.500=Tsumasaki.avi=1.000=1=0=0=StretchNoLoop==CrossFade==,
99999=-nosongbg-=1.000=0=0=0 // don't automatically add -songbackground-
;
#KEYSOUNDS:;
#ATTACKS:
;

//---------------dance-single - ----------------
#NOTEDATA:;
#CHARTNAME:;
#STEPSTYPE:dance-single;
#DESCRIPTION:;
#CHARTSTYLE:;
#DIFFICULTY:Beginner;
#METER:3;
#RADARVALUES:0.211042,0.184662,0.128032,0.157578,0.000000,121.000000,13.000000,16.000000,0.000000,0.000000,0.000000,0.000000,0.000000,0.211042,0.184662,0.128032,0.157578,0.000000,121.000000,13.000000,16.000000,0.000000,0.000000,0.000000,0.000000,0.000000;
#CREDIT:;
#NOTES:
// measure 0
0000
0000
0000
0000
,  // measure 1
0000
0000
0000
0000
,  // measure 2
0000
0000
0000
0000
,  // measure 3
0000
0000
0000
0000
,  // measure 4
1000
0000
1000
0000
,  // measure 5
1000
0000
0001
0000
,  // measure 6
0001
0000
0001
0000
,  // measure 7
1001
0000
0000
0000
,  // measure 8
0200
0000
0000
0300
,  // measure 9
0100
0100
0100
0000
,  // measure 10
0020
0000
0000
0030
,  // measure 11
0010
0010
0010
0000
,  // measure 12
2000
0000
0000
3000
,  // measure 13
1000
1000
1000
0000
,  // measure 14
0002
0000
0000
0003
,  // measure 15
0001
0001
0001
0000
,  // measure 16
1000
0000
0001
0000
,  // measure 17
1000
0000
1000
0000
,  // measure 18
0001
0000
1000
0000
,  // measure 19
0001
0000
0001
0000
,  // measure 20
0100
0000
0010
0000
,  // measure 21
0100
0000
0100
0000
,  // measure 22
0010
0000
0100
0000
,  // measure 23
0010
0000
0010
0000
,  // measure 24
0110
0000
0000
0000
,  // measure 25
0110
0000
0000
0000
,  // measure 26
1001
0000
0000
0000
,  // measure 27
1001
0000
0000
0000
,  // measure 28
0110
0000
0000
0000
,  // measure 29
0110
0000
0000
0000
,  // measure 30
1001
0000
0000
0000
,  // measure 31
1001
0000
0000
0000
,  // measure 32
0002
0000
0000
0003
,  // measure 33
0001
0001
0001
0000
,  // measure 34
2000
0000
0000
3000
,  // measure 35
1000
1000
1000
0000
,  // measure 36
0020
0000
0000
0030
,  // measure 37
0010
0010
0010
0000
,  // measure 38
0200
0000
0000
0300
,  // measure 39
0100
0100
0100
0000
,  // measure 40
0100
0000
0100
0000
,  // measure 41
0100
0000
0100
0000
,  // measure 42
0200
0000
0000
0300
,  // measure 43
0100
0000
0000
0000
,  // measure 44
0010
0000
0010
0000
,  // measure 45
0010
0000
0010
0000
,  // measure 46
0020
0000
0000
0030
,  // measure 47
0010
0000
0000
0000
,  // measure 48
1000
0000
0001
0000
,  // measure 49
1000
0000
0001
0000
,  // measure 50
2000
0000
0000
3000
,  // measure 51
1000
0000
0000
0000
,  // measure 52
0001
0000
1000
0000
,  // measure 53
0001
0000
1000
0000
,  // measure 54
0002
0000
0000
0003
,  // measure 55
0001
0000
0000
0000
,  // measure 56
1001
0000
0000
0000
,  // measure 57
1001
0000
0000
0000
,  // measure 58
0110
0000
0000
0000
,  // measure 59
0110
0000
0000
0000
,  // measure 60
0100
0000
0100
0000
,  // measure 61
0100
0000
0100
0000
,  // measure 62
0200
0000
0000
0300
,  // measure 63
0100
0100
0100
0000
,  // measure 64
0010
0000
0010
0000
,  // measure 65
0010
0000
0010
0000
,  // measure 66
0020
0000
0000
0030
,  // measure 67
0010
0010
0010
0000
,  // measure 68
1000
0000
1000
0000
,  // measure 69
0001
0000
0001
0000
,  // measure 70
2000
0000
0000
3000
,  // measure 71
1000
1000
1000
0000
,  // measure 72
1000
0000
1000
0000
,  // measure 73
0001
0000
0001
0000
,  // measure 74
0002
0000
0000
0003
,  // measure 75
0001
0000
0000
0000
;

//---------------dance-single - ----------------
#NOTEDATA:;
#CHARTNAME:;
#STEPSTYPE:dance-single;
#DESCRIPTION:;
#CHARTSTYLE:;
#DIFFICULTY:Easy;
#METER:6;
#RADARVALUES:0.315156,0.332391,0.137881,0.177275,0.000000,192.000000,14.000000,18.000000,0.000000,0.000000,0.000000,0.000000,0.000000,0.315156,0.332391,0.137881,0.177275,0.000000,192.000000,14.000000,18.000000,0.000000,0.000000,0.000000,0.000000,0.000000;
#CREDIT:;
#NOTES:
0000
0000
0000
0000
,
0000
0000
0000
0000
,
0000
0000
0000
0000
,
0000
0000
0000
0000
,
1000
1000
0100
0010
,
0001
0000
0001
0000
,
1000
0000
1000
0000
,
1001
0000
0000
0000
,
0100
0010
0000
0010
,
0000
1000
0000
1000
,
0000
0010
0000
0010
,
0000
1000
0001
0010
,
0100
0010
0000
0010
,
0000
0100
0000
0100
,
0000
1000
0000
1000
,
0001
1000
0100
1000
,
0001
0100
0000
0100
,
0000
0010
0000
0010
,
0000
1000
0000
1000
,
0010
0001
0010
1000
,
0010
1000
0000
1000
,
0100
0010
0000
0010
,
0001
0010
0100
1000
,
0001
1000
0001
1000
,
1001
0000
1000
0000
,
0001
0010
0001
0010
,
0100
0000
0110
0000
,
0010
0100
1000
0010
,
1000
0000
1001
0000
,
1000
0001
0100
0010
,
0100
0000
0110
0000
,
0100
0010
1000
0001
,
1000
0100
1000
0100
,
0001
0100
0001
0100
,
1000
0100
1000
0100
,
0001
0100
0001
0100
,
0020
0000
0130
0010
,
0200
0000
0310
0100
,
0020
0000
0032
0000
,
2003
0000
3002
0000
,
0103
0010
0100
0001
,
0100
0100
0010
0010
,
1000
0100
1000
1000
,
1001
0000
0000
0000
,
1000
0001
1000
0100
,
1000
0001
0010
0100
,
0010
0000
0100
0000
,
0110
0000
0000
0000
,
0100
0010
0001
0010
,
0100
1000
0100
1000
,
0001
0000
1000
0000
,
1001
0000
0000
0000
,
1000
0010
1000
0100
,
1000
0000
0001
0000
,
1000
0000
0001
0000
,
1001
0000
0100
0100
,
0201
0000
0320
0000
,
2030
0000
3002
0000
,
1003
0100
0010
0001
,
1000
0000
0000
0000
,
0002
0000
0000
0000
,
2003
0000
0000
0000
,
3001
0010
0100
1000
,
1100
0000
0000
0000
,
2000
0000
0000
0000
,
3002
0000
0000
0000
,
1003
0010
0100
0001
,
0101
0000
0000
0000
,
0200
0000
0010
0000
,
0320
0000
0100
0000
,
0130
0010
1000
0001
,
1001
0000
0000
0000
,
2000
0000
0001
0000
,
3002
0000
1000
0000
,
1003
0001
1000
0100
,
1001
0000
0000
0000
;

//---------------dance-single - ----------------
#NOTEDATA:;
#CHARTNAME:;
#STEPSTYPE:dance-single;
#DESCRIPTION:;
#CHARTSTYLE:;
#DIFFICULTY:Medium;
#METER:8;
#RADARVALUES:0.355958,0.443188,0.108335,0.000000,0.000000,242.000000,11.000000,0.000000,0.000000,0.000000,0.000000,0.000000,0.000000,0.355958,0.443188,0.108335,0.000000,0.000000,242.000000,11.000000,0.000000,0.000000,0.000000,0.000000,0.000000,0.000000;
#CREDIT:;
#NOTES:
0000
0000
0000
0000
,
0000
0000
0000
0000
,
0000
0000
0000
0000
,
0000
0000
0000
0000
,
1000
0100
0010
0001
,
1000
0000
0000
1000
0000
0000
1000
0000
,
0001
0000
0000
0001
0000
0000
0001
0000
,
1001
0000
0000
0000
,
0000
0000
0100
0100
0000
0000
0100
0000
,
0000
0000
0010
0010
0000
0000
0010
0000
,
0000
0000
0001
0001
0000
0000
0001
0000
,
0000
0000
1000
1000
0000
0000
1000
0000
,
0000
0000
0010
0010
0000
0000
0010
0000
,
0000
0000
0100
0100
0000
0000
0100
0000
,
0000
0000
0001
0001
0000
0000
0001
0000
,
1000
0000
0001
0000
1000
0001
1000
0000
,
0000
0000
0010
0010
0000
0000
0010
0000
,
0100
0000
0100
0100
0000
0000
0100
0000
,
0000
0000
1000
1000
0000
0000
1000
0000
,
0000
0000
0001
0001
0000
0000
0001
0000
,
0000
0000
0010
0010
0000
0000
0010
0000
,
0000
0000
0100
0100
0000
0000
0100
0000
,
0000
0000
1000
1000
0000
0000
1000
0000
,
1000
0100
0010
0001
,
1000
0001
1000
0010
,
0100
0001
0100
0010
,
1000
0001
1000
0100
,
0010
0100
1000
0001
,
0010
0100
0010
0001
,
0010
0100
0010
1000
,
0010
0100
1000
0001
,
0100
0010
1000
0001
,
0100
0010
0100
1000
,
0100
0010
0100
0001
,
0100
0010
1000
0001
,
0010
0100
1000
0001
,
1001
0010
0100
0010
,
1001
0100
0010
0100
,
1001
0010
0110
1000
,
1001
0100
0110
0100
,
0010
0100
0010
0100
0010
0000
0100
0000
,
0010
1000
0001
0010
,
0100
0000
0000
1000
0000
0000
0001
0000
,
0000
0000
0000
0000
,
1000
0001
1000
0001
1000
0000
0001
0000
,
1000
0001
0010
0100
,
1000
0000
0000
0001
0000
0000
1000
0000
,
0001
0000
0000
0000
,
1000
0001
1000
0001
1000
0000
0001
0000
,
0100
0010
1000
0001
,
0100
0000
0000
0100
0000
0000
0010
0000
,
0000
0000
0000
0000
,
0010
0100
0010
0100
0010
0000
0100
0000
,
0010
1000
0001
0010
,
0100
0000
0000
1000
0000
0000
0100
0000
,
1000
0000
0001
0010
,
1100
0000
1000
0001
,
0101
0000
0100
0010
,
1001
0000
0000
0010
0000
0000
0010
0000
,
0010
0000
0000
0000
,
0010
0100
1000
0001
,
0010
0000
0000
0001
0000
0000
0010
0000
,
0100
0000
0000
1000
0000
0000
0100
0000
,
0000
0000
0000
0000
,
1000
0001
0100
0010
,
0100
0000
0000
0010
0000
0000
0100
0000
,
0010
0000
0000
1000
0000
0000
0001
0000
,
1000
0001
1000
0001
,
1000
0100
0010
0001
,
0010
0000
0000
0001
0000
0000
0010
0000
,
0100
0000
0000
1000
0000
0000
0100
0000
,
1000
0100
0010
0100
,
1000
0001
0010
0100
,
0010
0000
0000
0100
0000
0000
0010
0000
,
0100
0000
0000
1000
0000
0000
0100
0000
,
1001
0000
0000
0000
;

//---------------dance-single - ----------------
#NOTEDATA:;
#CHARTNAME:;
#STEPSTYPE:dance-single;
#DESCRIPTION:;
#CHARTSTYLE:;
#DIFFICULTY:Hard;
#METER:12;
#RADARVALUES:0.554337,0.590918,0.482583,0.000000,0.000000,345.000000,49.000000,0.000000,0.000000,0.000000,0.000000,0.000000,0.000000,0.554337,0.590918,0.482583,0.000000,0.000000,345.000000,49.000000,0.000000,0.000000,0.000000,0.000000,0.000000,0.000000;
#CREDIT:;
#NOTES:
0000
0000
0000
0000
,
0000
0000
0000
0000
,
0000
0000
0000
0000
,
0000
0000
0000
0000
,
1000
0100
0010
0001
1000
0000
0100
0000
,
1001
0000
0000
0110
0000
0000
1001
0000
,
0011
0000
0000
1100
0000
0000
0101
0000
,
0110
0000
0000
0000
,
1000
0000
0010
1000
0000
1000
0010
0000
,
0100
0000
0001
0100
0000
0100
0001
0000
,
1000
0000
0001
1000
0000
1000
0001
0000
,
1000
0001
1000
0000
0001
1000
0001
0000
,
0010
0000
0100
0010
0000
0010
0100
0000
,
1000
0000
0100
1000
0000
1000
0100
0000
,
0010
0000
0001
0010
0000
0010
0001
0000
,
0010
0001
0010
0000
0001
0010
0001
0000
,
1000
0000
0001
0100
0000
0100
0001
0000
,
1000
0000
0010
1000
0000
1000
0010
0000
,
1000
0000
0100
0010
0000
0010
0100
0000
,
1000
0100
1000
0000
0001
0100
0001
0000
,
0010
0000
1000
0010
0000
0010
1000
0000
,
0001
0000
0010
0001
0000
0001
0010
0000
,
0100
0000
1000
0001
0000
0001
1000
0000
,
0001
0010
0100
1000
0001
0010
0100
1000
,
0001
0000
1000
0100
0100
0010
0100
0000
,
1001
0000
0010
0100
0100
0010
0001
0000
,
1001
0000
0100
0010
0010
0100
0001
0000
,
0110
0000
1000
0010
0010
0100
0010
0000
,
1000
0100
0010
0100
1000
0001
0010
0000
,
0001
0010
0100
0010
0001
1000
0001
0000
,
1000
0010
0001
0010
1000
0010
0001
0000
,
1000
0100
0001
0100
1000
0100
0001
0000
,
0100
0010
0010
0001
1000
0100
1000
0000
,
1000
0010
0010
0100
0010
1000
0001
0000
,
0010
0100
0100
1000
0001
0010
0100
0000
,
0010
0100
0100
1000
0001
0010
1000
0000
,
1000
0100
1000
0000
0001
0010
0001
0000
,
1000
0010
1000
0000
0001
0100
0001
0000
,
0110
1001
0110
1001
,
1000
0100
0010
0001
1000
0100
0010
0001
,
1000
0100
1000
0100
1000
0000
0001
0000
,
1000
0100
0010
0001
1000
0100
0010
0001
,
0010
0000
0000
0011
0000
0000
0101
0000
,
0000
0000
0000
0000
,
0001
0010
0100
1000
0001
0010
0100
0000
,
1000
0010
1000
0100
,
1010
0000
0000
0101
0000
0000
1001
0000
,
0110
0000
0000
0000
,
0010
0100
1000
0001
0010
0000
0100
0000
,
0010
0001
0100
0010
1000
0100
1000
0010
,
1000
0000
0000
1010
0000
0000
1001
0000
,
0000
0000
0000
0000
,
0001
1000
0100
1000
0001
0000
1001
0000
,
0100
0010
0100
0001
0100
0010
0100
0001
,
0100
0000
0000
1001
0000
0000
1000
0000
,
1001
0000
1000
0000
0001
0010
0100
1000
,
0010
0000
0000
0001
0000
0000
0010
1000
,
0001
0000
0000
0010
0000
0000
0100
1000
,
0010
0000
0000
1001
0000
0000
0110
0000
,
1001
0000
0000
0000
,
0010
0100
0010
0100
1000
0000
0001
0000
,
0010
0000
0000
0100
0000
0000
0010
0000
,
0011
0000
0000
1100
0000
0000
0101
0000
,
0000
0000
0000
0000
,
0001
0100
1000
0100
0001
0000
0100
0000
,
0010
0000
0000
1000
0000
0000
0001
0000
,
1001
0000
0000
1100
0000
0000
1001
0000
,
1000
0000
0000
0000
,
0001
1000
0100
1000
0001
0000
1001
0000
,
0110
0000
0000
1010
0000
0000
0101
0000
,
1100
0000
0000
0101
0000
0000
1001
0000
,
0100
0010
0100
1000
0100
0010
0100
1000
,
0001
0010
0100
1000
0001
0000
1001
0000
,
0011
0000
0000
1100
0000
0000
1001
0000
,
0110
0000
0000
1010
0000
0000
0101
0000
,
0101
0000
0000
0000
;
