#VERSION:0.81;
#TITLE:つけまつける;
#SUBTITLE:;
#ARTIST:きゃりーぱみゅぱみゅ;
#TITLETRANSLIT:Tsukematsukeru;
#SUBTITLETRANSLIT:;
#ARTISTTRANSLIT:Kyarypamyupamyu;
#GENRE:;
#ORIGIN:;
#CREDIT:chewi;
#BANNER:Tsukematsukeru.png;
#BACKGROUND:Tsukematsukeru-bg.png;
#PREVIEWVID:;
#JACKET:Tsukematsukeru-jacket.png;
#CDIMAGE:;
#DISCIMAGE:;
#LYRICSPATH:;
#CDTITLE:cdtitle.png;
#MUSIC:Tsukematsukeru.mp3;
#OFFSET:-5.019000;
#SAMPLESTART:71.214996;
#SAMPLELENGTH:15.000000;
#SELECTABLE:YES;
#DISPLAYBPM:145.000000;
#BPMS:0.000=145.000;
#STOPS:;
#DELAYS:;
#WARPS:;
#TIMESIGNATURES:0.000=4=4;
#TICKCOUNTS:0.000=4;
#COMBOS:0.000=1;
#SPEEDS:0.000=1.000=0.000=0;
#SCROLLS:0.000=1.000;
#FAKES:;
#LABELS:0.000=Song Start;
#BGCHANGES:0.000=Tsukematsukeru.avi=1.000=0=0=1=====,
99999=-nosongbg-=1.000=0=0=0 // don't automatically add -songbackground-
;
#KEYSOUNDS:;
#ATTACKS:
;

//---------------dance-single - ----------------
#NOTEDATA:;
#CHARTNAME:;
#STEPSTYPE:dance-single;
#DESCRIPTION:;
#CHARTSTYLE:;
#DIFFICULTY:Beginner;
#METER:3;
#RADARVALUES:0.146017,0.133792,0.019285,0.000000,0.000000,104.000000,2.000000,0.000000,0.000000,0.000000,0.000000,0.000000,0.000000,0.146017,0.133792,0.019285,0.000000,0.000000,104.000000,2.000000,0.000000,0.000000,0.000000,0.000000,0.000000,0.000000;
#CREDIT:;
#DISPLAYBPM:145.000000;
#NOTES:
// measure 0
0000
0000
0000
0000
,  // measure 1
0000
0000
0000
0000
,  // measure 2
0000
0000
0000
0000
,  // measure 3
0000
0000
0000
0000
,  // measure 4
0000
1000
0000
1000
,  // measure 5
0000
0001
0000
0001
,  // measure 6
0000
1000
0000
1000
,  // measure 7
0000
0001
0000
0001
,  // measure 8
0001
0000
0001
0000
,  // measure 9
0001
0001
0001
0000
,  // measure 10
1000
0000
1000
0000
,  // measure 11
1000
1000
1000
0000
,  // measure 12
0010
0000
0010
0000
,  // measure 13
0010
0010
0010
0000
,  // measure 14
0100
0000
0100
0000
,  // measure 15
0100
0100
0100
0000
,  // measure 16
0010
0000
0010
0000
,  // measure 17
0010
0000
0100
0000
,  // measure 18
0100
0000
0100
0000
,  // measure 19
0100
0000
0010
0000
,  // measure 20
1000
0000
1000
0000
,  // measure 21
1000
0000
0001
0000
,  // measure 22
0001
0000
0001
0000
,  // measure 23
0001
0000
1000
0000
,  // measure 24
0001
0000
0001
0000
,  // measure 25
1000
0000
1000
0000
,  // measure 26
0010
0000
0010
0000
,  // measure 27
0100
0000
0100
0000
,  // measure 28
0010
0000
0010
0000
,  // measure 29
0100
0000
0100
0000
,  // measure 30
1000
0000
1000
0000
,  // measure 31
0001
0000
0001
0000
,  // measure 32
0001
0000
0000
0000
,  // measure 33
1000
0000
0000
0000
,  // measure 34
0001
0000
0000
0000
,  // measure 35
1000
0000
0000
0000
,  // measure 36
0010
0000
0000
0000
,  // measure 37
0100
0000
0000
0000
,  // measure 38
0010
0000
0000
0000
,  // measure 39
0100
0000
0000
0000
,  // measure 40
1000
0000
1000
0000
,  // measure 41
1000
1000
1000
0000
,  // measure 42
0001
0000
0001
0000
,  // measure 43
0001
0000
1001
0000
,  // measure 44
0010
0000
0010
0000
,  // measure 45
0010
0010
0010
0000
,  // measure 46
0100
0000
0100
0000
,  // measure 47
0100
0000
0110
0000
,  // measure 48
0001
0000
0001
0000
,  // measure 49
1000
0000
1000
0000
,  // measure 50
0001
0000
0001
0000
,  // measure 51
1000
0000
1000
0000
,  // measure 52
0010
0000
0010
0000
,  // measure 53
0010
0010
0010
0000
,  // measure 54
0100
0000
0100
0000
,  // measure 55
0100
0100
0100
0000
;

//---------------dance-single - ----------------
#NOTEDATA:;
#CHARTNAME:;
#STEPSTYPE:dance-single;
#DESCRIPTION:;
#CHARTSTYLE:;
#DIFFICULTY:Easy;
#METER:4;
#RADARVALUES:0.228668,0.215995,0.077141,0.260351,0.000000,131.000000,8.000000,27.000000,0.000000,0.000000,0.000000,0.000000,0.000000,0.228668,0.215995,0.077141,0.260351,0.000000,131.000000,8.000000,27.000000,0.000000,0.000000,0.000000,0.000000,0.000000;
#CREDIT:;
#DISPLAYBPM:145.000000;
#NOTES:
0000
0000
0000
0000
,
0000
0000
0000
0000
,
0000
0000
0000
0000
,
0000
0000
0000
0000
,
2000
0000
0000
3000
,
0002
0000
0000
0003
,
0200
0000
0000
0300
,
0020
0000
0000
0030
,
0010
1000
0010
1000
,
0010
0010
0010
0000
,
0100
0001
0100
0001
,
0100
0100
0100
0000
,
0010
0100
0001
1000
,
0100
0100
0100
0000
,
0010
0100
1000
0001
,
0010
0010
0010
0000
,
0002
0000
2003
0000
,
3001
1000
1001
0000
,
2000
0000
3002
0000
,
1003
0001
1001
0000
,
0200
0000
0320
0000
,
0130
0010
0110
0000
,
0020
0000
0230
0000
,
0310
0100
0110
0000
,
0010
0000
1000
0000
,
0010
0100
0001
0000
,
0010
0000
0001
0000
,
0010
0100
1000
0000
,
0001
0000
1000
0000
,
0001
0010
0100
0000
,
1000
0000
0001
0000
,
1000
0010
0100
0000
,
0002
0000
0100
0000
,
0010
0000
0103
0000
,
2000
0000
0010
0000
,
0100
0000
3010
0000
,
2000
0000
0001
0000
,
0100
0000
3001
0000
,
0002
0000
1000
0000
,
0100
0000
1003
0000
,
2000
0000
3002
0000
,
1003
0100
1000
0000
,
0001
1000
0001
0000
,
1000
0001
1000
0000
,
0002
0000
0013
0000
,
0001
0010
0100
0000
,
0010
0100
1000
0000
,
0100
1000
0100
0000
,
2000
0000
3002
0000
,
1003
0001
1001
0000
,
0002
0000
2003
0000
,
3001
1000
1001
0000
,
0200
0000
0320
0000
,
0130
0010
0110
0000
,
0020
0000
0230
0000
,
0310
0100
0110
0000
,
0010
0000
0000
0000
;

//---------------dance-single - ----------------
#NOTEDATA:;
#CHARTNAME:;
#STEPSTYPE:dance-single;
#DESCRIPTION:;
#CHARTSTYLE:;
#DIFFICULTY:Medium;
#METER:7;
#RADARVALUES:0.359533,0.376304,0.279637,0.269994,0.000000,204.000000,29.000000,28.000000,0.000000,0.000000,0.000000,0.000000,0.000000,0.359533,0.376304,0.279637,0.269994,0.000000,204.000000,29.000000,28.000000,0.000000,0.000000,0.000000,0.000000,0.000000;
#CREDIT:;
#DISPLAYBPM:145.000000;
#NOTES:
0000
0000
0000
0000
,
0000
0000
0000
0000
,
0000
0000
0000
0000
,
0000
0000
0000
0000
,
2000
0000
0010
0000
,
0001
0000
3100
0000
,
0002
0000
0010
0000
,
1000
0000
0103
0000
,
0200
0320
0230
0320
,
1030
0100
0010
0001
0010
0000
0000
0000
,
0002
0023
0032
0023
,
0031
0010
0100
1000
0100
0000
0000
0000
,
2000
3002
2003
3002
,
1003
0001
0100
0010
0100
0000
0000
0000
,
0020
0230
0320
0230
,
0301
0100
0010
0100
0001
0000
0000
0000
,
1000
1100
0001
0101
,
1000
0010
0100
0000
,
0001
0101
1000
1100
,
0001
0010
0100
0000
,
1000
1001
0001
1001
,
0001
0100
0010
0000
,
0100
0110
0010
0110
,
0010
0000
1000
0000
0001
1000
0001
0000
,
1000
0100
0010
0001
,
1000
0100
1000
0000
1100
0000
0000
0000
,
0001
0010
0100
1000
,
0001
0010
0001
0000
0011
0000
0000
0000
,
0001
1000
0010
0100
,
0001
1000
0100
0000
1001
0000
0000
0000
,
0010
0100
1000
0001
,
1000
0001
0010
0000
1001
0000
0000
0000
,
2000
0100
0001
0010
,
0100
0100
0020
3030
,
0020
0100
0001
0100
,
1000
1000
2000
3030
,
2000
0001
0100
0010
,
0100
0010
0020
3030
,
0002
0010
1000
0100
,
0010
0010
0020
0033
,
1001
0100
1001
0100
,
1001
0010
1001
0010
,
1000
1000
1000
0000
0001
0001
0001
0000
,
1000
0010
1010
0000
,
1001
0010
1001
0010
,
1001
0100
1001
0100
,
0001
0001
0001
0000
1000
1000
1000
0000
,
0001
0100
0101
0000
,
0001
0100
0001
0100
,
0001
0100
0010
1000
0001
0000
0000
0000
,
1000
0100
1000
0100
,
1000
0100
0010
0001
0010
0000
0000
0000
,
0011
1000
1010
0001
,
0011
0011
1010
1010
,
0010
0100
0001
0000
0010
0100
1000
0000
,
0001
1000
0001
0000
2002
0000
3003
0000
;

//---------------dance-single - ----------------
#NOTEDATA:;
#CHARTNAME:;
#STEPSTYPE:dance-single;
#DESCRIPTION:;
#CHARTSTYLE:;
#DIFFICULTY:Hard;
#METER:10;
#RADARVALUES:0.400858,0.376304,0.106069,0.077141,0.000000,272.000000,11.000000,8.000000,0.000000,0.000000,0.000000,0.000000,0.000000,0.400858,0.376304,0.106069,0.077141,0.000000,272.000000,11.000000,8.000000,0.000000,0.000000,0.000000,0.000000,0.000000;
#CREDIT:;
#DISPLAYBPM:145.000000;
#NOTES:
0000
0000
0000
0000
,
0000
0000
0000
0000
,
0000
0000
0000
0000
,
0000
0000
0000
0000
,
1000
0000
0010
0100
0001
0000
0010
0100
,
1000
0001
0010
0100
1000
0000
0000
0000
,
1000
0001
0100
0001
0001
0000
1000
0010
,
0010
0000
1000
0001
2002
0000
3003
0000
,
0010
0000
0010
0100
0010
0000
0010
0100
,
0010
0001
0010
0100
0010
0000
0100
0000
,
0100
0010
0100
1000
0100
0000
0100
0010
,
0100
0110
1001
0000
,
0001
0000
0001
1000
0001
0000
0001
1000
,
0001
0100
0001
1000
0001
0000
1000
0000
,
1000
0001
1000
0010
1000
0000
1000
0001
,
1000
1001
0110
0000
,
0100
0100
0100
0100
,
0100
0010
1000
0001
0010
0000
0000
0000
,
0010
0100
0010
0100
,
0010
0100
1000
0001
0010
0010
0010
0000
,
0001
0001
0001
0001
,
1000
0001
0100
0010
1000
0000
0000
0000
,
1000
0001
1000
0100
,
1000
0001
0010
0100
1000
0001
0100
0100
,
0100
0010
0100
0001
0100
0000
0010
1000
,
0100
0010
0011
0010
,
0001
0010
0100
1000
,
0001
1000
0100
1000
0001
0100
0010
1000
,
0001
0100
0010
0100
0001
0000
0010
0100
,
1000
0010
1000
0100
,
1000
0001
0100
0010
,
1000
0100
0010
0001
1000
0010
0100
0001
,
0100
0000
0000
0100
0000
0000
0100
0000
,
0010
0000
0000
0010
0000
0000
0010
0000
,
1000
0000
0000
1000
0000
0000
1000
0000
,
0001
0000
0000
0001
0000
0000
0001
0000
,
0100
0100
0100
0000
0010
0000
1001
0000
,
0010
0010
0010
0000
0100
0000
1001
0000
,
1000
0100
0010
0001
1000
1000
0100
0000
,
0001
0010
0100
1000
0001
0001
0010
0000
,
1000
0000
0010
0100
0001
0000
0010
0100
,
1000
0001
0010
0100
1000
0000
0000
0000
,
1000
0001
0100
0001
0001
0000
1000
0010
,
0010
1000
2002
3003
,
0001
0000
0100
0010
1000
0000
0100
0010
,
0001
1000
0100
0010
0001
0000
0000
0000
,
0001
1000
0010
1000
1000
0000
0001
0100
,
0100
0000
0001
1000
2002
0000
3003
0000
,
0001
0001
0001
0001
,
0001
1000
0100
0010
0100
0000
0000
0000
,
1000
1000
1000
1000
,
1000
0001
0100
0010
0100
0000
0000
0000
,
0010
0000
1000
0001
0010
0000
0001
1000
,
0010
0100
0001
1000
0010
0000
0000
0000
,
0100
0010
1000
0100
0100
0000
0010
0001
,
0001
0000
0010
0100
0220
0000
0330
0000
;
