#TITLE:Try 2 Luv. U -SF Electro House Mix-;
#SUBTITLE:;
#ARTIST:S.F.M.P.;
#TITLETRANSLIT:;
#SUBTITLETRANSLIT:;
#ARTISTTRANSLIT:;
#GENRE:;
#CREDIT:Chewi☆ & Tyma;
#MENUCOLOR:#00FFFF;
#METERTYPE:DDR X;
#BANNER:Try 2 Luv. U -SF Electro House Mix-.png;
#BACKGROUND:Try 2 Luv. U -SF Electro House Mix--bg.png;
#LYRICSPATH:;
#CDTITLE:;
#MUSIC:Try 2 Luv. U -SF Electro House Mix-.mp3;
#OFFSET:-0.525;
#SAMPLESTART:60.298;
#SAMPLELENGTH:15.000;
#SELECTABLE:YES;
#LISTSORT:;
#DISPLAYBPM:132.000;
#BPMS:0.000=132.000;
#STOPS:;
#BGCHANGES:;
#ATTACKS:;

//---------------dance-single - Chewi----------------
#NOTES:
     dance-single:
     Chewi:
     Beginner:
     2:
     0.150,0.214,0.033,0.153,0.000:
0000
0000
0000
0000
,
0000
0000
0000
0000
,
0000
0000
0000
0000
,
0000
0000
0000
0000
,
0020
0000
0000
0030
,
0010
0000
0000
0000
,
0200
0000
0000
0300
,
0100
0000
0000
0000
,
1000
0000
0001
0000
,
1000
0000
0001
0000
,
0100
0000
0010
0000
,
0100
0000
0010
0000
,
1000
0000
0100
0000
,
0001
0000
0100
0000
,
1000
0000
0010
0000
,
0001
0000
0010
0000
,
2002
0000
0000
0000
,
0000
0000
0000
3003
,
1000
1000
1000
0000
,
0001
0001
0001
0000
,
0220
0000
0000
0000
,
0000
0000
0000
0330
,
0010
0010
0010
0000
,
0100
0100
0100
0000
,
2000
0000
0000
3000
,
0001
0001
0001
0000
,
0002
0000
0000
0003
,
1000
1000
1000
0000
,
0200
0000
0000
0300
,
0010
0010
0010
0000
,
0020
0000
0000
0030
,
0100
0100
0100
0000
,
1000
0000
0100
0000
,
0001
0000
1000
0000
,
0010
0010
0010
0000
,
0100
0000
1000
0000
,
0010
0000
0001
0000
,
1000
0000
0001
0000
,
0010
0010
0010
0000
,
1000
0000
0100
0000
,
0001
0000
0010
0000
,
0200
0000
0000
0300
,
0100
0000
0000
0000
,
0020
0000
0000
0030
,
0010
0000
0000
0000
,
2000
0000
0000
3000
,
1000
0000
0000
0000
,
0002
0000
0000
0003
,
0001
0000
0000
0000
,
1001
0000
0000
0000
;

//---------------dance-single - Chewi----------------
#NOTES:
     dance-single:
     Chewi:
     Easy:
     5:
     0.230,0.268,0.142,0.295,0.000:
0000
0000
0000
0000
,
0000
0000
0000
0000
,
0000
0000
0000
0000
,
0000
0000
0000
0000
,
2002
0000
0000
3003
,
0001
0100
1000
0010
,
2002
0000
0000
3003
,
0001
0010
1000
0100
,
0002
0003
2000
3000
,
0010
0100
0010
0100
,
0200
0300
0020
0030
,
1000
0001
1000
0001
,
0020
0030
0002
0003
,
0100
1000
0010
1000
,
2000
3000
0200
0300
,
0100
0001
0010
0001
,
1002
0000
0000
0000
,
0000
0000
1003
0000
,
0000
0210
0000
0000
,
0000
0000
0310
0001
,
0001
0010
0100
1000
,
0100
0001
0010
0000
,
1000
0010
0100
0001
,
0010
1000
0100
0001
,
2001
0000
0000
0000
,
0000
0000
3001
0000
,
0000
0210
0000
0000
,
0000
0000
0310
1000
,
1002
0000
0000
0000
,
0000
0000
1003
0000
,
0001
1000
0100
0010
,
0001
1000
0001
0100
,
2002
0000
0000
3003
,
0100
1000
0010
0001
,
0100
0100
0010
0000
,
2000
0000
3002
0000
,
2003
0000
3002
0000
,
1003
0010
0001
0100
,
1000
1000
0001
0000
,
0020
0000
0230
0000
,
0320
0000
0230
0000
,
0310
0000
1001
0000
,
0100
0000
0000
0000
,
0100
0000
1001
0000
,
0010
0000
0000
0000
,
1000
0100
1000
0000
,
1001
0000
0000
0000
,
0001
0100
0001
0000
,
1001
0000
0000
0000
,
0110
0000
0000
0000
;

//---------------dance-single - Chewi----------------
#NOTES:
     dance-single:
     Chewi:
     Medium:
     7:
     0.276,0.322,0.197,0.175,0.005:
0000
0000
0000
0000
,
0000
0000
0000
0000
,
0000
0000
0000
0000
,
0000
0000
0000
0000
,
1000
0000
0001
1000
0000
0000
0010
0100
,
0000
0000
0000
0000
,
0000
0100
1000
0010
,
0001
0000
1000
0001
0000
0000
0000
0000
,
0001
0011
1000
1010
,
0001
0100
0010
1000
,
1000
1100
0001
0011
,
1000
0010
0100
0001
,
2000
0010
0001
3100
,
0002
0100
1000
0013
,
0010
0010
0010
0000
0100
0100
0100
0000
,
0010
0001
0100
1000
,
0120
0000
0000
0000
,
0000
0000
0000
0100
0200
0000
0000
0000
,
0330
0010
1010
0010
,
0011
0000
0001
0001
0000
0001
0100
1000
,
0020
0000
0000
0000
,
0000
0000
0000
0100
0200
0000
0000
0000
,
0330
0010
1010
0100
,
0101
0000
1000
1000
0000
0001
1000
0010
,
0200
0000
0000
0000
,
0000
0000
0000
0001
0002
0000
0000
0000
,
0303
0001
1001
1000
,
1001
0000
0010
0010
0000
0100
0010
0001
,
2000
0000
0000
0000
,
0000
0000
0000
0100
0200
0000
0000
0000
,
3300
0001
1001
1000
,
1001
0000
0100
0100
0000
0000
0000
0000
,
0220
0000
0000
0330
,
0100
0010
1000
0001
,
1000
1100
0101
0000
,
0001
0000
1000
0000
0010
0010
0010
0000
,
1000
0000
0001
0000
0100
0100
0100
0000
,
0001
1000
0100
0001
,
0100
1100
0101
0000
,
0100
0000
0010
0000
1000
1000
1000
0000
,
0100
0000
0010
0000
0001
0001
0001
0000
,
1000
0010
0001
0200
,
0000
0000
0000
0300
,
1000
0100
0001
0020
,
0000
0000
0000
0030
,
1000
0010
0100
0002
,
0000
0000
0000
0003
,
0001
0010
0100
2000
,
0000
0000
0000
3000
,
1000
0001
0000
0000
0000
0000
0000
0000
0000
0000
0000
0000
0000
0000
0000
0000
0000
0000
0000
0000
0000
0000
0000
0000
;

//---------------dance-single - Tyma&Chewi----------------
#NOTES:
     dance-single:
     Tyma&Chewi:
     Hard:
     11:
     0.508,0.510,0.361,0.087,0.148:
0000
0000
0000
0000
,
0000
0000
0000
0000
,
0000
0000
0000
0000
,
0000
0000
0000
0000
,
0001
0100
0010
1000
0100
0010
0001
0101
,
0000
0000
1000
1100
0000
0000
0000
0000
,
1000
0100
0010
0001
0100
0010
1000
1100
,
0000
0001
0101
0000
1001
0000
0011
0000
,
0010
0100
0010
0001
0100
0010
0100
0001
,
0010
0000
0100
0000
1000
0000
0001
0000
0100
0000
0000
0000
0010
1000
0010
0000
,
1000
0100
1000
0000
0001
0000
1000
0000
0010
0000
0100
0000
0001
0000
0010
0000
,
0001
0000
0010
0000
0100
0000
1000
0000
0010
0000
0000
0000
0100
0001
0100
0000
,
0000
0000
0010
0000
1000
0000
0001
0000
0010
0001
0000
0010
0000
0000
0100
0000
,
0000
0000
1000
0000
0010
0000
0100
0001
0100
0000
0010
1000
0000
0001
0010
0000
,
0000
0100
1000
0010
0100
0001
0010
0100
,
1000
0000
0000
0010
0000
0000
0100
0000
0000
0001
0000
0000
1000
0000
0001
0000
1000
0000
0001
0000
0000
0000
0000
0000
,
0101
0000
1010
0000
1000
0001
0010
0000
,
0100
1000
0010
0100
0001
0010
0001
0000
,
1010
0000
0101
0000
1000
0100
1000
0000
,
0001
1000
0001
1000
0010
0100
0001
0100
,
0010
1000
0100
1000
,
0001
0100
1000
0100
0001
0010
0100
1000
,
0100
0011
0101
1100
,
1000
0100
0010
0001
0000
1000
0100
1000
,
1001
0000
0001
1000
0101
0000
0010
0000
,
1001
0001
0100
0010
0110
0000
1100
0000
,
0011
0001
0101
1000
,
1010
0000
0100
0100
0000
0010
0001
1000
,
1010
0100
0011
0001
,
1001
1000
0010
1000
0100
0000
0010
0000
,
0101
1000
0010
0100
,
0001
1000
0010
0100
0001
0100
0100
0000
,
1010
0100
0001
0010
1100
1000
0010
1000
,
0010
0010
0100
0001
0100
0010
1000
0000
,
0101
0000
0010
0100
1000
0100
1000
0000
,
0001
0100
1000
0000
0100
0001
1000
0100
,
0001
0000
0100
2000
0000
0002
3003
0000
,
0000
1100
0100
0010
0001
0000
0100
0000
,
0001
0000
0101
0100
0010
1000
0100
0000
,
0001
0100
1000
0000
0100
0001
0010
0000
,
0100
1000
0010
0100
0001
0010
0100
1000
,
0000
0000
0001
0000
0100
0000
0010
0000
1000
0100
0000
0000
0000
0000
0010
0000
,
0000
0000
1000
0000
0000
0000
1000
0000
0000
0200
0000
0300
0000
0000
0000
0000
,
0000
0000
0001
0000
0010
0000
0001
0000
1000
0000
0100
1000
0000
0000
0010
0000
,
0100
0000
0010
0000
1000
0000
0001
0000
0010
0000
0100
0000
0000
0000
0000
2200
0000
0000
3300
0000
0000
0000
0000
0000
,
0000
0000
0100
0000
0010
0000
0001
0000
0100
0001
0000
1000
0000
0000
0010
0000
,
0000
0100
0000
0000
0000
0000
0001
0000
0000
2000
0000
3000
0000
0000
0100
0010
,
0000
0000
0001
0000
0010
0000
0001
0000
1000
0000
0000
0010
0000
0000
0100
0000
,
1000
0000
0001
0000
1000
0000
0001
0000
0010
0000
0100
0000
1000
0000
0000
0001
0000
0000
0110
0000
0000
0000
0000
0000
,
2002
3003
0000
0000
0000
0000
0000
0000
;

//---------------dance-double - Chewi----------------
#NOTES:
     dance-double:
     Chewi:
     Easy:
     5:
     0.240,0.295,0.098,0.317,0.000: // measure 1
00000000
00000000
00000000
00000000
,  // measure 2
00000000
00000000
00000000
00000000
,  // measure 3
00000000
00000000
00000000
00000000
,  // measure 4
00000000
00000000
00000000
00000000
,  // measure 5
00002002
00000000
00000000
00003003
,  // measure 6
00000001
00001000
00000100
00010000
,  // measure 7
00022000
00000000
00000000
00033000
,  // measure 8
00001000
00010000
01000000
10000000
,  // measure 9
00200000
00300000
00200000
00300000
,  // measure 10
01000000
00100000
10000000
00010000
,  // measure 11
00200000
00300000
00020000
00030000
,  // measure 12
00001000
00000100
00000001
00000100
,  // measure 13
00000020
00000030
00000020
00000030
,  // measure 14
00000010
00000100
00000001
00001000
,  // measure 15
00000002
00000003
00002000
00003000
,  // measure 16
00000100
00010000
00001000
00011000
,  // measure 17
00020000
00000000
00000000
00000000
,  // measure 18
00000000
00000000
10030000
00000000
,  // measure 19
00010000
10000000
01000000
00100000
,  // measure 20
00010000
00100000
00010000
10000000
,  // measure 21
00200000
00000000
00000000
00000000
,  // measure 22
00000000
00000000
01300000
00000000
,  // measure 23
01000000
00010000
00100000
00001000
,  // measure 24
00010000
00000100
00001000
00000010
,  // measure 25
00000210
00000000
00000000
00000000
,  // measure 26
00000000
00000000
00000310
00000000
,  // measure 27
00001000
00000001
00000010
00000100
,  // measure 28
00001000
00000010
00001000
00000100
,  // measure 29
00001002
00000000
00000000
00000000
,  // measure 30
00000000
00000000
00001003
00000000
,  // measure 31
00000100
00010000
00001000
00100000
,  // measure 32
00010000
01000000
10000000
00100000
,  // measure 33
00200000
00000000
00000000
00000000
,  // measure 34
01300000
00010000
01000000
00000000
,  // measure 35
00010000
00000000
10010000
00000000
,  // measure 36
20000000
31000000
00020000
00130000
,  // measure 37
00200000
00301000
00002000
00013000
,  // measure 38
00010000
00001000
00011000
00000000
,  // measure 39
00001000
00000000
00000110
00000000
,  // measure 40
00002000
00003100
00000002
00000013
,  // measure 41
00002000
00003010
00000002
00000103
,  // measure 42
00001000
00000100
00002000
00000000
,  // measure 43
00000000
00000000
00000000
00003000
,  // measure 44
00010000
00001000
00020000
00000000
,  // measure 45
00000000
00000000
00000000
00030000
,  // measure 46
01000000
00010000
00100000
20000000
,  // measure 47
00000000
00000000
00000000
30000000
,  // measure 48
01000000
10000000
00100000
00020000
,  // measure 49
00000000
00000000
00000000
00030000
,  // measure 50
10010000
00000000
00000000
00000000
;

//---------------dance-double - Chewi----------------
#NOTES:
     dance-double:
     Chewi:
     Medium:
     7:
     0.264,0.322,0.186,0.153,0.005: // measure 1
00000000
00000000
00000000
00000000
,  // measure 2
00000000
00000000
00000000
00000000
,  // measure 3
00000000
00000000
00000000
00000000
,  // measure 4
00000000
00000000
00000000
00000000
,  // measure 5
10000000
00000000
01000000
10000000
00000000
00000000
00100000
00100000
,  // measure 6
00000000
00000000
00000000
00000000
,  // measure 7
00000000
01000000
00010000
00100000
,  // measure 8
00001000
00010000
00001000
00000000
,  // measure 9
00001000
00001010
00000001
00000011
,  // measure 10
00000100
00000010
00001000
00000001
,  // measure 11
00001000
00001100
00000100
00010100
,  // measure 12
00010000
00001000
00100000
10000000
,  // measure 13
01000000
00010000
00100000
01100000
,  // measure 14
00100000
00010000
01000000
01100000
,  // measure 15
01000000
00010000
00100000
00001000
,  // measure 16
00010000
00000100
00001000
00001001
,  // measure 17
00000002
00000000
00000000
00000000
,  // measure 18
00000000
00000000
00000000
00001000
00002000
00000000
00000000
00000000
,  // measure 19
00003003
00000001
00000010
00000100
,  // measure 20
00001000
00000000
00000010
00000010
00000000
00000010
00001000
00010000
,  // measure 21
02000000
00000000
00000000
00000000
,  // measure 22
00000000
00000000
00000000
00100000
00200000
00000000
00000000
00000000
,  // measure 23
03300000
00100000
10000000
01000000
,  // measure 24
10000000
00000000
01000000
01000000
00000000
00100000
00010000
00001000
,  // measure 25
00000200
00000000
00000000
00000000
,  // measure 26
00000000
00000000
00000000
00001000
00002000
00000000
00000000
00000000
,  // measure 27
00003300
00000010
00000101
00000010
,  // measure 28
00001100
00000000
00000001
00000001
00000000
00000001
00000100
00000010
,  // measure 29
00002000
00000000
00000000
00000000
,  // measure 30
00000000
00000000
00000000
00010000
00020000
00000000
00000000
00000000
,  // measure 31
00033000
00001000
00011000
00010000
,  // measure 32
01010000
00000000
10000000
10000000
00000000
00000000
00000000
00000000
,  // measure 33
20020000
00000000
00000000
30030000
,  // measure 34
10000000
00100000
01000000
00000000
00010000
00000000
00000000
00000000
,  // measure 35
00100000
01100000
10010000
00000000
,  // measure 36
01000000
00010000
00001000
00000100
,  // measure 37
00000010
00000001
00000100
00000010
,  // measure 38
00001000
00000010
00000100
00000000
00001001
00000000
00000000
00000000
,  // measure 39
00000100
00001001
00000110
00000000
,  // measure 40
00000010
00001000
00000100
00000001
,  // measure 41
00000010
00000000
00000010
00000000
00001000
00000001
00001000
00000000
,  // measure 42
00000200
00000000
00000000
00000000
,  // measure 43
00000300
00000000
00000100
00000100
00000100
00000000
00000000
00000000
,  // measure 44
00002000
00000000
00000000
00000000
,  // measure 45
00003000
00000000
00001000
00010000
00001000
00000000
00000000
00000000
,  // measure 46
00200000
00000000
00000000
00000000
,  // measure 47
00300000
00000000
01000000
00100000
01000000
00000000
00000000
00000000
,  // measure 48
00020000
00000000
00000000
00000000
,  // measure 49
00030000
00000000
00010000
10000000
00010000
00000000
00000000
00000000
,  // measure 50
01000000
00100000
00000000
00000000
00000000
00000000
00000000
00000000
00000000
00000000
00000000
00000000
00000000
00000000
00000000
00000000
00000000
00000000
00000000
00000000
00000000
00000000
00000000
00000000
;

//---------------dance-double - Chewi----------------
#NOTES:
     dance-double:
     Chewi:
     Hard:
     11:
     0.358,0.482,0.120,0.066,0.038: // measure 1
00000000
00000000
00000000
00000000
,  // measure 2
00000000
00000000
00000000
00000000
,  // measure 3
00000000
00000000
00000000
00000000
,  // measure 4
00000000
00000000
00000000
00000000
,  // measure 5
10000000
00100000
01000000
00010000
00000000
00000000
00100000
00001000
,  // measure 6
00000000
00000000
00000000
00000000
,  // measure 7
00000000
00000000
00100000
00010000
00001000
00000100
00001000
00000010
,  // measure 8
00000100
00000101
00000001
00000011
,  // measure 9
00000001
00001000
00000010
00000000
00001000
00000001
00000100
00000000
,  // measure 10
00000001
00000100
00000010
00001000
00000100
00010000
00001000
00100000
,  // measure 11
00010000
01000000
10000000
00000000
00100000
10000000
01000000
00000000
,  // measure 12
10000000
01000000
00100000
00000000
00010000
00100000
01000000
00000000
,  // measure 13
10000000
00010000
10000000
00010000
00100000
00010000
00100000
00000000
,  // measure 14
00100000
00010000
00001000
00000100
00000001
00000100
00001000
00000000
,  // measure 15
00001000
00000010
00001000
00000010
00000001
00000010
00000001
00000000
,  // measure 16
00000001
00000000
00000000
00000010
00000000
00000000
00001000
00000000
00000000
00000100
00000000
00000000
00010000
00000000
00001000
00000000
00010000
00000000
00001000
00000000
00000000
00000000
00000000
00000000
,  // measure 17
00012000
00000000
00100000
00000000
,  // measure 18
00010000
00000000
01003000
00010000
,  // measure 19
01000000
20010000
00000000
01000000
,  // measure 20
00000000
00010000
00000000
30100000
,  // measure 21
01020000
00000000
00100000
00000000
,  // measure 22
10000000
00000000
01030000
00100000
,  // measure 23
00010000
00021000
00000000
00000010
,  // measure 24
00000000
00001000
00000000
00030100
,  // measure 25
00000010
00000001
00000100
00000000
00000010
00000000
00001010
00000000
,  // measure 26
00001000
00001000
00001000
00000000
00000001
00000001
00000001
00000000
,  // measure 27
00001000
00000100
00010000
00000000
00001000
00000000
00011000
00000000
,  // measure 28
00001000
00001000
00001000
00000000
00100000
00100000
00100000
00000000
,  // measure 29
10000000
01000000
00010000
00000000
01000000
00000000
00100000
00000000
,  // measure 30
10000000
00100000
00010000
00000000
00010000
01000000
10000000
00000000
,  // measure 31
10000000
01000000
00100000
00010000
01000000
00100000
10000000
00010000
,  // measure 32
00100000
00100000
01000000
01000000
00100000
00010000
00001000
00000100
,  // measure 33
00002002
00000000
00000000
00003003
,  // measure 34
00000001
00000100
00000010
00001000
00000001
00000001
00000000
00000000
,  // measure 35
00001000
00000000
00000001
00001000
00000010
00000000
00000000
00000000
,  // measure 36
00000000
00000010
00000010
00000000
00001000
00001000
00000000
00010000
,  // measure 37
00010000
00000000
01000000
01000000
00000000
00000000
00000000
00000000
,  // measure 38
00000000
01000000
00100000
10000000
00010000
00100000
01000000
00000000
,  // measure 39
00100000
00000000
00010000
00100000
01000000
00000000
00000000
00000000
,  // measure 40
00000000
01000000
01000000
00000000
00100000
00100000
00000000
00010000
,  // measure 41
00010000
00000000
00001000
00001000
00000000
00000100
00001000
00000010
,  // measure 42
00000100
00000000
00000001
00000000
00000100
00000000
00000000
00000000
00000010
00000000
00000000
00000010
00000000
00000000
00000010
00000000
,  // measure 43
00000000
00000000
00000000
00000000
,  // measure 44
00000000
00000000
00000001
00000000
00000010
00000000
00000100
00000000
00001000
00000000
00000000
00001000
00000000
00000000
00001000
00000000
,  // measure 45
00000000
00000000
00000000
00000000
,  // measure 46
00000000
00000000
00000100
00000000
00010000
00000000
00001000
00000000
00100000
00000000
00000000
00010000
00000000
00000000
00110000
00000000
,  // measure 47
00000000
00000000
00000000
00000000
,  // measure 48
00000000
00000000
10000000
00000000
00100000
00000000
10000000
00000000
00100000
00000000
00000000
00100000
00000000
00000000
00100000
00000000
,  // measure 49
10000000
00100000
01000000
00010000
00100000
01000000
10000000
00000000
,  // measure 50
00000000
01010000
00000000
00000000
00000000
00000000
00000000
00000000
00000000
00000000
00000000
00000000
00000000
00000000
00000000
00000000
00000000
00000000
00000000
00000000
00000000
00000000
00000000
00000000
;
