#TITLE:Treble, Bass & Attitude (CLSM Remix);
#SUBTITLE:;
#ARTIST:The Acolyte;
#TITLETRANSLIT:;
#SUBTITLETRANSLIT:;
#ARTISTTRANSLIT:;
#GENRE:;
#CREDIT:Chewi☆;
#MENUCOLOR:#00FFFF;
#METERTYPE:DDR X;
#BANNER:Treble, Bass & Attitude (CLSM Remix).png;
#BACKGROUND:Treble, Bass & Attitude (CLSM Remix)-bg.png;
#LYRICSPATH:;
#CDTITLE:;
#MUSIC:Treble, Bass & Attitude (CLSM Remix).mp3;
#OFFSET:-0.639;
#SAMPLESTART:77.450;
#SAMPLELENGTH:15.000;
#SELECTABLE:YES;
#LISTSORT:;
#DISPLAYBPM:175.000;
#BPMS:0.000=175.000,280.000=87.500,282.000=43.750,283.000=175.000;
#STOPS:;
#BGCHANGES:;
#ATTACKS:;

//---------------dance-single - Chewi----------------
#NOTES:
     dance-single:
     Chewi:
     Beginner:
     2:
     0.102,0.173,0.048,0.010,0.000:
0000
0000
0000
0000
,
0000
0000
0000
0000
,
0000
0000
0000
0000
,
0000
0000
0000
0000
,
1000
0000
0000
0000
,
0001
0000
0000
0000
,
0010
0000
0000
0000
,
0100
0000
0000
0000
,
0100
0000
0000
0000
,
0100
0000
0000
0000
,
0100
0000
0000
0000
,
0010
0000
0000
0000
,
0001
0000
0000
0000
,
1000
0000
0000
0000
,
0001
0000
0000
0000
,
0001
0000
0000
0000
,
0100
0000
0000
0000
,
0010
0000
0000
0000
,
1000
0000
0000
0000
,
0001
0000
0000
0000
,
0001
0000
0000
0000
,
0001
0000
0000
0000
,
1000
0000
0000
0000
,
1000
0000
0000
0000
,
0100
0000
0000
0000
,
0100
0000
0000
0000
,
0010
0000
0000
0000
,
0010
0000
0000
0000
,
0010
0000
0000
0000
,
1000
0000
0000
0000
,
0010
0000
0000
0000
,
0010
0000
0000
0000
,
0100
0000
0000
0000
,
0001
0000
0000
0000
,
0001
0000
0000
0000
,
1000
0000
0000
0000
,
1000
0000
0000
0000
,
0001
0000
0000
0000
,
1000
0000
0000
0000
,
1000
0000
0000
0000
,
1001
0000
0000
0000
,
0001
0000
0000
0000
,
0110
0000
0000
0000
,
0100
0000
0000
0000
,
1001
0000
0000
0000
,
0100
0000
0000
0000
,
0110
0000
0000
0000
,
0001
0000
0000
0000
,
0010
0000
0000
0000
,
0010
0000
0000
0000
,
0010
0000
0000
0000
,
0100
0000
0000
0000
,
0001
0000
0000
0000
,
1000
0000
0000
0000
,
0100
0000
0000
0000
,
0010
0000
0000
0000
,
1000
0000
0000
0000
,
0001
0000
0000
0000
,
0001
0000
0000
0000
,
1000
0000
0000
0000
,
0100
0000
0000
0000
,
1000
0000
0000
0000
,
1000
0000
0000
0000
,
0010
0000
0000
0000
,
1000
0000
0000
0000
,
0001
0000
0000
0000
,
0001
0000
0000
0000
,
0110
0000
0000
0000
,
0100
0000
0000
0000
,
0010
0000
0000
0000
,
0010
0000
0010
0020
,
0000
0000
0000
0000
,
0000
0000
0000
0030
;

//---------------dance-single - Chewi----------------
#NOTES:
     dance-single:
     Chewi:
     Easy:
     5:
     0.350,0.382,0.067,0.105,0.000:
0000
0000
0000
0000
,
0000
0000
0000
0000
,
0000
0000
0000
0000
,
0000
0000
0000
0000
,
1000
1000
2000
3000
,
0001
0001
0002
0003
,
0010
0010
0020
0030
,
0100
0100
0200
0300
,
0100
0010
0001
0010
,
0100
1000
0010
1000
,
0100
0010
0001
1000
,
0010
0100
0001
1000
,
0001
0001
0010
0100
,
1000
1000
0010
0100
,
0001
0100
1000
0100
,
0001
0010
1000
0010
,
0100
0100
0200
0300
,
0010
0010
0020
0030
,
1000
1000
2000
3000
,
0001
0001
0002
0003
,
0001
0010
0100
1000
,
0001
0100
1000
0100
,
1000
0100
0010
0001
,
1000
0010
0001
0010
,
0100
0010
0001
0000
,
0100
1000
0010
0000
,
0010
1000
0100
0000
,
0010
0001
0001
0000
,
0010
0001
0100
0000
,
1000
0100
0010
0000
,
0010
1000
0100
0000
,
0010
0100
1000
0000
,
0100
0010
0001
0000
,
0001
0100
0010
0000
,
0001
0100
0010
0000
,
1000
0010
0100
0000
,
1000
0100
0010
0000
,
0001
0010
0100
0000
,
1000
0100
0010
0001
,
1000
1000
0001
0001
,
1001
0100
1000
0100
,
0001
0010
1000
0010
,
0110
1000
0100
0001
,
0100
1000
0010
0001
,
1001
0001
0100
1000
,
0100
0001
0010
1000
,
0110
0010
1000
0010
,
0001
0010
1000
0100
,
0010
0001
0100
0001
,
0010
1000
0100
1000
,
0010
0100
0001
1000
,
0100
0010
0001
1000
,
0001
0100
0001
0010
,
1000
0100
1000
0010
,
0100
0010
1000
0001
,
0010
0100
1000
0001
,
1000
0100
1000
0100
,
0001
0010
0001
0010
,
0001
0100
0001
0100
,
1000
0010
1000
0010
,
0100
0010
0100
0010
,
1000
0001
1000
0001
,
1000
0100
1000
0100
,
0010
0001
0010
0001
,
1000
0100
0010
0000
,
0001
0100
0010
0000
,
0001
1000
0010
0000
,
0110
1001
0110
0000
,
0100
0001
0010
0000
,
0010
1000
0100
0000
,
0020
0000
0032
2003
,
0000
0000
0000
0000
,
0000
0000
0000
3000
;

//---------------dance-single - Chewi----------------
#NOTES:
     dance-single:
     Chewi:
     Medium:
     9:
     0.388,0.486,0.076,0.029,0.000:
0000
0000
0000
0000
,
0000
0000
0000
0000
,
0000
0000
0000
0000
,
0000
0000
0000
0000
,
1000
0010
0100
0001
,
0001
0100
0010
1000
,
1000
0001
0010
0010
,
0100
0010
0001
0100
,
1000
0000
0010
0000
0000
1000
0010
0000
,
0100
0000
0001
0000
0000
0100
0001
0000
,
0100
0000
0010
0000
0000
0100
0010
0000
,
1000
0000
0001
0000
0000
1000
0001
0000
,
1000
0000
0100
0000
0000
1000
0100
0000
,
0010
0000
0001
0000
0000
0010
0001
0000
,
0001
0000
0010
0000
0000
0100
1000
0000
,
0001
0000
1000
0000
0000
0010
0100
0000
,
0010
0010
1000
0100
,
0010
0010
0001
0100
,
1000
0100
0001
0010
,
1000
0100
0001
0010
,
1000
1000
0010
0100
,
0001
0001
0010
0100
,
1000
1100
0110
0011
,
0001
0001
0101
0101
,
1000
0000
0010
0000
0000
1000
0010
0000
,
0100
0000
0001
0000
0000
0100
0001
0000
,
1000
0000
0100
0000
0000
0010
0001
0000
,
0100
0000
1000
0000
0000
0010
0001
0000
,
0010
0000
0100
0000
0000
0001
1000
0000
,
0100
0000
0010
0000
0000
0001
0010
0000
,
0100
0000
1000
0000
0000
0010
1000
0000
,
0010
0000
0100
0000
0000
0010
1000
0000
,
0001
0010
0100
1000
,
0010
0010
0100
0100
,
1000
0100
0010
0001
,
1000
0100
0001
0100
,
0010
0001
0100
0010
,
0001
0010
0100
1000
,
0010
1000
0100
0010
,
1000
0100
0010
0001
,
1000
0000
0100
0000
0000
1000
0100
0000
,
0010
0000
0001
0000
0000
0010
0001
0000
,
0010
0000
0100
0000
0000
0010
0100
0000
,
0010
0001
0100
1000
,
0010
0000
0100
0000
0000
0100
0010
0000
,
1000
0000
0010
0000
0000
1000
0010
0000
,
1000
0000
0001
0000
0000
0001
1000
0000
,
0100
0010
0001
0100
,
1000
0000
0100
0000
0010
0001
0010
0000
,
0100
1000
0001
0100
,
0010
0000
1000
0000
0010
1000
0010
0000
,
0001
0010
1000
0100
,
0010
0000
0100
0000
0010
0100
0010
0000
,
0001
0010
0100
1000
,
0001
0000
0100
0000
0010
0100
0010
0000
,
1000
0010
0100
0001
,
1000
0000
0100
0000
0000
1000
0100
0000
,
0010
0000
0100
0000
0000
0010
0100
0000
,
0010
0000
0001
0000
0000
0010
0001
0000
,
0100
0000
0001
0000
0000
0100
0001
0000
,
0100
0000
0010
0000
0000
0100
0010
0000
,
1000
0000
0010
0000
0000
1000
0010
0000
,
1000
0000
0001
0000
0000
1000
0001
0000
,
0001
0010
0100
1000
,
1001
0000
0100
0000
0010
0100
0010
0000
,
0100
0001
0010
0100
,
1000
0010
0001
0010
,
1000
0100
0010
0001
,
0011
0000
0010
0000
0100
0010
0100
0000
,
0100
1000
0010
0100
,
0102
1000
0023
0230
,
0000
0000
0000
0000
,
0000
0000
0000
0300
;

//---------------dance-single - Chewi----------------
#NOTES:
     dance-single:
     Chewi:
     Hard:
     13:
     0.692,0.867,0.219,0.019,0.124:
0000
0000
0000
0000
,
0000
0000
0000
0000
,
0000
0000
0000
0000
,
0000
0000
0000
0000
,
1000
0000
1100
0000
0101
0000
0100
0100
,
0010
0000
1010
0000
0011
0000
0010
0100
,
1000
0000
1100
0000
0101
0000
0100
0001
,
0010
0000
0000
0000
1000
0010
0100
0001
1000
0000
1000
0000
1000
0000
0000
0000
,
1000
0010
0100
0001
0000
0100
0010
0000
,
0001
0010
0100
1000
0000
0010
1000
0000
,
0010
0100
0001
1000
0000
0001
0010
0000
,
0001
0010
0100
1000
0000
0010
1000
0000
,
0010
0100
0001
1000
0000
0100
0010
0000
,
0001
0010
0100
1000
0000
0010
1000
0000
,
0010
0100
0001
1000
0000
0100
0100
0000
,
0010
0100
1000
0001
0000
0010
0010
0000
,
0001
0010
0001
0010
0001
0000
0101
0000
,
0001
0100
0001
0100
0001
0000
1001
0000
,
1000
0100
1000
0100
1000
0000
1001
0000
,
1000
0010
1000
0010
1000
0000
1010
0000
,
1000
0010
0001
0010
1000
0010
0001
0010
,
1000
0100
0001
0100
1000
0100
0001
0100
,
1000
0100
1000
0100
1000
0001
1000
0001
,
0100
0001
0100
0001
0100
0001
0100
0001
0100
0010
0100
0010
0100
0010
0100
0000
,
0010
1000
0100
1000
0010
0000
0101
0000
,
0010
0001
0100
0001
0010
0000
0011
0000
,
0001
0010
0100
1000
0010
0010
0010
0000
,
1000
0100
0010
0001
0100
0100
0100
0000
,
0001
0100
1000
0100
0001
0010
0100
0000
,
0001
0010
1000
0010
0001
0100
1000
0000
,
1000
0100
0010
0001
1000
0001
0100
0000
,
0001
0000
0100
0000
0010
0000
1000
0000
0001
1000
0001
0000
0010
0000
0110
0000
,
1000
0100
0010
0100
1000
0010
0100
0000
,
0001
0100
0010
0100
0001
0010
0100
0000
,
1000
0001
0100
0010
1000
0001
0010
0000
,
0001
1000
0010
0100
0001
1000
0100
0000
,
0010
0001
0100
0001
0010
0100
1000
0000
,
1000
0010
1000
0100
1000
0010
0100
0001
,
1000
0100
1000
0100
0010
0001
0010
0001
,
1000
0010
1000
0010
1000
0010
1000
0010
0100
0010
0100
0010
0100
0010
0100
0010
,
0100
0001
0010
0100
1000
0010
0010
0000
,
1000
0100
0010
0001
0100
0010
0010
0000
,
0100
0010
1000
0001
0010
0100
0100
0000
,
0010
0001
0100
1000
0010
1000
0100
0001
,
0010
0100
1000
0010
1000
0100
0100
0000
,
0010
0001
0100
0001
0010
0100
0100
0000
,
0100
0010
0001
1000
0010
0100
0001
1000
,
0010
1000
0100
0010
0001
0100
0010
0100
,
1001
0010
0100
1000
0010
1000
0100
0000
,
1100
0100
1000
0010
1000
0100
0010
0000
,
0011
0001
0100
0001
0010
0001
0100
0000
,
0110
1000
0010
0001
0010
1000
0010
0000
,
1100
0010
0001
0100
0010
0100
0001
0000
,
0101
0010
0100
1000
0010
0100
0010
0000
,
1010
0001
0010
1000
0100
0001
0010
0000
,
1100
0000
0010
0000
0001
0000
0100
0000
0010
0000
0100
0001
0010
0000
0010
0000
,
0100
0000
0010
0001
0000
0001
0010
0100
,
1000
0000
0010
1000
0000
1000
0010
0100
,
0001
0000
0001
0100
0000
0100
1000
0010
,
1000
0000
1000
0010
0000
0010
1000
0001
,
0010
0100
0010
0001
0000
0001
0010
0100
,
1000
0010
0100
0010
0000
0010
0100
0001
,
1000
0100
0010
0100
0000
0100
0010
0001
,
0010
0000
0100
0000
1000
0000
0010
0000
0100
0001
0100
0000
0100
0000
0010
0000
,
1000
0010
0100
1000
0000
0010
1000
0100
,
0010
0001
0100
0010
0000
0010
0100
0001
,
0010
0100
1000
0010
0000
0010
1000
0100
,
1000
0010
0100
0001
0000
0001
0010
0100
,
1000
0010
1000
0100
1000
0010
1000
0100
,
0001
0010
0001
0100
0001
0010
0100
0010
,
0001
0000
0000
0000
0010
0000
0100
0000
0000
0000
1000
0000
0010
0000
0000
0000
0101
0000
0100
0010
0000
0010
0100
0000
0220
0000
0000
0000
0000
0000
0000
0000
,
0000
0000
0000
0000
,
0000
0000
0000
0330
;
