#TITLE:Treasure×STAR;
#SUBTITLE:;
#ARTIST:NAOKI & Ryu☆ fw.さちまゆ;
#TITLETRANSLIT:TreasurexSTAR;
#SUBTITLETRANSLIT:;
#ARTISTTRANSLIT:NAOKI & Ryu fw.SACHIMAYU;
#GENRE:;
#CREDIT:Chewi☆;
#MENUCOLOR:#00FF00;
#METERTYPE:DDR X;
#BANNER:TreasurexSTAR.png;
#BACKGROUND:TreasurexSTAR-bg.png;
#LYRICSPATH:;
#CDTITLE:;
#MUSIC:TreasurexSTAR.mp3;
#OFFSET:-1.422;
#SAMPLESTART:51.221;
#SAMPLELENGTH:15.000;
#SELECTABLE:YES;
#LISTSORT:;
#DISPLAYBPM:171.000;
#BPMS:0.000=171.000;
#STOPS:;
#BGCHANGES:;
#ATTACKS:;

//---------------dance-single - Chewi----------------
#NOTES:
     dance-single:
     Chewi:
     Beginner:
     3:
     0.189,0.233,0.065,0.074,0.000: // measure 1
0000
0000
0000
0000
,  // measure 2
0000
0000
0000
0000
,  // measure 3
0000
0000
0000
0000
,  // measure 4
0000
0000
0000
0000
,  // measure 5
1000
0000
0000
0000
,  // measure 6
0010
0000
0000
0000
,  // measure 7
0001
0000
0000
0000
,  // measure 8
0100
0000
0000
0000
,  // measure 9
0010
0000
0010
0000
,  // measure 10
0001
0000
0001
0000
,  // measure 11
0100
0000
0100
0000
,  // measure 12
0001
0000
0001
0000
,  // measure 13
1000
0000
1000
0000
,  // measure 14
0100
0000
0100
0000
,  // measure 15
1000
0000
1000
0000
,  // measure 16
0001
0000
0001
0000
,  // measure 17
0100
0000
0100
0000
,  // measure 18
0010
0000
0010
0000
,  // measure 19
0001
0000
0001
0000
,  // measure 20
1001
0000
0000
0000
,  // measure 21
1000
0000
0010
0000
,  // measure 22
1000
1000
1000
0000
,  // measure 23
1000
0000
0001
0000
,  // measure 24
0001
0001
0001
0000
,  // measure 25
0001
0000
0100
0000
,  // measure 26
0001
0001
0001
0000
,  // measure 27
0010
0000
0100
0000
,  // measure 28
0010
0010
0010
0000
,  // measure 29
0001
0000
0100
0000
,  // measure 30
1000
0000
0001
0000
,  // measure 31
1000
0000
0100
0000
,  // measure 32
0001
0000
1000
0000
,  // measure 33
0001
0000
0010
0000
,  // measure 34
0100
0000
0100
0000
,  // measure 35
1000
0000
0100
0000
,  // measure 36
0010
0000
0010
0000
,  // measure 37
1001
0000
0000
0000
,  // measure 38
1000
1000
1000
0000
,  // measure 39
1001
0000
0000
0000
,  // measure 40
0001
0001
0001
0000
,  // measure 41
0110
0000
0001
0000
,  // measure 42
1000
0000
1000
0000
,  // measure 43
1001
0000
0010
0000
,  // measure 44
0100
0000
0100
0000
,  // measure 45
0001
0000
1000
0000
,  // measure 46
0001
0000
0010
0000
,  // measure 47
0010
0000
0100
0000
,  // measure 48
1000
0000
0010
0000
,  // measure 49
0010
0000
0100
0000
,  // measure 50
0001
0000
0010
0000
,  // measure 51
0010
0000
0100
0000
,  // measure 52
0010
0000
0001
0000
,  // measure 53
0002
0000
0000
0003
,  // measure 54
0001
0000
0000
0000
,  // measure 55
0200
0000
0000
0300
,  // measure 56
0100
0100
0100
0000
,  // measure 57
0020
0000
0000
0030
,  // measure 58
0010
0000
0000
0000
,  // measure 59
0200
0000
0000
0300
,  // measure 60
0100
0100
0100
0000
,  // measure 61
0002
0000
0000
0003
,  // measure 62
0001
0000
0000
0000
,  // measure 63
0020
0000
0000
0030
,  // measure 64
0010
0010
0010
0000
,  // measure 65
0002
0000
0000
0003
,  // measure 66
0001
0000
0000
0000
,  // measure 67
0200
0000
0000
0300
,  // measure 68
0100
0100
0100
0000
,  // measure 69
0010
0010
0010
0000
,  // measure 70
0100
0000
0100
0000
,  // measure 71
0001
0000
0001
0000
,  // measure 72
1001
0000
0000
0000
,  // measure 73
0110
0000
0000
0000
;

//---------------dance-single - Chewi----------------
#NOTES:
     dance-single:
     Chewi:
     Easy:
     5:
     0.257,0.333,0.065,0.111,0.000: // measure 1
0000
0000
0000
0000
,  // measure 2
0000
0000
0000
0000
,  // measure 3
0000
0000
0000
0000
,  // measure 4
0000
0000
0000
0000
,  // measure 5
1000
0000
1000
0000
,  // measure 6
0010
0000
0010
0000
,  // measure 7
0001
0000
0001
0000
,  // measure 8
0100
0000
0100
0000
,  // measure 9
0010
0001
0010
0000
,  // measure 10
0001
0100
0001
0000
,  // measure 11
0100
0010
0100
0000
,  // measure 12
0001
1000
0001
0000
,  // measure 13
1000
0100
1000
0000
,  // measure 14
0100
0010
0100
0000
,  // measure 15
1000
0100
1000
0000
,  // measure 16
0001
0100
0001
0000
,  // measure 17
0100
0010
0100
0000
,  // measure 18
0010
0100
0010
0100
,  // measure 19
0001
1000
0001
1000
,  // measure 20
1001
0000
0000
0000
,  // measure 21
1000
0100
0010
0000
,  // measure 22
1000
1000
1000
0000
,  // measure 23
1000
0100
0001
0000
,  // measure 24
0001
0001
0001
0000
,  // measure 25
0001
0010
0100
0000
,  // measure 26
0001
0001
0001
0000
,  // measure 27
0010
1000
0100
0000
,  // measure 28
0010
0010
0010
0000
,  // measure 29
0001
0010
0100
0000
,  // measure 30
1000
0100
0001
0000
,  // measure 31
1000
0010
0100
0000
,  // measure 32
0001
0010
1000
0000
,  // measure 33
0001
1000
0010
0000
,  // measure 34
0100
0010
0100
0000
,  // measure 35
1000
0001
0100
0000
,  // measure 36
0010
0100
0010
0000
,  // measure 37
0101
0000
0100
0000
,  // measure 38
1000
1000
1000
0000
,  // measure 39
1100
0000
0001
0000
,  // measure 40
0001
0001
0001
0000
,  // measure 41
0110
0000
0001
0000
,  // measure 42
1000
0001
1000
0000
,  // measure 43
1001
0000
0010
0000
,  // measure 44
0100
0010
0100
0000
,  // measure 45
0001
0000
1000
0000
,  // measure 46
0001
0100
0010
1000
,  // measure 47
0010
0000
0100
0000
,  // measure 48
1000
0100
0010
0001
,  // measure 49
0010
0000
0100
0000
,  // measure 50
0001
0100
0010
1000
,  // measure 51
0010
0000
0100
0000
,  // measure 52
0010
0100
0001
1000
,  // measure 53
0002
0000
0000
0003
,  // measure 54
2000
0000
0000
3000
,  // measure 55
0200
0000
0000
0300
,  // measure 56
0010
0010
0010
0000
,  // measure 57
0020
0000
0000
0030
,  // measure 58
0002
0000
0000
0003
,  // measure 59
0200
0000
0000
0300
,  // measure 60
0010
0010
0010
0000
,  // measure 61
0002
0000
0000
0003
,  // measure 62
2000
0000
0000
3000
,  // measure 63
0020
0000
0000
0030
,  // measure 64
0100
0100
0100
0000
,  // measure 65
0002
0000
0000
0003
,  // measure 66
2000
0000
0000
3000
,  // measure 67
0020
0000
0000
0030
,  // measure 68
0100
0100
0100
0000
,  // measure 69
0010
0010
0010
0000
,  // measure 70
0100
0010
0100
0010
,  // measure 71
0001
1000
0001
1000
,  // measure 72
1001
0100
0010
0000
,  // measure 73
0110
0000
0000
0000
;

//---------------dance-single - Chewi----------------
#NOTES:
     dance-single:
     Chewi:
     Medium:
     8:
     0.381,0.433,0.324,0.046,0.000: // measure 1
0000
0000
0000
0000
,  // measure 2
0000
0000
0000
0000
,  // measure 3
0000
0000
0000
0000
,  // measure 4
0000
0000
0000
0000
,  // measure 5
1000
1100
0001
0100
,  // measure 6
0010
0100
0001
0010
,  // measure 7
0100
0110
0010
0001
,  // measure 8
0000
1000
0001
0000
1000
0000
0010
0000
,  // measure 9
0001
0000
0010
0000
,  // measure 10
0100
0001
1100
0000
,  // measure 11
1000
0100
0010
0001
,  // measure 12
1100
0000
0101
0000
,  // measure 13
0100
0010
1000
0001
,  // measure 14
1100
0011
0101
0000
,  // measure 15
0001
1000
0010
0100
,  // measure 16
0001
0101
1000
1100
,  // measure 17
0001
1001
1000
1001
,  // measure 18
1020
0001
1000
0001
,  // measure 19
0130
0001
0010
0100
,  // measure 20
0220
0000
0000
0330
,  // measure 21
0001
0000
0010
0100
0000
1000
0000
0010
,  // measure 22
0000
0000
0000
0100
0000
0000
0000
0000
,  // measure 23
0100
0000
0010
1000
0000
0001
0000
1001
,  // measure 24
0000
0000
0000
0000
,  // measure 25
0001
0000
0010
0100
0000
1000
0000
0100
,  // measure 26
0000
0010
0001
0000
,  // measure 27
1000
0000
0010
0000
0100
0000
0001
0100
,  // measure 28
0000
0110
1001
0110
,  // measure 29
0001
0110
1000
0110
,  // measure 30
1000
0100
0010
0001
,  // measure 31
1000
0000
1100
0000
0001
0000
0101
0100
,  // measure 32
0000
0100
0000
0010
0000
0010
0000
0000
,  // measure 33
1000
0010
0001
0010
,  // measure 34
1000
0100
0001
0100
,  // measure 35
1000
0100
1000
0000
0001
0010
0001
0000
,  // measure 36
2000
0010
0002
3003
,  // measure 37
1001
0000
0110
0000
,  // measure 38
0100
0010
1001
0000
,  // measure 39
1000
0100
0010
0001
,  // measure 40
0110
0000
0011
0000
,  // measure 41
0001
0010
0100
1000
,  // measure 42
0001
0100
0010
0000
,  // measure 43
1000
0001
1000
0010
,  // measure 44
0100
0110
0000
1001
,  // measure 45
0010
0010
0010
0010
,  // measure 46
0100
0100
0100
0100
,  // measure 47
0010
0100
1000
0001
,  // measure 48
0000
1000
0001
0000
1000
0000
0000
0000
,  // measure 49
0001
0010
0100
1000
,  // measure 50
1000
0010
0100
0001
,  // measure 51
1000
0100
0001
0100
,  // measure 52
0000
1000
0010
0000
0001
0000
0010
0000
,  // measure 53
0100
0010
0100
0010
,  // measure 54
0001
0010
0001
0010
,  // measure 55
0001
0100
1000
0100
,  // measure 56
0001
1000
1001
0000
,  // measure 57
1000
0100
0010
0100
,  // measure 58
1000
0100
0010
0100
,  // measure 59
1000
0001
0100
0010
,  // measure 60
0100
0110
0000
0110
,  // measure 61
0010
0001
0100
1000
,  // measure 62
0100
0001
0010
1000
,  // measure 63
0100
0001
0100
1000
,  // measure 64
0001
1000
0001
0000
1001
0000
0000
0000
,  // measure 65
1000
0010
0001
0010
,  // measure 66
1000
0100
0001
0010
,  // measure 67
0100
0001
0010
0100
,  // measure 68
1000
0001
1000
0000
0000
0001
1000
0000
,  // measure 69
0000
0010
0100
0000
0000
0001
0100
0000
,  // measure 70
0010
1000
0001
0010
,  // measure 71
0100
0000
0010
0000
0100
0010
0100
0000
,  // measure 72
0110
0000
0000
0000
,  // measure 73
1001
0000
0000
0000
;

//---------------dance-single - Chewi----------------
#NOTES:
     dance-single:
     Chewi:
     Hard:
     12:
     0.552,0.633,0.370,0.037,0.116: // measure 1
0000
0000
0000
0000
,  // measure 2
0000
0000
0000
0000
,  // measure 3
0000
0000
0000
0000
,  // measure 4
0000
0000
0000
0000
,  // measure 5
1000
0000
1100
0000
0001
0100
1000
0000
,  // measure 6
0001
0000
0101
0000
1000
0100
0001
0000
,  // measure 7
0100
0010
0001
0100
0010
1000
0001
1000
,  // measure 8
0000
0001
0001
0000
1100
0000
0010
0000
,  // measure 9
0011
0000
0000
0000
0100
0100
0000
0000
,  // measure 10
0010
0100
0000
0001
1000
0000
0000
0000
,  // measure 11
0001
0000
0000
0010
0000
0000
0100
0000
1000
0000
0000
0010
0000
0000
0100
0000
,  // measure 12
0001
0000
0000
0001
0000
0000
0100
0000
0010
0000
0000
0000
0000
0000
0000
0000
,  // measure 13
1000
0000
0000
0000
0000
0000
0010
0000
0100
0000
0000
0001
0000
0000
0010
0000
,  // measure 14
0100
0000
0000
0010
0000
0000
0001
0000
0010
0000
0000
0000
0000
0000
0000
0000
,  // measure 15
0001
0000
0000
0010
0000
0000
0100
0000
1000
0000
0000
0010
0000
0000
0100
0000
,  // measure 16
0001
1000
1001
0000
0000
1000
1100
0000
,  // measure 17
0000
0001
0101
0000
0000
0010
0011
0000
,  // measure 18
0011
0101
1100
1010
,  // measure 19
0010
0000
0100
0000
0010
0000
0100
0000
1000
0100
1000
0100
1000
0100
1000
0100
,  // measure 20
2000
0000
0010
0000
0002
0000
0000
3003
,  // measure 21
0001
0010
0100
1000
0000
0001
0000
1000
,  // measure 22
0000
0010
0100
0010
0000
0000
0000
0000
,  // measure 23
0100
0010
1000
0001
0000
0010
0000
0110
,  // measure 24
0000
0000
0000
0000
,  // measure 25
0100
0010
0001
1000
0000
0010
0000
0100
,  // measure 26
0000
0001
0100
0010
0000
0000
0000
0000
,  // measure 27
1000
0001
0010
0100
0000
1000
0000
0000
,  // measure 28
0011
1010
0011
1010
,  // measure 29
1000
0100
0010
0001
0000
1000
0100
0001
,  // measure 30
0000
0001
0100
1000
0000
0000
0000
0000
,  // measure 31
0001
0100
0010
1000
0001
0100
0010
0110
,  // measure 32
0000
1010
0000
0110
0000
0101
0000
0000
,  // measure 33
0100
0010
1000
0001
0000
1000
0100
0010
,  // measure 34
0000
0001
0001
0010
0100
1000
0001
0000
,  // measure 35
1000
0010
1000
0010
0001
0010
0001
0010
,  // measure 36
1000
0010
1000
0010
1000
0010
1000
0000
0001
0000
0000
0000
0100
0000
0000
0000
,  // measure 37
1001
0000
0000
0000
0100
0100
0000
0000
,  // measure 38
0010
0000
0000
1000
0000
0000
0001
0000
0010
0000
0000
0000
0000
0000
0000
0000
,  // measure 39
0001
0000
0000
0010
0000
0000
0100
0000
1000
0000
0000
0001
0000
0000
1000
0000
,  // measure 40
1010
0000
0000
0101
0000
0000
1010
0000
1001
0000
0000
0000
0000
0000
0000
0000
,  // measure 41
1001
0000
0000
0000
0000
0000
0010
0000
0100
0000
0000
0010
0000
0000
0001
0000
,  // measure 42
0100
0000
0000
0010
0000
0000
1000
0000
0001
0000
0000
0000
0000
0000
0000
0000
,  // measure 43
1000
0000
0000
0010
0000
0000
0100
0000
0001
0000
0000
0010
0000
0000
0100
0000
,  // measure 44
1000
0100
1000
0000
0100
0001
0101
0000
,  // measure 45
0100
0010
0100
0010
1000
0001
1000
0001
,  // measure 46
1000
0100
0010
0001
1000
0000
0100
0000
,  // measure 47
0001
0100
1000
0100
0001
0010
1000
0010
,  // measure 48
0000
0100
0100
0000
0110
0000
0000
0000
,  // measure 49
0010
0001
0100
0001
0010
0100
1000
0010
,  // measure 50
1000
0100
1000
0010
0100
0000
0010
0000
,  // measure 51
0100
0010
1000
0001
0010
0100
1000
0001
,  // measure 52
0000
1000
1001
0000
0001
1000
1001
0000
,  // measure 53
0001
0100
0001
0100
0000
1000
0100
1000
,  // measure 54
0000
1000
0010
1000
0000
1000
0010
0001
,  // measure 55
0010
1000
0010
0001
0000
0100
0001
0100
,  // measure 56
0000
0010
0100
0000
1001
0000
0000
0000
,  // measure 57
0001
0010
0100
1000
0000
1000
0010
1000
,  // measure 58
0000
0010
0001
0010
0000
0001
0100
1000
,  // measure 59
0100
0001
0100
1000
0000
0001
0100
0010
,  // measure 60
0000
1000
0100
0000
0000
0010
0001
0000
,  // measure 61
1000
0100
0010
0100
0000
0010
0100
1000
,  // measure 62
0000
1000
0010
0001
0000
0001
0100
1000
,  // measure 63
0100
0001
0100
1000
0000
0001
1000
0010
,  // measure 64
0000
0100
0001
0000
0110
0000
0000
0000
,  // measure 65
1000
0001
0010
0001
0000
0010
0100
1000
,  // measure 66
0000
0010
0100
0001
0000
1000
0100
0001
,  // measure 67
0100
1000
0010
0100
0000
0001
0100
0010
,  // measure 68
1000
0000
1001
0000
0000
0010
0010
0000
,  // measure 69
0000
0100
0100
0000
0000
1000
1000
0000
,  // measure 70
1100
0101
1010
0011
,  // measure 71
0001
0000
0010
0000
0100
0000
1000
0000
0001
1000
0001
1000
0001
1000
0001
0000
,  // measure 72
1002
1000
0020
0033
,  // measure 73
0110
0000
0000
0000
;
