#TITLE:Treasure;
#SUBTITLE:;
#ARTIST:飛輪海;
#TITLETRANSLIT:;
#SUBTITLETRANSLIT:;
#ARTISTTRANSLIT:Fahrenheit;
#GENRE:;
#CREDIT:yamamoto_;
#MENUCOLOR:;
#METERTYPE:DDR X;
#BANNER:Treasure.png;
#BACKGROUND:Treasure-bg.png;
#LYRICSPATH:;
#CDTITLE:;
#MUSIC:Treasure.mp3;
#OFFSET:-2.300;
#SAMPLESTART:84.616;
#SAMPLELENGTH:15.000;
#SELECTABLE:YES;
#LISTSORT:;
#DISPLAYBPM:118.000;
#BPMS:0.000=118.000;
#STOPS:;
#BGCHANGES:;
#ATTACKS:;

//---------------dance-single - yamamoto_----------------
#NOTES:
     dance-single:
     yamamoto_:
     Beginner:
     1:
     0.073,0.114,0.000,0.050,0.000: // measure 1
0000
0000
0000
0000
,  // measure 2
0000
0000
0000
0000
,  // measure 3
0000
0000
0000
0000
,  // measure 4
0000
0000
0000
0000
,  // measure 5
1000
0000
0000
0000
,  // measure 6
0010
0000
0000
0000
,  // measure 7
0001
0000
0000
0000
,  // measure 8
0010
0000
0000
0000
,  // measure 9
0100
0000
0000
0000
,  // measure 10
0100
0000
0000
0000
,  // measure 11
0010
0000
0000
0000
,  // measure 12
0010
0000
0000
0000
,  // measure 13
0001
0000
0000
0000
,  // measure 14
0001
0000
0000
0000
,  // measure 15
1000
0000
0000
0000
,  // measure 16
1000
0000
0000
0000
,  // measure 17
1000
0000
0000
0000
,  // measure 18
0001
0000
0000
0000
,  // measure 19
1000
0000
0000
0000
,  // measure 20
0001
0000
0000
0000
,  // measure 21
0100
0000
0000
0000
,  // measure 22
0100
0000
0000
0000
,  // measure 23
1000
0000
0000
0000
,  // measure 24
0100
0000
0000
0000
,  // measure 25
0010
0000
0000
0000
,  // measure 26
0100
0000
0000
0000
,  // measure 27
0100
0000
0000
0000
,  // measure 28
0010
0000
0000
0000
,  // measure 29
0010
0000
0000
0000
,  // measure 30
0001
0000
0000
0000
,  // measure 31
1000
0000
0000
0000
,  // measure 32
0010
0000
0000
0000
,  // measure 33
0200
0000
0000
0300
,  // measure 34
0020
0000
0000
0030
,  // measure 35
0002
0000
0000
0003
,  // measure 36
2000
0000
0000
3000
,  // measure 37
0020
0000
0000
0030
,  // measure 38
0200
0000
0000
0300
,  // measure 39
0020
0000
0000
0030
,  // measure 40
1000
0000
0000
0000
,  // measure 41
0001
0000
0000
0000
,  // measure 42
0001
0000
1000
0000
,  // measure 43
0001
0000
0000
0000
,  // measure 44
0001
0000
1000
0000
,  // measure 45
0001
0000
0000
0000
,  // measure 46
0001
0000
0010
0000
,  // measure 47
0010
0000
0000
0000
,  // measure 48
0001
0000
0100
0000
,  // measure 49
0100
0000
0000
0000
,  // measure 50
0100
0000
0000
0000
,  // measure 51
0100
0000
0000
0000
,  // measure 52
0010
0000
0000
0000
,  // measure 53
0010
0000
0000
0000
,  // measure 54
0001
0000
0000
0000
,  // measure 55
0001
0000
0000
0000
,  // measure 56
1000
0000
0000
0000
,  // measure 57
1000
0000
0000
0000
,  // measure 58
0100
0000
0000
0000
,  // measure 59
0100
0000
0000
0000
,  // measure 60
0010
0000
0000
0000
,  // measure 61
0010
0000
0000
0000
,  // measure 62
0001
0000
0000
0000
,  // measure 63
0001
0000
0000
0000
,  // measure 64
1000
0000
0000
0000
,  // measure 65
1000
0000
0000
0000
;

//---------------dance-single - yamamoto_----------------
#NOTES:
     dance-single:
     yamamoto_:
     Easy:
     4:
     0.154,0.186,0.000,0.071,0.000: // measure 1
0000
0000
0000
0000
,  // measure 2
0000
0000
0000
0000
,  // measure 3
0000
0000
0000
0000
,  // measure 4
0000
0000
0000
0000
,  // measure 5
2000
0000
0010
0000
,  // measure 6
0010
0000
3010
0000
,  // measure 7
0002
0000
0010
0000
,  // measure 8
0010
0000
0013
0000
,  // measure 9
0100
0000
0100
0000
,  // measure 10
0100
0100
0100
0000
,  // measure 11
0010
0000
0010
0000
,  // measure 12
0010
0010
0010
0000
,  // measure 13
0001
0000
1000
0000
,  // measure 14
0001
1000
0001
0000
,  // measure 15
1000
0000
0001
0000
,  // measure 16
1000
0001
1000
0000
,  // measure 17
1000
0000
0100
0000
,  // measure 18
0001
0010
1000
0000
,  // measure 19
1000
0000
0010
0000
,  // measure 20
0001
0100
1000
0000
,  // measure 21
0100
0000
0010
0000
,  // measure 22
0100
1000
0100
0000
,  // measure 23
1000
0000
0001
0000
,  // measure 24
0100
0010
0100
0000
,  // measure 25
0010
0000
1000
0000
,  // measure 26
0100
1000
0010
0000
,  // measure 27
0100
0000
0001
0000
,  // measure 28
0010
0001
0100
0000
,  // measure 29
0010
0000
1000
0000
,  // measure 30
0001
1000
0100
0000
,  // measure 31
1000
0000
0100
0000
,  // measure 32
0010
0001
0010
0000
,  // measure 33
0200
0000
0000
0300
,  // measure 34
0020
0000
0000
0030
,  // measure 35
0002
0000
0000
0003
,  // measure 36
2000
0000
0000
3000
,  // measure 37
0020
0000
0000
0030
,  // measure 38
0200
0000
0000
0300
,  // measure 39
0020
0000
0000
0030
,  // measure 40
1000
1000
1000
0000
,  // measure 41
0001
0001
0001
0000
,  // measure 42
0001
0100
1000
0010
,  // measure 43
0001
0000
0000
0000
,  // measure 44
0001
0010
1000
0100
,  // measure 45
0001
0000
0000
0000
,  // measure 46
0001
1000
0010
0100
,  // measure 47
0010
0000
0000
0000
,  // measure 48
0001
1000
0100
0010
,  // measure 49
0100
0000
0000
0000
,  // measure 50
0100
0000
0100
0000
,  // measure 51
0100
0100
0100
0000
,  // measure 52
0010
0000
0010
0000
,  // measure 53
0010
0010
0010
0000
,  // measure 54
0001
0000
1000
0000
,  // measure 55
0001
1000
0001
0000
,  // measure 56
1000
0000
0001
0000
,  // measure 57
1000
0001
1000
0000
,  // measure 58
0100
0000
0100
0000
,  // measure 59
0100
0100
0100
0000
,  // measure 60
0010
0000
0010
0000
,  // measure 61
0010
0010
0010
0000
,  // measure 62
0001
0000
1000
0000
,  // measure 63
0001
1000
0001
0000
,  // measure 64
1000
0000
0001
0000
,  // measure 65
1000
0001
2000
0000
,  // measure 66
3000
0000
0000
0000
;

//---------------dance-single - yamamoto_----------------
#NOTES:
     dance-single:
     yamamoto_:
     Medium:
     6:
     0.231,0.302,0.121,0.036,0.000: // measure 1
0000
0000
0000
0000
,  // measure 2
0000
0000
0000
0000
,  // measure 3
0000
0000
0000
0000
,  // measure 4
0000
0000
0000
0000
,  // measure 5
1000
0100
1000
0010
,  // measure 6
1000
0100
0100
0000
,  // measure 7
0001
0010
0001
0100
,  // measure 8
0001
0010
0010
0000
,  // measure 9
0110
0000
0100
0000
,  // measure 10
0010
0100
0010
0000
0010
0000
0000
0000
,  // measure 11
1001
0000
0001
0000
,  // measure 12
0001
1000
0001
0000
1000
0000
0000
0000
,  // measure 13
1100
0000
0100
0000
,  // measure 14
1000
0100
1000
0000
0100
0000
0000
0000
,  // measure 15
0101
0000
0100
0000
,  // measure 16
0001
0100
0001
0000
0100
0000
0000
0000
,  // measure 17
0100
0010
1000
0001
,  // measure 18
1000
0000
0000
1000
0000
0000
1000
0000
,  // measure 19
0100
0010
0001
0000
,  // measure 20
0001
0010
0100
0000
,  // measure 21
1000
0001
0100
0010
,  // measure 22
0100
0000
0000
0100
0000
0000
0010
0000
,  // measure 23
0100
0001
0010
0000
,  // measure 24
0100
1000
0100
0000
,  // measure 25
1000
0100
0001
0100
,  // measure 26
1000
0100
0001
0010
,  // measure 27
1000
0010
0001
0010
,  // measure 28
1000
0001
1001
0000
,  // measure 29
0001
0100
0001
0010
,  // measure 30
0001
0100
0010
0000
,  // measure 31
1000
0100
0010
0000
,  // measure 32
0010
0100
0010
0000
,  // measure 33
0100
0000
0010
0000
,  // measure 34
0010
0001
0010
0000
0011
0000
0000
0000
,  // measure 35
0001
0000
1000
0000
,  // measure 36
1000
0001
1000
0000
1001
0000
0000
0000
,  // measure 37
0100
0000
0010
0000
,  // measure 38
0100
0010
0100
0000
0110
0000
0000
0000
,  // measure 39
0010
0000
1000
0000
,  // measure 40
0010
1000
0010
0000
1010
0000
0000
0000
,  // measure 41
2000
3002
0203
0320
,  // measure 42
1030
0100
0001
0010
,  // measure 43
1000
0000
0100
0000
0001
0000
0010
1000
,  // measure 44
0010
0001
0100
1000
,  // measure 45
0010
0000
0001
0000
0100
0000
1000
0100
,  // measure 46
0010
0001
0100
0001
,  // measure 47
0010
0000
0100
0000
1000
0010
1000
0000
,  // measure 48
0100
0010
0100
1000
,  // measure 49
0001
0000
1000
0000
0010
0100
0010
0000
,  // measure 50
0110
0000
0010
0000
,  // measure 51
0100
0010
0100
0000
0100
0000
0000
0000
,  // measure 52
1001
0000
1000
0000
,  // measure 53
1000
0001
1000
0000
0001
0000
0000
0000
,  // measure 54
0011
0000
0010
0000
,  // measure 55
0001
0010
0001
0000
0010
0000
0000
0000
,  // measure 56
1010
0000
0010
0000
,  // measure 57
1000
0010
1000
0000
0010
0000
0000
0000
,  // measure 58
0110
0000
0100
0000
,  // measure 59
0010
0100
0010
0000
0010
0000
0000
0000
,  // measure 60
1001
0000
0001
0000
,  // measure 61
0001
1000
0001
0000
1000
0000
0000
0000
,  // measure 62
1100
0000
0100
0000
,  // measure 63
1000
0100
1000
0000
0100
0000
0000
0000
,  // measure 64
0101
0000
0100
0000
,  // measure 65
0001
0100
0001
0000
0200
0000
0000
0000
,  // measure 66
0300
0000
0000
0000
;

//---------------dance-single - yamamoto_----------------
#NOTES:
     dance-single:
     yamamoto_:
     Hard:
     10:
     0.310,0.325,0.121,0.136,0.000: // measure 1
0000
0000
0000
0000
,  // measure 2
0000
0000
0000
0000
,  // measure 3
0000
0000
0000
0000
,  // measure 4
0000
0000
0000
0000
,  // measure 5
1000
0010
0100
0001
,  // measure 6
1000
0100
0010
0000
,  // measure 7
0001
0010
0100
1000
,  // measure 8
0010
0100
0001
0000
,  // measure 9
0100
0000
0010
0000
1000
0001
1000
0000
,  // measure 10
0001
1100
1000
0101
,  // measure 11
0100
0000
0010
0000
0100
0001
0100
0000
,  // measure 12
0001
0010
0100
0000
,  // measure 13
1000
0000
0100
0000
0010
0100
1000
0000
,  // measure 14
0010
0101
0010
1100
,  // measure 15
0100
0000
0010
0000
0001
1000
0010
0000
,  // measure 16
0100
0010
0100
0000
,  // measure 17
1001
0100
1001
0100
,  // measure 18
0010
0100
1000
0010
0000
0000
1000
0000
,  // measure 19
0100
0001
0010
1000
,  // measure 20
0001
0010
0100
1000
0010
0000
0000
0000
,  // measure 21
1010
0001
0011
1000
,  // measure 22
0100
0010
0100
1000
0000
0000
1000
0000
,  // measure 23
0010
0100
0001
0100
,  // measure 24
0001
1000
0100
0010
0001
0000
0000
0000
,  // measure 25
1010
0000
0001
1000
0100
0000
1000
0000
,  // measure 26
0001
0010
0100
1000
0010
0000
0000
0000
,  // measure 27
1010
0000
1000
0100
0010
0000
0001
0000
,  // measure 28
0010
0100
1000
0001
0100
0000
0000
0000
,  // measure 29
0110
0000
0100
0000
0010
0100
0001
0000
,  // measure 30
0001
0010
0100
1000
0010
0000
1010
0000
,  // measure 31
1000
0000
1001
0000
0001
0000
1000
0001
,  // measure 32
0000
0001
1000
0000
0010
0100
0001
0100
,  // measure 33
0020
1030
0200
0301
,  // measure 34
0020
0000
1030
0000
0100
0010
0001
0000
,  // measure 35
0020
0031
0200
1300
,  // measure 36
0020
0000
0031
0000
0100
0000
0010
1000
,  // measure 37
0002
1003
0200
0310
,  // measure 38
0002
0000
0013
0000
0100
0000
1000
1000
,  // measure 39
0010
0000
0100
0000
0001
0000
1000
0100
,  // measure 40
0000
1000
0100
0000
0010
0001
0100
0001
,  // measure 41
0000
0100
0001
0000
0100
0010
1000
0001
,  // measure 42
2000
0000
0000
0002
0000
0000
0000
0000
,  // measure 43
3003
0000
0000
0000
0001
0000
0010
0100
,  // measure 44
2000
0000
0000
3002
0000
0000
0103
0010
,  // measure 45
0100
0010
0000
0000
1000
0010
0100
0001
,  // measure 46
0020
0000
0000
0002
0000
0000
0000
0000
,  // measure 47
0033
0000
0000
0000
0001
0010
0100
0010
,  // measure 48
0001
0000
0100
0200
0000
0320
0000
2030
,  // measure 49
0000
0000
0000
3000
,  // measure 50
0010
0000
0100
0000
0001
1000
0001
0000
,  // measure 51
1000
0011
0001
1010
,  // measure 52
0010
0000
0100
0000
0010
1000
0010
0000
,  // measure 53
1000
0100
0010
0000
,  // measure 54
0001
0000
0010
0000
0100
0010
0001
0000
,  // measure 55
0100
1010
0100
0011
,  // measure 56
0010
0000
0100
0000
1000
0001
0100
0000
,  // measure 57
0010
0100
0010
0000
,  // measure 58
1000
0001
0100
0000
0001
1000
0100
0000
,  // measure 59
0010
0001
0100
1000
,  // measure 60
0010
0100
0001
0000
0001
0100
0010
0000
,  // measure 61
1000
0100
0010
0000
,  // measure 62
0010
1000
0001
0000
0010
0001
1000
0000
,  // measure 63
0100
0010
0001
1000
,  // measure 64
0100
0010
0100
0000
1000
0100
1000
0000
,  // measure 65
0001
1000
0020
0000
,  // measure 66
0030
0000
0000
0000
;
