#TITLE:Track16;
#SUBTITLE:;
#ARTIST:DJ MURASAME;
#TITLETRANSLIT:;
#SUBTITLETRANSLIT:;
#ARTISTTRANSLIT:;
#CREDIT:Chewi☆;
#BANNER:Track16.png;
#BACKGROUND:Track16-bg.png;
#LYRICSPATH:;
#CDTITLE:;
#MUSIC:Track16.mp3;
#OFFSET:-0.020;
#SAMPLESTART:24.020;
#SAMPLELENGTH:15.000;
#SELECTABLE:YES;
#BPMS:0.000=150.000,30.000=300.001,32.000=150.001,62.000=300.001,64.000=150.001,126.000=300.001,128.000=150.001;
#STOPS:30.000=0.100
,30.500=0.100
,31.000=0.100
,31.500=0.100
,62.000=0.100
,62.500=0.100
,63.000=0.100
,63.500=0.100
,126.000=0.100
,126.500=0.100
,127.000=0.100
,127.500=0.100
;
#BGCHANGES:;

//---------------dance-single - Chewi----------------
#NOTES:
     dance-single:
     Chewi:
     Easy:
     4:
     0.268,0.281,0.020,0.059,0.000: // measure 1
1001
0000
0000
0000
,  // measure 2
0000
0000
0000
0000
,  // measure 3
0000
0000
0000
0000
,  // measure 4
0000
0000
0000
0000
,  // measure 5
1000
0100
0010
0000
,  // measure 6
0001
0100
0010
0000
,  // measure 7
1000
0001
0010
0000
,  // measure 8
0001
1000
0020
0000
,  // measure 9
0130
0100
0100
0000
,  // measure 10
0010
1000
0001
0000
,  // measure 11
0010
0010
0010
0000
,  // measure 12
0001
1000
0100
0000
,  // measure 13
1000
0100
0010
0001
,  // measure 14
1000
0100
1000
0000
,  // measure 15
0001
0010
0100
1000
,  // measure 16
0001
0010
0002
0000
,  // measure 17
1003
0001
0001
0000
,  // measure 18
0001
1000
1000
0000
,  // measure 19
0010
0100
0100
0000
,  // measure 20
0100
0010
0010
0000
,  // measure 21
0010
1000
0100
0000
,  // measure 22
0010
0001
0100
0000
,  // measure 23
0001
1000
0010
0000
,  // measure 24
1000
0001
0010
0000
,  // measure 25
0001
0010
0100
1000
,  // measure 26
0001
0010
0100
0000
,  // measure 27
1000
0010
0100
0001
,  // measure 28
1000
0010
0100
0000
,  // measure 29
0001
0100
1000
0100
,  // measure 30
0001
0100
1000
0100
,  // measure 31
0001
0010
1000
0010
,  // measure 32
0001
0010
2000
0000
,  // measure 33
3000
0000
0000
0000
;

//---------------dance-single - Chewi----------------
#NOTES:
     dance-single:
     Chewi:
     Hard:
     11:
     0.533,0.529,0.176,0.000,0.391: // measure 1
1001
0000
0000
0000
,  // measure 2
0000
0000
0000
0000
,  // measure 3
0000
0000
0000
0000
,  // measure 4
0000
0000
0000
0000
,  // measure 5
1000
0000
0000
1000
0000
0000
1000
0000
0010
0000
0000
0010
0000
0000
0010
0000
,  // measure 6
0100
0000
0000
0100
0000
0000
0100
0000
0001
0000
0000
0001
0000
0000
0001
0000
,  // measure 7
1000
0000
0000
1000
0000
0000
1000
0000
0100
0000
0000
0100
0000
0000
0100
0000
,  // measure 8
0010
0000
0000
0010
0000
0000
0010
0000
0001
0000
1000
0000
0100
0000
1000
0000
,  // measure 9
0001
1000
0010
0000
1001
0000
0101
0000
,  // measure 10
0001
1000
0010
0000
1010
0000
1001
0000
,  // measure 11
1000
0100
0010
0000
0011
0000
1100
0000
,  // measure 12
0001
0100
0010
0000
1010
0000
0101
0000
,  // measure 13
0100
0010
0100
0010
1000
0001
1000
0001
,  // measure 14
0010
0100
0010
0100
1000
0001
1000
0001
,  // measure 15
1000
0100
0010
0001
1000
0100
0010
0001
,  // measure 16
1000
0100
0010
0001
1000
0001
0100
0010
,  // measure 17
1000
0000
0000
1000
0000
0000
1000
0000
0010
0000
0000
0010
0000
0000
0010
0000
,  // measure 18
0100
0000
0000
0100
0000
0000
0100
0000
0001
0000
0000
0001
0000
0000
0001
0000
,  // measure 19
1000
0000
0000
1000
0000
0000
1000
0000
0001
0000
0000
0001
0000
0000
0001
0000
,  // measure 20
0010
0000
0000
0010
0000
0000
0010
0000
0100
0000
0010
0100
0000
0010
0100
0000
,  // measure 21
0010
0000
0000
0010
0000
0000
0010
0000
0100
0000
0000
0100
0000
0000
0100
0000
,  // measure 22
1000
0000
0000
1000
0000
0000
1000
0000
0001
0000
0000
0001
0000
0000
0001
0000
,  // measure 23
1000
0000
0000
1000
0000
0000
1000
0000
0001
0000
0000
0001
0000
0000
0001
0000
,  // measure 24
0100
0000
0000
0100
0000
0000
0100
0000
0010
0000
0100
0010
0000
0100
0010
0000
,  // measure 25
1000
0000
0000
0010
0000
0000
1000
0000
0001
0000
0000
0100
0000
0000
0001
0000
,  // measure 26
1000
0000
0000
0100
0000
0000
1000
0000
0001
0000
0000
0010
0000
0000
0001
0000
,  // measure 27
0010
0000
0000
0100
0000
0000
1000
0000
0010
0000
0000
0100
0000
0000
0001
0000
,  // measure 28
1000
0000
0010
0000
0100
0000
0001
0000
1000
0000
0001
1000
0000
0001
1000
0000
,  // measure 29
0001
0000
0000
0010
0000
0000
0001
0000
1000
0000
0000
0100
0000
0000
1000
0000
,  // measure 30
0001
0000
0000
0100
0000
0000
0001
0000
1000
0000
0000
0010
0000
0000
1000
0000
,  // measure 31
0001
0000
0000
0100
0000
0000
0010
0000
1000
0000
0000
0100
0000
0000
0010
0000
,  // measure 32
0001
0000
0000
1000
0000
0000
0100
0000
0010
0000
0001
0000
1000
0000
0100
0000
;

//---------------dance-single - Chewi----------------
#NOTES:
     dance-single:
     Chewi:
     Medium:
     7:
     0.463,0.531,0.137,0.606,0.020: // measure 1
1001
0000
0000
0000
,  // measure 2
0000
0000
0000
0000
,  // measure 3
0000
0000
0000
0000
,  // measure 4
0000
0000
0000
0000
,  // measure 5
2000
0000
0000
0000
0100
0000
0000
0000
0001
0000
0000
0000
0100
3000
0000
0000
,  // measure 6
0002
0000
0000
0000
0100
0000
0000
0000
1000
0000
0000
0000
0100
0003
0000
0000
,  // measure 7
2000
0000
0000
0000
0010
0000
0000
0000
0100
0000
0000
0000
0010
3000
0000
0000
,  // measure 8
0002
0000
0000
0000
0000
0000
0000
0000
0000
0000
0000
0000
0000
0000
0000
0000
0010
0000
0000
0000
0000
0000
0000
0000
0000
0000
0000
0000
0000
0000
0000
0000
0200
0000
0000
0000
0000
0000
0000
0000
0000
0000
0000
0000
0000
0000
0000
0000
0000
0000
0000
0000
0000
0000
0000
0000
0000
0000
0000
0000
0000
0000
0000
0303
,  // measure 9
0001
1000
0100
0010
,  // measure 10
0001
1000
0100
0000
1000
0001
0100
0000
,  // measure 11
0001
1000
0010
0100
,  // measure 12
0001
1000
0010
0000
1000
0001
0010
0000
,  // measure 13
0002
0023
0230
2300
,  // measure 14
3002
0203
0320
2030
,  // measure 15
3002
2003
3200
2300
,  // measure 16
3001
0010
0100
1000
0020
0000
0000
0000
,  // measure 17
0130
0100
0010
1001
,  // measure 18
0100
0100
0010
1001
,  // measure 19
1000
0100
0010
0000
0001
0000
0011
0000
,  // measure 20
0001
0000
0010
0000
0100
0000
0000
0000
1000
0000
0000
1000
0000
0000
1000
0000
,  // measure 21
0001
0001
1000
1001
,  // measure 22
1000
1000
0001
1001
,  // measure 23
0010
1000
0100
0000
1000
0000
1100
0000
,  // measure 24
0010
0000
0001
0000
0100
0000
0000
0000
0001
0000
0000
0001
0000
0000
0001
0000
,  // measure 25
1000
0001
0010
0100
,  // measure 26
1000
0001
0010
0000
0001
1000
0010
0000
,  // measure 27
1000
0001
0100
0010
,  // measure 28
1000
0001
0100
0000
0001
1000
0100
0000
,  // measure 29
2000
3200
0320
0032
,  // measure 30
2003
3020
0230
0302
,  // measure 31
2003
3002
0023
0032
,  // measure 32
1003
0100
0010
0001
0200
0000
0000
0000
,  // measure 33
0300
0000
0000
0000
;

//---------------dance-single - Chewi----------------
#NOTES:
     dance-single:
     Chewi:
     Beginner:
     1:
     0.092,0.123,0.020,0.000,0.000: // measure 1
1001
0000
0000
0000
,  // measure 2
0000
0000
0000
0000
,  // measure 3
0000
0000
0000
0000
,  // measure 4
0000
0000
0000
0000
,  // measure 5
1000
0000
0000
0000
,  // measure 6
0001
0000
0000
0000
,  // measure 7
1000
0000
0000
0000
,  // measure 8
0001
0000
0001
0000
,  // measure 9
0100
0000
0000
0000
,  // measure 10
0010
0000
0000
0000
,  // measure 11
0010
0000
0000
0000
,  // measure 12
0001
0000
0000
0000
,  // measure 13
1000
0000
0000
0000
,  // measure 14
1000
0000
0000
0000
,  // measure 15
0001
0000
0000
0000
,  // measure 16
0001
0000
0001
0000
,  // measure 17
1000
0000
0000
0000
,  // measure 18
0001
0000
0000
0000
,  // measure 19
0010
0000
0000
0000
,  // measure 20
0100
0000
0000
0000
,  // measure 21
0010
0000
0000
0000
,  // measure 22
0010
0000
0000
0000
,  // measure 23
0001
0000
0000
0000
,  // measure 24
1000
0000
0000
0000
,  // measure 25
0001
0000
0000
0000
,  // measure 26
0001
0000
0000
0000
,  // measure 27
1000
0000
0000
0000
,  // measure 28
1000
0000
0000
0000
,  // measure 29
0001
0000
0000
0000
,  // measure 30
0001
0000
0000
0000
,  // measure 31
0001
0000
0000
0000
,  // measure 32
0001
0000
0001
0000
;
