#TITLE:Tootsee Roll;
#SUBTITLE:;
#ARTIST:The Block Brothers & Hollywood J;
#TITLETRANSLIT:;
#SUBTITLETRANSLIT:;
#ARTISTTRANSLIT:;
#GENRE:;
#CREDIT:;
#MENUCOLOR:;
#METERTYPE:DDR;
#BANNER:Tootsee Roll.png;
#BACKGROUND:Tootsee Roll-bg.png;
#LYRICSPATH:;
#CDTITLE:./CDTITLES/DanceDanceRevolution HOTTEST PARTY 2.png;
#MUSIC:Tootsee Roll.mp3;
#OFFSET:1.495;
#SAMPLESTART:14.703;
#SAMPLELENGTH:15.000;
#SELECTABLE:YES;
#LISTSORT:;
#BPMS:0.000=133.110;
#STOPS:;
#BGCHANGES:;
#ATTACKS:;

//---------------dance-single - Chewi----------------
#NOTES:
     dance-single:
     Chewi:
     Beginner:
     1:
     0.124,0.164,0.022,0.109,0.000:
0000
0000
0000
0000
,
0000
0000
0000
0000
,
0000
0000
0000
0000
,
0000
0000
0000
0000
,
0000
0000
0000
0000
,
0000
0000
0000
0000
,
0000
0000
0000
0000
,
1001
0000
0000
0000
,
0100
0100
0100
0000
,
0020
0000
0000
0030
,
0010
0000
0000
0000
,
2000
0000
0000
3000
,
1000
0000
0000
0000
,
0002
0000
0000
0003
,
0001
0000
0000
0000
,
0200
0000
0000
0300
,
0100
0000
0000
0000
,
1000
0000
1000
0000
,
0001
0000
0001
0000
,
0010
0000
0010
0000
,
0100
0000
0100
0000
,
0200
0000
0000
0300
,
0100
0000
0000
0000
,
0020
0000
0000
0030
,
0010
0000
0000
0000
,
1000
0000
1000
0000
,
0001
0000
0001
0000
,
0010
0000
0010
0000
,
0100
0000
0100
0000
,
2000
0000
0000
3000
,
1000
0000
0000
0000
,
0002
0000
0000
0003
,
0001
0000
0000
0000
,
1001
0000
0000
0000
,
0100
0100
0100
0000
,
0010
0000
0001
0000
,
0010
0000
0001
0000
,
0010
0000
1000
0000
,
0010
0000
1000
0000
,
0001
0000
1000
0000
,
0001
0000
1000
0000
,
1000
0000
0001
0000
,
1000
0000
0001
0000
,
0200
0000
0000
0300
,
0100
0000
0000
0000
,
0020
0000
0000
0030
,
0010
0000
0000
0000
,
1000
0000
0100
0000
,
0010
0000
0001
0000
,
0001
0000
0100
0000
,
0010
0000
1000
0000
;

//---------------dance-single - Chewi----------------
#NOTES:
     dance-single:
     Chewi:
     Easy:
     4:
     0.261,0.332,0.174,0.326,0.000:
0000
0000
0000
0000
,
0000
0000
0000
0000
,
0000
0000
0000
0000
,
0000
0000
0000
0000
,
0000
0000
0000
0000
,
0000
0000
0000
0000
,
0000
0000
0000
0000
,
1000
0001
1000
0001
,
0200
0320
0230
0320
,
0130
0000
0010
0000
,
1000
0100
0010
0001
,
0010
0000
0100
0000
,
0001
0010
0100
1000
,
0001
0000
1000
0000
,
1000
0010
0100
0001
,
0100
0000
0010
0000
,
0100
0010
1000
0001
,
1000
0000
1000
0000
,
0001
0000
0001
0000
,
0010
0000
0010
0000
,
0100
0000
0100
0000
,
1001
0100
1001
0000
,
1001
0010
1001
0000
,
0110
1000
0110
0000
,
0110
0001
0110
0000
,
2000
3000
2000
3000
,
0002
0003
0002
0003
,
0020
0030
0020
0030
,
0200
0300
0200
0300
,
0220
0000
0300
0030
,
0220
0000
0030
0300
,
2002
0000
3000
0003
,
2002
0000
0003
3000
,
0001
0010
0100
1000
,
0001
1000
0001
1000
,
1001
0000
0100
0000
,
0010
0001
0100
1000
,
1001
0000
1000
0000
,
1000
0100
0001
0010
,
0110
0000
0010
0000
,
0100
0001
0010
1000
,
0110
0000
0100
0000
,
0100
1000
0010
0001
,
2000
0100
0000
3100
,
0002
0100
0000
0103
,
0020
0001
0000
0031
,
0020
1000
0000
1030
,
2000
0001
0000
3001
,
0020
0100
0000
0130
,
0100
0010
0100
0010
,
2000
3200
2300
3002
,
0003
0000
0000
0000
;

//---------------dance-single - Chewi----------------
#NOTES:
     dance-single:
     Chewi:
     Medium:
     6:
     0.318,0.413,0.130,0.217,0.011:
0000
0000
0000
0000
,
0000
0000
0000
0000
,
0000
0000
0000
0000
,
0000
0000
0000
0000
,
0000
0000
0000
0000
,
0000
0000
0000
0000
,
0000
0000
0000
0000
,
2000
3010
0002
0013
,
0100
0100
0100
0000
0010
0010
0010
0000
,
0011
0000
0100
0000
,
1010
0000
0100
0000
,
1001
0000
0010
0000
,
1001
0000
0100
0000
,
2000
0000
3100
0000
0010
0100
0010
0000
,
0002
0000
0103
0000
0100
0010
0100
0000
,
0010
1000
0001
0010
,
0100
0000
0000
0100
0000
0000
0100
0000
0000
0100
0000
0000
0100
0000
0000
0000
,
1000
0100
1000
0100
,
0001
0100
0001
0100
,
0001
0010
0001
0010
,
0100
0010
0100
0010
,
2000
0000
0100
3010
,
0002
0000
0100
0013
,
2000
0000
0010
3100
,
0002
0000
0010
0103
,
1000
0100
1000
0100
,
0001
0010
0001
0010
,
1000
0010
1000
0010
,
1000
0100
1000
0100
,
2000
0001
0020
3030
,
0002
1000
0200
0303
,
0200
0010
0002
0303
,
0020
0100
2000
3030
,
1000
0000
1000
0000
0001
1000
0001
0000
,
0001
0000
0001
0000
1000
0001
1000
0000
,
0101
1000
0100
0001
,
1000
0010
0100
0001
,
1010
0001
0010
1000
,
0100
0010
0001
1000
,
0101
1000
0010
0100
,
0001
0010
0100
1000
,
1010
1000
0100
0010
,
0001
0001
1000
1000
,
0010
0101
0010
1100
,
0100
0100
0100
0000
0010
0010
0010
0000
,
0001
1000
0010
0100
,
0001
0010
0100
1000
,
0010
1001
0100
1001
,
1000
1000
1000
0000
0001
0001
0001
0000
,
2000
3200
0320
0032
,
1003
1000
1000
0000
0001
0001
0001
0000
;

//---------------dance-single - Chewi----------------
#NOTES:
     dance-single:
     Chewi:
     Hard:
     7:
     0.374,0.441,0.293,0.239,0.011:
0000
0000
0000
0000
,
0000
0000
0000
0000
,
0000
0000
0000
0000
,
0000
0000
0000
0000
,
0000
0000
0000
0000
,
0000
0000
0000
0000
,
0000
0000
0000
0000
,
1000
0010
1000
0000
0001
0010
0001
0000
,
1000
1100
0101
0001
,
0202
0000
0303
0000
0100
0100
0100
0000
,
0010
1000
0001
0010
,
0022
0000
0033
0000
0010
0010
0010
0000
,
0001
0010
0100
1000
,
2002
0000
3003
0000
1000
1000
1000
0000
,
0001
1000
0010
0100
,
0220
0000
0330
0000
0010
0010
0010
0000
,
0110
0000
0000
0110
0000
0000
0110
0000
0000
0110
0000
0000
0110
0000
1000
0000
,
1000
0000
0000
1000
1000
0000
0000
0001
,
0001
0000
0000
0001
0001
0000
0000
0010
,
0010
0000
0000
0010
0010
0000
0000
0100
,
0100
0000
0000
0100
0100
0000
0000
0000
,
2100
0010
0001
3100
,
0102
0010
1000
0103
,
2001
0100
0010
3001
,
1002
0000
0100
0000
0010
0000
1003
1000
,
1000
0000
0000
1000
1000
0000
0000
0001
,
0001
0000
0000
0001
0001
0000
0000
0010
,
0010
0000
0000
0010
0010
0000
0000
0100
,
0100
0000
0000
0100
0100
0000
0000
0000
,
0012
0100
0200
0303
,
2010
0100
0200
3300
,
1200
0001
2000
3300
,
0201
1000
0002
0303
,
0010
0000
0100
0000
0010
0100
0010
0000
,
0100
0000
0010
0000
0100
0010
0100
0000
,
2000
0000
3100
0000
0001
0010
0001
0000
,
0100
0010
1000
0001
,
0002
0000
0103
0000
1000
0010
1000
0000
,
0010
1000
0100
0001
,
0010
0100
0010
0000
0001
0000
0101
0000
,
0100
0010
0100
0000
1000
0000
1010
0000
,
0001
1000
0100
0000
1000
0000
1100
0000
,
1000
0001
0100
0000
0001
0000
0101
0000
,
0010
0010
1000
0000
0010
0000
0100
0000
,
0010
0010
0001
0000
0100
0000
0001
0000
,
0100
0100
0010
0000
0001
0000
1000
0000
,
0010
0010
0100
0000
0001
0000
1000
0000
,
0001
0010
0100
0000
1000
0000
1100
0000
,
0001
0100
0010
0000
1000
0000
1010
0000
,
1001
0100
1001
0010
,
0100
0010
0100
0001
0100
0010
0100
0000
;

//---------------dance-double - Chewi----------------
#NOTES:
     dance-double:
     Chewi:
     Easy:
     4:
     0.267,0.303,0.119,0.174,0.000:
00000000
00000000
00000000
00000000
,
00000000
00000000
00000000
00000000
,
00000000
00000000
00000000
00000000
,
00000000
00000000
00000000
00000000
,
00000000
00000000
00000000
00000000
,
00000000
00000000
00000000
00000000
,
00000000
00000000
00000000
00000000
,
10000000
00100000
01000000
00000000
,
00010000
00010000
00001000
00001000
,
00001001
00000000
00000100
00000000
,
00000010
00001000
00000001
00000010
,
00000110
00000001
00001000
00000001
,
00000100
00000010
00000001
00000100
,
00000010
00001000
00010000
00001000
,
00010000
01000000
10000000
00100000
,
01000000
00010000
00100000
01000000
,
00100000
00010000
00001000
00000100
,
00001000
00000000
00001000
00000000
,
00010000
00000000
00010000
00000000
,
00100000
00000000
00100000
00000000
,
01000000
00000000
01000000
00000000
,
20020000
00000000
00030000
30000000
,
02200000
00000000
00300000
03000000
,
00010000
00011000
00001000
00000000
,
00010000
10010000
10000000
00000000
,
20000000
30000000
20000000
30000000
,
00020000
00030000
00020000
00030000
,
00002000
00003000
00002000
00003000
,
00000020
00000030
00000020
00000030
,
00000100
00000100
00000200
00000300
,
00000010
00000010
00000020
00000030
,
00001000
00000001
00000020
00000030
,
00000001
00001000
00000200
00000300
,
00000100
00001000
00010000
00001000
,
00010000
01000000
10000000
00100000
,
01000000
00100000
10000000
00010000
,
00100000
01000000
10000000
00010000
,
10000000
01000000
00010000
01000000
,
10000000
00100000
00010000
00100000
,
01000000
00100000
00010000
00001000
,
00000100
00001000
00000010
00000001
,
00000100
00000100
00000010
00000010
,
00000001
00000010
00000100
00001000
,
00000010
00000100
00000010
00001001
,
00001000
00000100
00010000
00011000
,
00001000
00010000
01000000
10000000
,
10000000
01000000
00010000
00100000
,
01000000
00100000
00010000
01100000
,
01000000
00010000
00100000
00011000
,
00010000
00001000
00000010
00000110
,
00000001
00000100
00001000
00000010
;

//---------------dance-double - Chewi----------------
#NOTES:
     dance-double:
     Chewi:
     Medium:
     5:
     0.284,0.277,0.076,0.087,0.011:
00000000
00000000
00000000
00000000
,
00000000
00000000
00000000
00000000
,
00000000
00000000
00000000
00000000
,
00000000
00000000
00000000
00000000
,
00000000
00000000
00000000
00000000
,
00000000
00000000
00000000
00000000
,
00000000
00000000
00000000
00000000
,
00010000
00001000
00011000
00010000
,
01000000
10000000
00010000
10010000
,
00110000
00000000
00100000
00010000
,
00001000
00000000
00000010
00000100
,
00000001
00000000
00000100
00000010
,
00001000
00001000
00000001
00000001
,
00000010
00000100
00001000
00000000
,
00000010
00001000
00010000
01000000
,
00100000
01000000
00010000
00000000
,
10000000
00000000
00000000
10000000
00000000
00000000
10000000
00000000
00000000
10000000
00000000
00000000
10000000
00000000
00000000
00000000
,
10000000
01000000
10000000
01000000
,
00010000
00100000
00010000
00100000
,
00001000
00010000
00001000
00010000
,
00001000
00000010
00001000
00000010
,
00000200
00000000
00000301
00000010
,
00000200
00000000
00001300
00000010
,
00002000
00000000
00013000
00001000
,
00200000
00000000
00310000
01000000
,
00010000
01000000
10000000
01000000
,
00010000
00010000
00100000
00100000
,
00100000
00001000
00010000
00000100
,
00001000
00001000
00000001
00000001
,
00001001
00000100
00000010
00000000
,
00000110
00000001
00001000
00000000
,
00000110
00000001
00001000
00000000
,
00001001
00000100
00000010
00000000
,
00000010
00000010
00001000
00001000
,
00000100
00010000
00001000
00100000
,
00010000
01000000
00100000
10000000
,
00010000
10000000
01000000
00100000
,
00010000
10000000
00100000
01000000
,
00010000
00100000
00001000
00010000
,
00000100
00001000
00000010
00000100
,
00000001
00000010
00001000
00000100
,
00000010
00000100
00001000
00000010
,
00000010
00001000
00010000
01000000
,
00100000
01000000
00100000
00000000
10000000
00000000
10000000
00000000
,
00010000
00100000
00010000
00000000
00100000
00000000
00100000
00000000
,
01000000
00100000
00010000
00001000
,
00000100
00000001
00000010
00001000
,
00000010
00000000
00000100
00000000
00001000
00000010
00001000
00000000
,
00001000
00000000
00000100
00000000
00010000
00000100
00010000
00000000
,
00001000
00010000
01000000
10000000
,
00020000
20030000
30200000
02300000
,
03000000
00000000
00000000
00000000
;

//---------------dance-double - Chewi----------------
#NOTES:
     dance-double:
     Chewi:
     Hard:
     7:
     0.380,0.441,0.119,0.000,0.011:
00000000
00000000
00000000
00000000
,
00000000
00000000
00000000
00000000
,
00000000
00000000
00000000
00000000
,
00000000
00000000
00000000
00000000
,
00000000
00000000
00000000
00000000
,
00000000
00000000
00000000
00000000
,
00000000
00000000
00000000
00000000
,
00010000
01000000
00010000
00000000
00010000
00100000
00010000
00000000
,
00100000
00010000
00001000
00000100
00001000
00000010
00000100
00000000
,
00000101
00000000
00000100
00000000
00000010
00000010
00000010
00000000
,
00001000
00000001
00000010
00000100
,
00001100
00000000
00000100
00000000
00000100
00000100
00000100
00000000
,
00000100
00010000
00001000
00100000
00010000
01000000
00100000
00000000
,
01010000
00000000
00100000
00000000
01000000
01000000
01000000
00000000
,
00100000
00010000
01000000
00010000
00100000
01000000
00100000
00000000
,
00110000
00000000
01000000
00000000
00010000
00100000
00001000
00000000
,
00010000
00000000
00000000
00001000
00000000
00000000
00000010
00000000
00000000
00001000
00000000
00000000
00000001
00000000
00000000
00000000
,
00000100
00000100
00000000
00001000
00001000
00000000
00000000
00000010
,
00000010
00000000
00000000
00001000
00001000
00000000
00000000
00000100
,
00010000
00000000
00000000
00001000
00010000
00000000
00000000
00001000
,
00100000
00000000
00000000
00010000
00100000
00000000
00000000
00000000
,
11000000
00000000
00000000
00000000
00010000
00100000
01000000
00000000
,
10100000
00000000
00000000
00000000
01000000
00010000
00100000
00000000
,
00101000
00000000
00000000
00000000
00010000
00001000
00000010
00000000
,
00001010
00000000
00000000
00000000
00001000
00000010
00000100
00000001
,
00000001
00000000
00000000
00001000
00001000
00000000
00000000
00000100
,
00000100
00000000
00000000
00010000
00010000
00000000
00000000
00001000
,
00010000
00000000
00000000
00100000
10000000
00000000
00000000
10000000
,
01000000
00000000
00000000
00010000
00100000
00000000
00000000
00000000
,
01000000
00000000
00100000
10000000
00010000
00000000
00100000
00000000
,
01000000
00000000
00100000
00010000
10000000
00000000
00100000
00000000
,
01000000
00000000
00010000
00100000
00001000
00000000
00010000
00000000
,
00000100
00000000
00001000
00000001
00000100
00000000
00000010
00000000
,
00001000
00000010
00001000
00000010
00000001
00000010
00000001
00000010
,
00001000
00000100
00000010
00000001
00001000
00000100
00001000
00000000
,
00000100
00000000
00010000
00000000
00001000
00010000
00001000
00000000
,
00010000
00000000
00001000
00000000
00100000
00010000
01000000
00000000
,
00100000
00000000
10000000
00000000
00010000
10000000
00100000
00000000
,
01000000
00000000
00010000
00000000
00100000
01000000
10000000
00000000
,
00100000
10000000
01000000
00000000
00100000
00000000
00110000
00000000
,
00100000
00010000
01000000
00000000
00010000
00000000
01010000
00000000
,
10000000
01000000
00100000
00010000
00100000
00000000
01000000
00000000
,
01000000
00100000
00010000
00001000
00000100
00001000
00000010
00000000
,
00000100
00000001
00000100
00000001
00000010
00000001
00000010
00000001
,
00000010
00000100
00000010
00000100
00000010
00000001
00000010
00000001
,
00000100
00000010
00001000
00000000
00000001
00000000
00001100
00000000
,
00000001
00001000
00000100
00000000
00010000
00000000
00001000
00000000
,
00100000
00001000
00010000
00000000
01000000
00010000
00100000
00000000
,
01000000
10000000
00100000
00000000
01000000
01000000
01000000
00000000
,
00010000
01000000
00100000
10000000
00010000
00010000
10000000
00000000
,
00100000
01000000
00010000
10000000
00100000
00100000
00100000
00000000
;
