#TITLE:Too Little Too Late;
#SUBTITLE:;
#ARTIST:JoJo;
#TITLETRANSLIT:;
#SUBTITLETRANSLIT:;
#ARTISTTRANSLIT:;
#GENRE:Pop;
#CREDIT:chewi;
#BANNER:Too Little Too Late.png;
#BACKGROUND:Too Little Too Late-bg.png;
#LYRICSPATH:;
#CDTITLE:cdtitle.png;
#MUSIC:Too Little Too Late.ogg;
#OFFSET:-0.338000;
#SAMPLESTART:46.590000;
#SAMPLELENGTH:15.000000;
#SELECTABLE:YES;
#BPMS:0.000000=83.000000
;
#STOPS:
;
#BGCHANGES:-0.676=Too Little Too Late.avi=1.000=1=0=0=StretchNoLoop==CrossFade==,
99999=-nosongbg-=1.000=0=0=0 // don't automatically add -songbackground-
;
#KEYSOUNDS:;
#ATTACKS:;

//---------------dance-single - ----------------
#NOTES:
     dance-single:
     :
     Beginner:
     1:
     0.045539,0.063755,0.034155,0.000000,0.000000,25.000000,3.000000,0.000000,0.000000,0.000000,0.000000,0.045539,0.063755,0.034155,0.000000,0.000000,25.000000,3.000000,0.000000,0.000000,0.000000,0.000000:
0000
0000
0000
0000
,
0000
0000
0000
0000
,
0000
0000
0000
0000
,
0000
0000
0000
0000
,
1000
0000
0000
0000
,
1000
0000
0000
0000
,
0001
0000
0000
0000
,
0001
0000
0000
0000
,
0010
0000
0000
0000
,
0010
0000
0000
0000
,
0100
0000
0000
0000
,
0100
0000
0000
0000
,
1001
0000
0000
0000
,
1000
0000
0000
0000
,
0001
0000
0000
0000
,
1000
0000
0000
0000
,
1001
0000
0000
0000
,
0100
0000
0000
0000
,
0010
0000
0000
0000
,
0100
0000
0000
0000
,
0110
0000
0000
0000
,
0100
0000
0000
0000
,
0010
0000
0000
0000
,
1000
0000
0000
0000
,
0001
0000
0000
0000
,
0001
0000
0000
0000
,
1000
0000
0000
0000
,
1000
0000
0000
0000
,
0010
0000
0000
0000
;

//---------------dance-single - ----------------
#NOTES:
     dance-single:
     :
     Easy:
     3:
     0.082947,0.111572,0.045539,0.068309,0.000000,41.000000,4.000000,6.000000,0.000000,0.000000,0.000000,0.082947,0.111572,0.045539,0.068309,0.000000,41.000000,4.000000,6.000000,0.000000,0.000000,0.000000:
0000
0000
0000
0000
,
0000
0000
0000
0000
,
0000
0000
0000
0000
,
0000
0000
0000
0000
,
1000
0000
1000
0000
,
2000
0000
0000
3000
,
0010
0000
0010
0000
,
0020
0000
0000
0030
,
0100
0000
0100
0000
,
0200
0000
0000
0300
,
0001
0000
0001
0000
,
0002
0000
0000
0003
,
0001
0000
1000
0000
,
0001
0000
0001
0000
,
1000
0000
0001
0000
,
1000
0000
1000
0000
,
1001
0000
0000
0000
,
0100
0100
0100
0000
,
0110
0000
0000
0000
,
0010
0000
0000
0000
,
0110
0000
0000
0000
,
1000
1000
1000
0000
,
1001
0000
0000
0000
,
0001
0000
0000
0000
,
0020
0000
0000
0030
,
0010
0010
0010
0000
,
0200
0000
0000
0300
,
0100
0100
0100
0000
,
0100
0000
0000
0000
;

//---------------dance-single - ----------------
#NOTES:
     dance-single:
     :
     Medium:
     6:
     0.157762,0.191266,0.079694,0.000000,0.000000,90.000000,7.000000,0.000000,0.000000,0.000000,0.000000,0.157762,0.191266,0.079694,0.000000,0.000000,90.000000,7.000000,0.000000,0.000000,0.000000,0.000000:
0000
0000
0000
0000
,
0000
0000
0000
0000
,
0000
0000
0000
0000
,
0000
0000
0000
0000
,
1000
0100
0001
0010
,
1000
0100
1000
0100
,
1000
0010
0001
0100
,
1000
0010
1000
0010
,
1000
0000
1100
0000
1000
1000
1000
0000
,
0001
0100
0010
0100
,
0001
0000
0101
0000
0100
0100
0100
0000
,
0100
0010
1000
0001
,
1000
0000
0000
0001
0000
1000
0001
0000
,
1000
0100
0010
0001
,
1000
0000
0000
0001
0000
1000
0001
0000
,
1000
0010
0100
0001
,
0101
0000
0100
0000
,
0010
0000
0010
0010
,
1010
0000
1000
0000
,
1000
0100
0010
0001
,
1001
0000
0001
0000
,
1000
0001
0100
0010
,
0110
0000
1000
0000
,
0001
1000
0001
0010
,
0110
0000
0000
0100
0100
0000
0000
0010
,
0010
0000
0000
0001
0001
0000
1000
0000
,
0010
0000
0000
0010
0010
0000
0000
0100
,
0100
0000
0000
0100
0100
0000
0001
0000
,
0100
0000
0000
0000
;

//---------------dance-single - ----------------
#NOTES:
     dance-single:
     :
     Hard:
     11:
     0.463526,0.510041,0.159388,0.011385,0.631859,270.000000,14.000000,1.000000,0.000000,0.000000,0.000000,0.463526,0.510041,0.159388,0.011385,0.631859,270.000000,14.000000,1.000000,0.000000,0.000000,0.000000:
// measure 0
0000
0000
0000
0000
,  // measure 1
0000
0000
0000
0000
,  // measure 2
0000
0000
0000
0000
,  // measure 3
0000
0000
0000
0000
,  // measure 4
0000
0000
1000
0100
0000
0100
1000
0000
0001
0000
0100
0001
0000
0001
0100
0000
,  // measure 5
0010
0000
1000
0001
0000
0001
1000
0100
0010
0100
1000
0000
0001
0010
0100
0000
,  // measure 6
0010
0000
0001
0010
0000
0010
0001
0000
1000
0000
0100
1000
0000
1000
0100
0000
,  // measure 7
1000
0000
0001
0000
1000
0000
0001
0100
0000
0010
1000
0001
0100
0010
1000
0001
,  // measure 8
1000
0000
0001
1000
0000
1000
0100
0000
0010
0000
0001
1000
0000
1000
0001
0000
,  // measure 9
0100
0000
0010
1000
0000
1000
0010
0100
0001
0010
0100
0000
1000
0100
0010
0000
,  // measure 10
0001
0000
0010
0100
0000
0100
1000
0000
0001
0000
1000
0010
0000
0010
0100
0000
,  // measure 11
0001
0000
0100
0010
0000
0010
1000
0001
0010
0100
1000
0001
0010
0100
1000
0001
,  // measure 12
1001
0000
1000
1000
0000
0100
0100
0000
0000
0000
1000
0000
1100
0000
0000
0000
,  // measure 13
0001
0100
0001
0100
0001
0000
0000
0100
0010
0100
0010
0100
0010
0000
0000
0010
,  // measure 14
0010
0000
1000
1000
0000
0001
0001
0000
0000
0000
1000
0000
1100
0000
0000
0000
,  // measure 15
1000
0000
0100
0010
0000
0001
0000
2000
0000
0000
0001
0000
3001
1000
0001
1000
,  // measure 16
1001
0000
0010
0000
0100
0000
0100
1000
0010
1000
0100
0000
1001
0000
0100
0010
,  // measure 17
0100
0001
0010
0000
0011
0000
0001
0010
0100
1000
0100
1000
1100
0000
1000
0001
,  // measure 18
0100
0000
0010
0000
0110
0000
0100
0010
1000
0001
1000
0000
1001
0000
1000
0100
,  // measure 19
0010
0100
1000
0001
0010
0100
0010
0001
1000
0010
1000
0010
1000
0100
1000
0100
,  // measure 20
1000
0001
0100
0000
0110
0000
0100
0010
1000
0001
1000
0000
1001
0000
1000
0100
,  // measure 21
0010
0100
1000
0000
1001
0000
1000
0100
0010
0001
0100
0000
0101
0000
0001
0100
,  // measure 22
0010
0100
0001
1000
0010
0000
1000
0000
0100
1000
0010
1000
0100
0000
1000
0001
,  // measure 23
1000
0001
1000
0001
0010
0001
0010
0001
0010
0100
1000
0001
0010
0100
1000
0001
,  // measure 24
1000
0100
0010
0100
0000
0000
0000
0000
0010
0100
0010
0100
0000
0000
0000
0000
,  // measure 25
0010
0001
0100
0001
0000
0000
0010
0100
1000
0001
0100
0000
0010
1000
0100
0000
,  // measure 26
0010
0100
1000
0100
0000
0000
0000
0000
0100
0010
0001
1000
0000
0000
0000
0000
,  // measure 27
0100
0010
0100
0001
0000
0000
0100
0000
1000
0001
0100
0010
1000
0001
0010
0000
,  // measure 28
0110
0000
0000
0000
;
