#TITLE:Tonight;
#SUBTITLE:;
#ARTIST:★STAR GUiTAR feat. CICO;
#TITLETRANSLIT:;
#SUBTITLETRANSLIT:;
#ARTISTTRANSLIT:STAR GUITAR feat. CICO;
#GENRE:;
#CREDIT:yamamoto_;
#MENUCOLOR:;
#METERTYPE:DDR X;
#BANNER:Tonight.png;
#BACKGROUND:Tonight-bg.png;
#LYRICSPATH:;
#CDTITLE:;
#MUSIC:Tonight.mp3;
#OFFSET:-0.432;
#SAMPLESTART:46.158;
#SAMPLELENGTH:15.000;
#SELECTABLE:YES;
#LISTSORT:;
#DISPLAYBPM:124.000;
#BPMS:0.000=124.000;
#STOPS:;
#BGCHANGES:;
#ATTACKS:;

//---------------dance-single - yamamoto_----------------
#NOTES:
     dance-single:
     yamamoto_:
     Medium:
     7:
     0.270,0.303,0.061,0.101,0.000: // measure 1
0000
0000
0000
0000
,  // measure 2
0000
0000
0000
0000
,  // measure 3
0000
0000
0000
0000
,  // measure 4
0000
0000
0000
0000
,  // measure 5
0010
0010
0010
0000
,  // measure 6
0100
0100
0100
0000
,  // measure 7
1000
1000
1000
0000
,  // measure 8
0001
1001
1000
0000
,  // measure 9
0010
0001
0100
0001
,  // measure 10
0010
1000
0100
1000
,  // measure 11
0010
1000
0001
0100
,  // measure 12
0010
1000
0001
0100
,  // measure 13
0100
1000
0010
1000
,  // measure 14
0100
0001
0010
0001
,  // measure 15
0010
0001
1000
0100
,  // measure 16
0010
0001
1000
0100
,  // measure 17
0100
0000
0000
0100
1000
0000
0000
0000
,  // measure 18
0010
0000
0000
0010
1000
0000
0000
0000
,  // measure 19
0001
0000
0000
1000
0001
0000
0000
0000
,  // measure 20
0001
0000
0000
0001
1000
0000
0000
0000
,  // measure 21
0001
0100
1000
0010
,  // measure 22
0001
0010
1000
0100
,  // measure 23
0001
1000
0010
0000
,  // measure 24
0001
1000
0100
0000
,  // measure 25
0021
1000
0100
1030
,  // measure 26
0100
1000
0001
0010
,  // measure 27
0012
1000
0010
1003
,  // measure 28
0010
1000
0001
0100
,  // measure 29
0102
0100
1000
0103
,  // measure 30
0100
1000
0001
0010
,  // measure 31
2010
0100
0010
3100
,  // measure 32
0010
0001
1000
0100
,  // measure 33
1000
1000
1000
0000
0001
0001
0001
0000
,  // measure 34
0010
0100
0001
1000
,  // measure 35
0001
0001
0001
0000
1000
1000
1000
0000
,  // measure 36
1000
0001
0100
0010
,  // measure 37
0100
1000
0001
0100
,  // measure 38
1000
0010
0001
1000
,  // measure 39
0010
1000
0100
1000
,  // measure 40
0001
1000
0001
1000
,  // measure 41
0020
0001
1000
0031
,  // measure 42
1000
0001
0100
1000
,  // measure 43
0200
1000
0001
1300
,  // measure 44
0001
1000
0100
0010
,  // measure 45
2000
0100
0010
3100
,  // measure 46
0100
0001
0010
1000
,  // measure 47
0002
0100
1000
0013
,  // measure 48
0010
1000
0100
0001
,  // measure 49
2002
0000
0000
0000
,  // measure 50
0000
0000
0000
0000
,  // measure 51
3003
0000
0000
0000
;

//---------------dance-single - yamamoto_----------------
#NOTES:
     dance-single:
     yamamoto_:
     Easy:
     4:
     0.168,0.202,0.040,0.111,0.000: // measure 1
0000
0000
0000
0000
,  // measure 2
0000
0000
0000
0000
,  // measure 3
0000
0000
0000
0000
,  // measure 4
0000
0000
0000
0000
,  // measure 5
1000
1000
0000
0000
,  // measure 6
0001
0001
0000
0000
,  // measure 7
0100
0100
0000
0000
,  // measure 8
0010
0010
0000
0000
,  // measure 9
2000
0000
0000
3000
,  // measure 10
1000
1000
1000
0000
,  // measure 11
0002
0000
0000
0003
,  // measure 12
0001
0001
0001
0000
,  // measure 13
0100
0000
0100
0000
,  // measure 14
0100
0010
0100
0000
,  // measure 15
0010
0000
0010
0000
,  // measure 16
0010
0100
0010
0000
,  // measure 17
0001
0000
0100
0000
,  // measure 18
0010
0000
0001
0000
,  // measure 19
1000
0000
0001
0000
,  // measure 20
1000
0000
1001
0000
,  // measure 21
1000
1000
0100
0000
,  // measure 22
0010
0000
1000
0000
,  // measure 23
0001
0001
1000
0000
,  // measure 24
0001
0000
1001
0000
,  // measure 25
0020
0000
0000
0030
,  // measure 26
0100
0010
0100
0000
,  // measure 27
0200
0000
0000
0300
,  // measure 28
0010
0100
0001
0000
,  // measure 29
0002
0000
0000
0003
,  // measure 30
0001
1000
0001
0000
,  // measure 31
2000
0000
0000
3000
,  // measure 32
0001
1000
0001
0000
,  // measure 33
1000
0100
0001
0010
,  // measure 34
0000
0000
0000
0000
,  // measure 35
0001
0100
1000
0010
,  // measure 36
0000
0000
0000
0000
,  // measure 37
0100
0100
0100
0000
,  // measure 38
0010
0100
0010
0000
,  // measure 39
0010
0010
0010
0000
,  // measure 40
0100
0010
0100
0000
,  // measure 41
2002
0000
0000
3003
,  // measure 42
1000
1000
1000
0000
,  // measure 43
0001
1000
0001
0000
,  // measure 44
1000
0001
1000
0000
,  // measure 45
2002
0000
0000
3003
,  // measure 46
0001
0001
0001
0000
,  // measure 47
1000
0001
1000
0000
,  // measure 48
0001
1000
0001
0000
,  // measure 49
0020
0000
0000
0000
,  // measure 50
0000
0000
0000
0000
,  // measure 51
0030
0000
0000
0000
;

//---------------dance-single - yamamoto_----------------
#NOTES:
     dance-single:
     yamamoto_:
     Beginner:
     2:
     0.078,0.097,0.030,0.061,0.000: // measure 1
0000
0000
0000
0000
,  // measure 2
0000
0000
0000
0000
,  // measure 3
0000
0000
0000
0000
,  // measure 4
0000
0000
0000
0000
,  // measure 5
2000
0000
0000
3000
,  // measure 6
1000
0000
0000
0000
,  // measure 7
0002
0000
0000
0003
,  // measure 8
0001
0000
0000
0000
,  // measure 9
1000
0000
0000
0000
,  // measure 10
0001
0000
0000
0000
,  // measure 11
0010
0000
0000
0000
,  // measure 12
0010
0000
0000
0000
,  // measure 13
0001
0000
0000
0000
,  // measure 14
1000
0000
0000
0000
,  // measure 15
0010
0000
0000
0000
,  // measure 16
0010
0000
0000
0000
,  // measure 17
1000
0000
0000
0000
,  // measure 18
0010
0000
0000
0000
,  // measure 19
0001
0000
0000
0000
,  // measure 20
0010
0000
0000
0000
,  // measure 21
1000
0000
0000
0000
,  // measure 22
0100
0000
0000
0000
,  // measure 23
0001
0000
0000
0000
,  // measure 24
0100
0000
0000
0000
,  // measure 25
2000
0000
0000
3000
,  // measure 26
1000
0000
0000
0000
,  // measure 27
0002
0000
0000
0003
,  // measure 28
0001
0000
0000
0000
,  // measure 29
0200
0000
0000
0300
,  // measure 30
0100
0000
0000
0000
,  // measure 31
0020
0000
0000
0030
,  // measure 32
0010
0000
0000
0000
,  // measure 33
0010
0000
0000
0000
,  // measure 34
1000
0000
0000
0000
,  // measure 35
0100
0000
0000
0000
,  // measure 36
0001
0000
0000
0000
,  // measure 37
0010
0000
0000
0000
,  // measure 38
0001
0000
0000
0000
,  // measure 39
0100
0000
0000
0000
,  // measure 40
1000
0000
0000
0000
,  // measure 41
1001
0000
0000
0000
,  // measure 42
1000
0000
0000
0000
,  // measure 43
0001
0000
0000
0000
,  // measure 44
1000
0000
0000
0000
,  // measure 45
0110
0000
0000
0000
,  // measure 46
0100
0000
0000
0000
,  // measure 47
0010
0000
0000
0000
,  // measure 48
0100
0000
0000
0000
,  // measure 49
1001
0000
0000
0000
;

//---------------dance-single - yamamoto_----------------
#NOTES:
     dance-single:
     yamamoto_:
     Hard:
     11:
     0.415,0.455,0.051,0.344,0.000: // measure 1
0000
0000
0000
0000
,  // measure 2
0000
0000
0000
0000
,  // measure 3
0000
0000
0000
0000
,  // measure 4
0000
0000
0000
0000
,  // measure 5
1000
0100
0020
0000
0032
0000
0013
0100
,  // measure 6
1000
0010
2000
0000
3200
1000
1300
0010
,  // measure 7
0010
0100
0002
0000
0203
0010
0310
0010
,  // measure 8
1000
0001
0010
0100
0000
0000
1000
0100
,  // measure 9
0010
0100
2000
0000
3020
0100
0130
0001
,  // measure 10
1000
0001
1000
0001
0000
0000
0001
1001
,  // measure 11
1000
0100
0020
0000
0032
0010
0013
0100
,  // measure 12
0100
1000
0020
0000
0230
0000
0300
0000
,  // measure 13
1000
0100
0001
0000
0001
0100
1000
0000
,  // measure 14
1000
0010
0001
0100
,  // measure 15
1000
0100
0010
0000
0001
0010
0100
0000
,  // measure 16
1000
0010
0100
1000
,  // measure 17
0010
0001
0010
0000
0001
0010
0001
0000
,  // measure 18
0010
0100
0001
0010
,  // measure 19
0100
1000
0010
0000
1000
0000
0100
0000
,  // measure 20
0010
0100
1000
0000
0001
0000
1001
0000
,  // measure 21
1000
0001
0010
0000
0010
0100
0010
0000
,  // measure 22
0100
0010
0001
0010
0100
1000
1010
0000
,  // measure 23
1000
0001
0100
0000
0001
0010
0001
0000
,  // measure 24
0010
0100
1000
0010
1000
0100
1000
0010
,  // measure 25
0010
0100
0001
1000
,  // measure 26
0001
0010
0100
0000
1000
0100
0010
0000
,  // measure 27
0001
1000
0010
0100
,  // measure 28
0001
0100
1000
0000
0010
0001
0100
0000
,  // measure 29
1000
0100
0010
0001
,  // measure 30
0100
0001
0100
0000
0001
0100
0001
0000
,  // measure 31
0100
0010
2000
0000
3002
0100
0103
1000
,  // measure 32
0010
0100
0002
0000
0023
0000
0030
0000
,  // measure 33
0001
1000
0100
0010
,  // measure 34
0001
0010
0001
0000
1000
0100
1000
0000
,  // measure 35
1000
0001
0100
0010
,  // measure 36
0100
0010
1000
0000
0100
0001
0010
0000
,  // measure 37
1000
0100
0010
0001
,  // measure 38
0010
0001
0010
0000
0001
0010
0001
0000
,  // measure 39
0001
0010
0200
0000
2300
0010
3010
0100
,  // measure 40
0100
0001
0200
0000
0320
0000
0030
0000
,  // measure 41
1000
0001
0020
0000
0230
0000
1000
1300
,  // measure 42
0001
0001
0200
0000
0320
1000
1030
1000
,  // measure 43
0100
0010
0002
0000
2003
0010
3010
0100
,  // measure 44
0100
0010
0100
0000
0110
0000
0000
0000
,  // measure 45
0010
0001
0020
0000
0032
0010
0013
0100
,  // measure 46
1000
0010
1000
0100
0000
0000
1000
0010
,  // measure 47
0100
0001
0200
0000
0320
1000
1030
0001
,  // measure 48
0001
2000
3002
0013
,  // measure 49
0220
0000
0000
0000
,  // measure 50
0000
0000
0000
0000
,  // measure 51
0330
0000
0000
0000
;

//---------------dance-single - yamamoto_----------------
#NOTES:
     dance-single:
     yamamoto_:
     Challenge:
     10:
     0.364,0.379,0.051,0.020,0.000:
0000
0000
0000
0000
,
0000
0000
0000
0000
,
0000
0000
0000
0000
,
0000
0000
0000
0000
,
1000
0100
0001
0000
0010
0000
1000
0100
,
0001
0010
1000
0000
0100
0001
0010
1000
,
0100
0001
0010
0000
1000
0100
0001
0010
,
1000
0100
0011
0000
,
0001
0010
1000
0000
0100
0001
0010
1000
,
0100
0000
0001
0000
0010
0000
1000
0100
,
0001
0010
1000
0000
0100
0000
0001
0010
,
0001
0010
1100
0000
,
1000
0100
0001
0000
0001
0100
1000
0000
,
1000
0010
0001
0100
,
1000
0100
0010
0000
0001
0010
0100
0000
,
1000
0010
0100
1000
,
0010
0001
0010
0000
0001
0010
0001
0000
,
0010
0100
0001
0010
,
0100
1000
0010
0000
1000
0000
0100
0000
,
0010
0100
1000
0000
0001
0000
1001
0000
,
1000
0001
0010
0000
0010
0100
0010
0000
,
0100
0010
0001
0010
0100
1000
1010
0000
,
1000
0001
0100
0000
0001
0010
0001
0000
,
0010
0100
1000
0010
1000
0100
1000
0010
,
0010
0100
0001
1000
,
0001
0010
0100
0000
1000
0100
0010
0000
,
0001
1000
0010
0100
,
0001
0100
1000
0000
0010
0001
0100
0000
,
1000
0100
0010
0001
,
0100
0001
0100
0000
0001
0100
0001
0000
,
0100
1000
0010
0000
0001
0100
1000
0010
,
0001
0100
1000
0010
,
0001
1000
0100
0010
,
0001
0010
0001
0000
1000
0100
1000
0000
,
1000
0001
0100
0010
,
0100
0010
1000
0000
0100
0001
0010
0000
,
1000
0100
0010
0001
,
0010
0001
0010
0000
0001
0010
0001
0000
,
0001
0100
1000
0000
0010
0001
0100
1000
,
0010
0001
0100
0000
1000
0000
0010
0000
,
0100
0100
0100
0000
0100
0000
0100
1000
,
0100
0001
0010
0000
0100
0100
0001
0100
,
0001
0010
0100
0000
1000
0010
1000
0010
,
1000
0001
0010
0100
0000
0000
1000
0100
,
1000
0010
0001
0000
0100
1000
0010
0001
,
0100
0000
1000
0000
0010
0000
0100
0100
,
0100
0100
0001
0000
0010
1000
0100
0001
,
0010
1000
0100
0000
0001
0000
0010
0000
,
0220
0000
0000
0000
,
0000
0000
0000
0000
,
0330
0000
0000
0000
;
