#TITLE:Tonight Tonight;
#SUBTITLE:;
#ARTIST:Hot Chelle Rae;
#TITLETRANSLIT:;
#SUBTITLETRANSLIT:;
#ARTISTTRANSLIT:;
#GENRE:;
#CREDIT:Chewi☆;
#MENUCOLOR:;
#METERTYPE:DDR X;
#BANNER:Tonight Tonight.png;
#BACKGROUND:Tonight Tonight-bg.png;
#LYRICSPATH:;
#CDTITLE:;
#MUSIC:Tonight Tonight.mp3;
#OFFSET:-2.537;
#SAMPLESTART:20.725;
#SAMPLELENGTH:15.000;
#SELECTABLE:YES;
#LISTSORT:;
#BPMS:0.000=100.000;
#STOPS:;
#BGCHANGES:;
#ATTACKS:;

//---------------dance-single - Chewi----------------
#NOTES:
     dance-single:
     Chewi:
     Hard:
     9:
     0.336,0.322,0.191,0.000,0.023: // measure 1
0000
0000
0000
0000
,  // measure 2
0000
0000
0000
0000
,  // measure 3
0000
0000
0000
0000
,  // measure 4
0000
0000
0000
0000
,  // measure 5
1000
0100
0010
0100
1000
0000
1001
0000
,  // measure 6
0001
0100
0010
0100
0001
0000
1001
0000
,  // measure 7
0010
0100
1000
0100
0010
0000
0110
0000
,  // measure 8
0010
0001
0010
0100
0010
0000
0000
0000
,  // measure 9
0010
0100
1100
0000
0010
0100
0101
0000
,  // measure 10
0100
0100
0010
0010
1000
0001
1000
0000
,  // measure 11
0001
0010
1100
0000
1000
0100
0011
0000
,  // measure 12
0001
1000
0010
0100
0001
1000
0100
0000
,  // measure 13
0010
0100
0010
0100
1000
0001
1000
0000
,  // measure 14
0001
1000
0001
1000
0010
1000
0010
0000
,  // measure 15
0100
0010
1000
0100
0010
0001
0101
0000
,  // measure 16
0001
0100
0010
1000
0001
1000
1100
0000
,  // measure 17
0100
0000
0000
0000
0100
0000
0000
0100
0000
0000
0000
0000
0000
0000
0000
0000
,  // measure 18
0010
0000
0000
0000
0010
0000
0000
0010
0000
0000
0000
0000
0000
0000
0000
0000
,  // measure 19
0001
0000
0000
0000
0001
0000
0000
0001
0000
0000
0000
0000
0000
0000
0000
0000
,  // measure 20
1000
0000
0000
0000
1000
0000
0000
1000
0000
0000
1000
0000
1000
0000
0000
0000
,  // measure 21
1000
0010
0100
0010
1000
0000
0100
0000
,  // measure 22
0010
0001
0100
0001
0010
0000
0011
0000
,  // measure 23
0001
0010
1000
0010
0001
0000
1001
0000
,  // measure 24
1000
0100
0001
0100
1000
0000
0000
0000
,  // measure 25
1000
0100
0110
0000
0001
0100
0110
0000
,  // measure 26
0100
0010
1000
0001
0010
0100
1000
0000
,  // measure 27
0010
1000
1100
0000
0010
0001
0101
0000
,  // measure 28
0010
0100
0001
1000
0100
0010
0001
0000
,  // measure 29
0001
0001
0010
0010
0100
1000
0010
0000
,  // measure 30
0100
0100
0010
0010
0100
0001
0010
0000
,  // measure 31
0001
0010
0100
1000
0010
0000
1010
0000
,  // measure 32
1000
0010
0100
0001
0010
0000
0011
0000
,  // measure 33
0001
1000
0100
1000
0001
0000
1001
0000
,  // measure 34
1000
0001
0100
0001
1000
0000
1001
0000
,  // measure 35
1000
0100
0001
0100
1000
0100
0001
0000
,  // measure 36
0001
0010
1000
0010
0001
0010
1000
0000
,  // measure 37
1000
0010
0001
0010
1000
0000
1010
0000
,  // measure 38
1000
0100
0001
0010
1000
0000
1010
0000
,  // measure 39
1000
0010
0001
0010
0100
0000
1100
0000
,  // measure 40
1000
0100
0001
0010
1000
0000
1010
0000
,  // measure 41
1000
0100
0010
0100
1000
0010
1000
0100
,  // measure 42
0010
0001
0100
0010
0100
0001
0100
0000
,  // measure 43
0001
0010
0100
1000
0010
1000
0100
0010
,  // measure 44
0100
1000
0001
0100
0010
0100
0010
0000
,  // measure 45
0010
0100
0010
0100
0001
0010
0100
1000
,  // measure 46
0010
0100
0010
1000
0001
0010
0100
0000
,  // measure 47
1000
0010
1000
0100
0010
0001
0100
1000
,  // measure 48
0010
0001
0010
0100
1000
0010
0100
0000
,  // measure 49
0110
0000
0000
0000
0100
0000
0000
0100
0000
0000
0000
0000
0000
0000
0000
0000
,  // measure 50
0110
0000
0000
0000
0010
0000
0000
0010
0000
0000
0000
0000
0000
0000
0000
0000
;

//---------------dance-single - Chewi----------------
#NOTES:
     dance-single:
     Chewi:
     Medium:
     6:
     0.226,0.246,0.253,0.000,0.023: // measure 1
0000
0000
0000
0000
,  // measure 2
0000
0000
0000
0000
,  // measure 3
0000
0000
0000
0000
,  // measure 4
0000
0000
0000
0000
,  // measure 5
1000
1000
1100
0000
,  // measure 6
0001
0001
0101
0000
,  // measure 7
0100
0100
0110
0000
,  // measure 8
0010
0010
0110
0000
,  // measure 9
1000
0100
0001
0100
,  // measure 10
1000
0000
0010
0000
0001
0001
0001
0000
,  // measure 11
0001
0010
1000
0010
,  // measure 12
0001
0000
0100
0000
1000
1000
1000
0000
,  // measure 13
1000
0000
0100
0000
1000
0001
0100
0000
,  // measure 14
0010
0100
0110
0000
,  // measure 15
0010
0000
0100
0000
0001
1000
0100
0000
,  // measure 16
0010
0001
0011
0000
,  // measure 17
1001
0000
0000
0000
0000
0000
0000
1000
0000
0000
0000
0000
0000
0000
0000
0000
,  // measure 18
0010
0000
0000
0000
0000
0000
0000
0010
0000
0000
0000
0000
0000
0000
0000
0000
,  // measure 19
1001
0000
0000
0000
0000
0000
0000
0001
0000
0000
0000
0000
0000
0000
0000
0000
,  // measure 20
0100
0000
0000
0000
0000
0000
0000
0100
0000
0000
0000
0000
0000
0000
0000
0000
,  // measure 21
0001
0101
0001
0000
,  // measure 22
1000
1100
1000
0000
,  // measure 23
1000
1001
0001
0000
,  // measure 24
0100
0110
0010
0000
,  // measure 25
0010
1000
0100
0001
,  // measure 26
0010
0000
1000
0000
0100
0100
0100
0000
,  // measure 27
0010
0100
1000
0001
,  // measure 28
0100
0000
0010
0000
0010
0010
0010
0000
,  // measure 29
0100
0000
0010
0000
1000
0001
0010
0000
,  // measure 30
1000
1100
1100
0000
,  // measure 31
1000
0000
0001
0000
1000
0001
0010
0000
,  // measure 32
0001
0100
0110
0000
,  // measure 33
0010
0000
1000
0000
0001
0010
0100
0000
,  // measure 34
1000
0100
1100
0000
,  // measure 35
1000
0000
0001
0000
0100
0010
0100
0000
,  // measure 36
0001
0010
0011
0000
,  // measure 37
0001
1001
0101
0000
,  // measure 38
1001
1001
1100
0000
,  // measure 39
1000
0110
0001
0000
,  // measure 40
0001
0101
1010
0000
,  // measure 41
1000
1001
1000
1001
,  // measure 42
0001
0010
0100
0000
1000
0100
0010
0000
,  // measure 43
0001
1001
1000
1001
,  // measure 44
1000
0100
1000
0000
0001
0100
0001
0000
,  // measure 45
0100
0110
0010
0110
,  // measure 46
0100
0010
0100
0000
0010
0100
0010
0000
,  // measure 47
0010
1010
1000
1001
,  // measure 48
1000
0100
1000
0000
0100
0010
0100
0000
,  // measure 49
0010
0000
0000
0000
0010
0000
0000
0010
0000
0000
0000
0000
0000
0000
0000
0000
,  // measure 50
0001
0000
0000
0000
0001
0000
0000
0001
0000
0000
0000
0000
0000
0000
0000
0000
;

//---------------dance-single - Chewi----------------
#NOTES:
     dance-single:
     Chewi:
     Beginner:
     1:
     0.050,0.056,0.000,0.000,0.000: // measure 1
0000
0000
0000
0000
,  // measure 2
0000
0000
0000
0000
,  // measure 3
0000
0000
0000
0000
,  // measure 4
0000
0000
0000
0000
,  // measure 5
1000
0000
0000
0000
,  // measure 6
0001
0000
0000
0000
,  // measure 7
0100
0000
0000
0000
,  // measure 8
0010
0000
0000
0000
,  // measure 9
1000
0000
0000
0000
,  // measure 10
1000
0000
0000
0000
,  // measure 11
0100
0000
0000
0000
,  // measure 12
0100
0000
0000
0000
,  // measure 13
1000
0000
0000
0000
,  // measure 14
0001
0000
0000
0000
,  // measure 15
0001
0000
0000
0000
,  // measure 16
0010
0000
0000
0000
,  // measure 17
0100
0000
0000
0000
,  // measure 18
0010
0000
0000
0000
,  // measure 19
1000
0000
0000
0000
,  // measure 20
0001
0000
0000
0000
,  // measure 21
0001
0000
0000
0000
,  // measure 22
0010
0000
0000
0000
,  // measure 23
0100
0000
0000
0000
,  // measure 24
1000
0000
0000
0000
,  // measure 25
1000
0000
0000
0000
,  // measure 26
1000
0000
0000
0000
,  // measure 27
1000
0000
0000
0000
,  // measure 28
0001
0000
0000
0000
,  // measure 29
0010
0000
0000
0000
,  // measure 30
0100
0000
0000
0000
,  // measure 31
0100
0000
0000
0000
,  // measure 32
0001
0000
0000
0000
,  // measure 33
1000
0000
0000
0000
,  // measure 34
0100
0000
0000
0000
,  // measure 35
0010
0000
0000
0000
,  // measure 36
0001
0000
0000
0000
,  // measure 37
0001
0000
0000
0000
,  // measure 38
1000
0000
0000
0000
,  // measure 39
0100
0000
0000
0000
,  // measure 40
0010
0000
0000
0000
,  // measure 41
0001
0000
0000
0000
,  // measure 42
1000
0000
0000
0000
,  // measure 43
0100
0000
0000
0000
,  // measure 44
0010
0000
0000
0000
,  // measure 45
0010
0000
0000
0000
,  // measure 46
1000
0000
0000
0000
,  // measure 47
1000
0000
0000
0000
,  // measure 48
0100
0000
0000
0000
,  // measure 49
0010
0000
0000
0000
,  // measure 50
0010
0000
0000
0000
;

//---------------dance-single - Chewi----------------
#NOTES:
     dance-single:
     Chewi:
     Easy:
     3:
     0.162,0.188,0.031,0.000,0.000: // measure 1
0000
0000
0000
0000
,  // measure 2
0000
0000
0000
0000
,  // measure 3
0000
0000
0000
0000
,  // measure 4
0000
0000
0000
0000
,  // measure 5
1000
1000
1000
0000
,  // measure 6
0001
0001
0001
0000
,  // measure 7
0100
0100
0100
0000
,  // measure 8
0010
0010
0010
0000
,  // measure 9
1000
0000
0001
0000
,  // measure 10
1000
0001
1000
0001
,  // measure 11
0100
0000
0010
0000
,  // measure 12
0100
0010
0100
0010
,  // measure 13
1000
0000
1000
0000
,  // measure 14
0001
0000
0001
0000
,  // measure 15
0001
1000
0001
1000
,  // measure 16
0010
0100
0010
0100
,  // measure 17
0100
0000
0000
0000
,  // measure 18
0010
0000
0000
0000
,  // measure 19
1000
0000
0000
0000
,  // measure 20
0001
0000
0000
0000
,  // measure 21
0001
0001
0001
0000
,  // measure 22
0010
0010
0010
0000
,  // measure 23
0100
0100
0100
0000
,  // measure 24
1000
1000
1000
0000
,  // measure 25
1000
0001
1000
0001
,  // measure 26
1000
0010
1000
0010
,  // measure 27
1000
0001
1000
0001
,  // measure 28
0001
0010
0001
0010
,  // measure 29
0010
0010
0010
0000
,  // measure 30
0100
0100
0100
0000
,  // measure 31
0100
0010
0100
0010
,  // measure 32
0001
1000
0001
1000
,  // measure 33
1000
0001
1000
0001
,  // measure 34
0100
0010
0100
0010
,  // measure 35
0010
0100
0010
0100
,  // measure 36
0001
0100
0001
0100
,  // measure 37
0001
0001
0001
0000
,  // measure 38
1000
1000
1000
0000
,  // measure 39
0100
0100
0100
0000
,  // measure 40
0010
0010
0010
0000
,  // measure 41
0001
0001
0001
0001
,  // measure 42
1000
1000
0001
1001
,  // measure 43
0100
0100
0100
0100
,  // measure 44
0010
0010
0100
0110
,  // measure 45
0010
0010
0010
0010
,  // measure 46
1000
1000
0001
1001
,  // measure 47
1000
1000
1000
1000
,  // measure 48
0100
0100
0010
0110
,  // measure 49
0010
0000
0000
0000
,  // measure 50
0010
0000
0000
0000
;
