#TITLE:Toda Doida (feat. Karol Conká);
#SUBTITLE:;
#ARTIST:Boss in Drama;
#TITLETRANSLIT:Toda Doida (feat. Karol Conka);
#SUBTITLETRANSLIT:;
#ARTISTTRANSLIT:;
#GENRE:Pop;
#CREDIT:chewi;
#BANNER:Toda Doida (feat. Karol Conka).png;
#BACKGROUND:Toda Doida (feat. Karol Conka)-bg.png;
#LYRICSPATH:;
#CDTITLE:cdtitle.png;
#MUSIC:Toda Doida (feat. Karol Conka).ogg;
#OFFSET:0.000000;
#SAMPLESTART:30.474001;
#SAMPLELENGTH:15.000000;
#SELECTABLE:YES;
#BPMS:0.000000=126.000000
,128.000000=63.000000
,144.000000=126.000000
;
#STOPS:144.000000=3.333000
;
#BGCHANGES:;
#KEYSOUNDS:;
#ATTACKS:;

//---------------dance-single - ----------------
#NOTES:
     dance-single:
     :
     Medium:
     7:
     0.303564,0.330547,0.062961,0.031481,0.031481,270.000000,262.000000,8.000000,4.000000,0.000000,0.000000,0.303564,0.330547,0.062961,0.031481,0.031481,270.000000,262.000000,8.000000,4.000000,0.000000,0.000000:
0000
0000
0000
0000
,
0000
0000
0000
0000
,
0000
0000
0000
0000
,
0000
0000
0000
0000
,
1000
0100
0001
1000
,
1000
0010
0001
0001
,
1000
0100
0001
1000
,
0010
0001
0010
1000
,
0000
0000
0000
0010
0000
0000
0010
0000
0000
0000
0000
1000
0000
0000
1000
0000
,
0000
0000
0000
0001
0000
0000
0001
0000
0000
0000
0000
0100
0000
0000
0100
0000
,
0001
0000
0000
0000
0001
0000
0000
0000
0100
0000
0000
0100
0000
0000
0000
0000
,
0010
0000
0000
0000
0010
0000
0000
0000
1000
0000
0000
1000
0000
0000
0000
0000
,
1000
0000
0000
0000
0000
0000
0001
0000
1000
0000
0000
1000
0000
0000
1000
0000
,
0100
0000
0000
0000
0000
0000
0100
0000
1000
0000
0000
1000
0000
0000
1000
0000
,
0001
0100
0010
1000
,
0002
0203
0320
2030
,
3001
0000
1000
0000
0001
0010
1000
0000
,
0001
0000
1000
0000
0001
0100
1000
0000
,
0001
0000
1000
0000
0100
0010
0100
0000
,
1000
0000
0001
0000
0100
0010
0100
0000
,
1000
0000
0001
0000
1000
0100
0001
0000
,
1000
0000
0001
0000
1000
0010
0001
0000
,
1000
0000
0001
0000
0010
0100
0010
0000
,
0100
0000
1000
0000
0001
1000
0001
0000
,
0110
0000
1001
0000
1000
0001
1000
0000
,
1000
0100
0010
0001
,
0011
0000
0101
0000
0001
0001
0001
0000
,
0100
0000
0010
0000
1000
1000
1000
0000
,
0110
0000
1001
0000
0001
1000
0001
0000
,
0001
0010
0100
1000
,
1100
0000
1010
0000
1000
1000
1000
0000
,
0010
0000
0100
0000
0001
0001
0001
0000
,
0010
0010
0000
0010
0000
0100
0000
0100
,
0000
1000
0000
1000
0001
0001
0001
0001
,
0001
0100
0000
0100
0000
0010
0000
0010
,
0000
1000
0000
1000
0000
0001
0000
0001
,
1000
0000
0001
0000
1000
0000
0001
0010
,
1000
0000
0001
0000
1000
0000
0001
0100
,
1000
0000
0001
0000
1000
0000
0100
0010
,
0100
0000
1000
0000
0001
0000
0100
0010
,
0100
0000
1000
0000
0001
0000
1000
0100
,
0001
0000
1000
0000
0001
0000
1000
0010
,
0001
0000
1000
0000
0001
0000
0010
0100
,
0010
0000
0100
0000
1000
0000
0001
1000
,
0001
1000
0010
0000
0100
0000
0010
1000
,
0100
0000
0010
0000
0100
0000
0010
0001
,
0100
0000
0010
0000
0100
0000
0001
1000
,
0001
0000
0100
0000
0010
0000
1000
0001
,
1000
0000
0100
0000
0010
0000
0100
1000
,
0010
0000
0100
0000
0010
0000
0100
0001
,
0010
0000
0100
0000
1000
0000
0001
1000
,
0001
0000
1000
0000
0010
0000
0100
0010
,
0100
0010
1000
0010
,
1000
0100
1000
0100
,
1000
0100
0010
0001
,
0100
0010
0100
0001
,
0010
0001
0010
0001
,
0010
0100
0010
0100
,
0010
0100
1000
0010
,
0100
0010
1000
0100
,
0010
0000
0000
0000
;

//---------------dance-single - ----------------
#NOTES:
     dance-single:
     :
     Hard:
     11:
     0.460967,0.567833,0.165274,0.000000,0.212495,410.000000,389.000000,21.000000,0.000000,0.000000,0.000000,0.460967,0.567833,0.165274,0.000000,0.212495,410.000000,389.000000,21.000000,0.000000,0.000000,0.000000:
// measure 0
0000
0000
0000
0000
,  // measure 1
0000
0000
0000
0000
,  // measure 2
0000
0000
0000
0000
,  // measure 3
0000
0000
0000
0000
,  // measure 4
1000
0010
1000
0000
0010
0000
0100
0000
,  // measure 5
0001
0100
0001
0000
0100
0000
0010
0000
,  // measure 6
1000
0001
1000
0000
0001
0000
1000
0000
,  // measure 7
0001
0010
0100
1000
0100
0010
0001
0000
,  // measure 8
1000
0000
0000
0001
0000
0000
1000
0000
0001
0000
0000
0010
0000
0000
0100
0000
,  // measure 9
0010
0000
0000
0001
0000
0000
0100
0000
0010
0000
0000
1000
0000
0000
0100
0000
,  // measure 10
0010
0000
0100
0000
1000
0000
0001
0000
0010
0000
0000
0010
0000
0000
0010
0000
,  // measure 11
0001
0000
0010
0000
0100
0000
1000
0000
0100
0000
0000
0100
0000
0000
0100
0000
,  // measure 12
1000
0000
0000
0010
0000
0000
0100
0000
0001
0000
0000
0100
0000
0000
0010
0000
,  // measure 13
1000
0000
0000
0001
0000
0000
0010
0000
0100
0000
0000
0010
0000
0000
0001
0000
,  // measure 14
0010
0001
0010
0001
0100
0001
0100
0001
,  // measure 15
0100
0010
1000
0001
0100
0010
1000
0001
,  // measure 16
1000
0000
0000
1000
0000
0000
1000
0000
0001
0000
0010
0000
0100
0000
1000
0000
,  // measure 17
0001
0000
0000
0001
0000
0000
0001
0000
1000
0000
0010
0000
0100
0000
0001
0000
,  // measure 18
0100
0000
0000
0100
0000
0000
0100
0000
0010
0000
1000
0000
0001
0000
0010
0000
,  // measure 19
0100
0000
0000
0100
0000
0000
0100
0000
0010
0000
0001
0000
1000
0000
0010
0000
,  // measure 20
1000
0000
0000
1000
0000
0000
1000
0000
0010
0000
0100
0000
0001
0000
0010
0000
,  // measure 21
0001
0000
0000
0001
0000
0000
0001
0000
0010
0000
0100
0000
0010
0000
0001
0000
,  // measure 22
0010
0000
0000
0010
0000
0000
0010
0000
0001
0000
1000
0000
0100
0000
0010
0000
,  // measure 23
0100
0000
0000
0100
0000
0000
0100
0000
1000
0000
0010
0000
0100
0000
0001
0000
,  // measure 24
1000
0000
0000
0001
0000
0000
1000
0000
1100
0000
0000
0000
0101
0000
0000
0000
,  // measure 25
0001
0100
0000
0001
0000
0100
0001
0000
0010
0000
0010
0000
0010
0000
0000
0000
,  // measure 26
0100
1000
0010
1000
0100
0000
0100
0000
,  // measure 27
0010
0001
0100
0001
0010
0000
0010
0000
,  // measure 28
0001
0000
0000
0010
0000
0000
0100
0000
1100
0000
0000
0000
0101
0000
0000
0000
,  // measure 29
0100
0010
0000
0100
0000
0010
0100
0000
0010
0000
0010
0000
0010
0000
0000
0000
,  // measure 30
1000
0010
0100
0010
1000
1000
0001
0000
,  // measure 31
0010
0100
0010
0001
1000
1000
0001
0000
,  // measure 32
0100
0001
1000
0000
0001
0000
1000
0000
0001
0010
0100
1000
0100
0000
1000
0000
,  // measure 33
0100
1000
0001
0000
1000
0000
0001
0000
0100
0001
0100
0001
0100
0000
0001
0000
,  // measure 34
0010
0001
1000
0000
0001
0000
1000
0000
0001
0010
0100
1000
0010
0000
0100
0000
,  // measure 35
0001
1000
0010
0000
1000
0000
0001
0000
0010
0100
0010
0100
0010
0000
0100
0000
,  // measure 36
0110
0000
0000
0000
0001
0000
0000
0001
0000
0000
0001
0000
1000
0000
0100
0000
,  // measure 37
0010
0000
0001
0000
1000
0000
0000
1000
0000
0000
1000
0000
0001
0000
0100
0000
,  // measure 38
0010
0000
1000
0000
0010
0000
0000
0010
0000
0000
0010
0000
0100
0000
0001
0000
,  // measure 39
1000
0000
0100
0000
0010
0000
0000
0010
0000
0000
0010
0000
0100
0000
1000
0000
,  // measure 40
0001
0000
0100
0000
0001
0000
0000
0001
0000
0000
0001
0000
0100
0000
0010
0000
,  // measure 41
1000
0000
0100
0000
1000
0000
0000
1000
0000
0000
1000
0000
0100
0000
0010
0000
,  // measure 42
0100
0000
1000
0000
0100
0000
0000
0100
0000
0000
0100
0000
1000
0000
0001
0000
,  // measure 43
0010
0000
0100
0000
0010
0000
0000
0010
0000
0000
0010
0000
0001
0000
0100
0000
,  // measure 44
0010
0000
1000
0000
0010
0000
0000
0010
0000
0000
0010
0000
0100
0000
0001
0000
,  // measure 45
1000
0000
0010
0000
0100
0000
0000
0100
0000
0000
0100
0000
0010
0000
1000
0000
,  // measure 46
0001
0000
0100
0000
0001
0000
0000
0001
0000
0000
0001
0000
1000
0000
0010
0000
,  // measure 47
0100
0000
0001
0000
1000
0000
0000
1000
0000
0000
1000
0000
0001
0000
0010
0000
,  // measure 48
0100
0000
1000
0000
0010
0000
0000
0010
0000
0000
0010
0000
1000
0000
0001
0000
,  // measure 49
0100
0000
0001
0000
0100
0000
0000
0100
0000
0000
0100
0000
0001
0000
1000
0000
,  // measure 50
0001
0000
0100
0000
0001
0000
0000
0001
0000
0000
0001
0000
0100
0000
0010
0000
,  // measure 51
1000
0000
0001
0000
1000
0000
0000
1000
0000
0000
1000
0000
0100
0000
1000
0000
,  // measure 52
0001
0010
0011
0000
1001
0000
1000
0001
,  // measure 53
1000
0100
1001
0000
0101
0000
0100
0010
,  // measure 54
1000
0001
0011
0000
1100
0000
1000
1000
,  // measure 55
1000
1000
1010
0000
0101
0000
0001
0001
,  // measure 56
0001
0001
1100
0000
1001
0000
0001
1000
,  // measure 57
0001
0010
1001
0000
1010
0000
0010
0100
,  // measure 58
0001
1000
1100
0000
0011
0000
0001
0001
,  // measure 59
0001
0001
0101
0000
1010
0000
1000
1000
,  // measure 60
1000
1000
0000
0000
0000
0000
0000
0000
;

//---------------dance-single - ----------------
#NOTES:
     dance-single:
     :
     Easy:
     4:
     0.146160,0.188884,0.062961,0.015740,0.000000,130.000000,122.000000,8.000000,2.000000,0.000000,0.000000,0.146160,0.188884,0.062961,0.015740,0.000000,130.000000,122.000000,8.000000,2.000000,0.000000,0.000000:
0000
0000
0000
0000
,
0000
0000
0000
0000
,
0000
0000
0000
0000
,
0000
0000
0000
0000
,
1000
0000
0000
0000
,
0010
0000
0000
0000
,
0100
0000
0000
0000
,
0001
0000
0000
0000
,
1000
0000
1000
0000
,
0001
0000
0001
0000
,
1000
0001
1000
0000
,
0001
1000
0001
0000
,
0010
0000
0010
0000
,
0100
0000
0100
0000
,
0010
0100
0010
0000
,
0100
0010
0100
0000
,
0110
0000
0000
0000
,
0010
0100
0010
0000
,
1001
0000
0000
0000
,
0001
1000
0001
0000
,
1001
0000
0000
0000
,
1000
0001
0100
0000
,
0110
0000
0000
0000
,
0100
0010
1000
0000
,
1000
0000
0001
0000
,
1000
0100
0001
0000
,
1000
0000
0001
0000
,
0001
0100
1000
0000
,
1000
0000
0001
0000
,
1000
0010
0001
0000
,
1000
0000
0001
0000
,
0001
0010
1000
0000
,
1000
0000
1000
0000
,
1000
0000
2000
3000
,
0001
0000
0001
0000
,
0001
0000
0002
0003
,
0001
0110
0000
0000
,
0000
0100
0010
0100
,
0000
1001
0000
0000
,
0000
1000
0001
1000
,
0000
1001
0000
0000
,
0000
0001
1000
0010
,
0000
0110
0000
0000
,
0000
0010
0100
0001
,
0000
0001
0000
1000
,
0000
0001
0010
1000
,
0000
0001
0000
1000
,
0000
1000
0010
0001
,
0000
0001
0000
1000
,
0000
0001
0100
1000
,
0000
0001
0000
1000
,
0000
1000
0100
0001
,
0000
0001
0000
0010
,
0000
0100
0000
1000
,
0000
1000
0000
0100
,
0000
0010
0000
0001
,
0000
0001
0000
1000
,
0000
0001
0000
0001
,
0000
1000
0000
0001
,
0000
1000
0000
1000
,
1000
0000
0000
0000
;

//---------------dance-single - ----------------
#NOTES:
     dance-single:
     :
     Beginner:
     1:
     0.064086,0.069946,0.000000,0.000000,0.000000,57.000000,57.000000,0.000000,0.000000,0.000000,0.000000,0.064086,0.069946,0.000000,0.000000,0.000000,57.000000,57.000000,0.000000,0.000000,0.000000,0.000000:
0000
0000
0000
0000
,
0000
0000
0000
0000
,
0000
0000
0000
0000
,
0000
0000
0000
0000
,
1000
0000
0000
0000
,
0010
0000
0000
0000
,
1000
0000
0000
0000
,
0010
0000
0000
0000
,
0001
0000
0000
0000
,
0010
0000
0000
0000
,
0001
0000
0000
0000
,
0010
0000
0000
0000
,
0001
0000
0000
0000
,
1000
0000
0000
0000
,
0001
0000
0000
0000
,
1000
0000
0000
0000
,
0010
0000
0000
0000
,
0010
0000
0000
0000
,
0100
0000
0000
0000
,
0100
0000
0000
0000
,
0010
0000
0000
0000
,
0100
0000
0000
0000
,
0010
0000
0000
0000
,
0100
0000
0000
0000
,
1000
0000
0000
0000
,
0001
0000
0000
0000
,
0001
0000
0000
0000
,
1000
0000
0000
0000
,
1000
0000
0000
0000
,
0010
0000
0000
0000
,
0001
0000
0000
0000
,
0100
0000
0000
0000
,
1000
0000
0000
0000
,
1000
0000
0000
0000
,
0001
0000
0000
0000
,
0001
0000
0000
0000
,
0010
0010
0000
0000
,
0000
0010
0000
0000
,
0000
0100
0000
0000
,
0000
0100
0000
0000
,
0000
0010
0000
0000
,
0000
0100
0000
0000
,
0000
0010
0000
0000
,
0000
0100
0000
0000
,
0000
1000
0000
0000
,
0000
0001
0000
0000
,
0000
0001
0000
0000
,
0000
1000
0000
0000
,
0000
1000
0000
0000
,
0000
0010
0000
0000
,
0000
0001
0000
0000
,
0000
0100
0000
0000
,
0000
1000
0000
0000
,
0000
1000
0000
0000
,
0000
0100
0000
0000
,
0000
0100
0000
0000
,
0000
0010
0000
0000
,
0000
0010
0000
0000
,
0000
0001
0000
0000
,
0000
0001
0000
0000
;
