#TITLE:TiK ToK;
#SUBTITLE:;
#ARTIST:Ke$ha;
#TITLETRANSLIT:;
#SUBTITLETRANSLIT:;
#ARTISTTRANSLIT:;
#GENRE:;
#CREDIT:Chewi☆;
#MENUCOLOR:#FFFFFF;
#METERTYPE:DDR X;
#BANNER:TiK ToK.png;
#BACKGROUND:TiK ToK-bg.png;
#LYRICSPATH:;
#CDTITLE:./CDTITLES/DanceDanceRevolution skyMIX2 -FREEDOM-.png;
#MUSIC:TiK ToK.mp3;
#OFFSET:-0.477;
#SAMPLESTART:31.946;
#SAMPLELENGTH:15.000;
#SELECTABLE:YES;
#LISTSORT:;
#DISPLAYBPM:120.000;
#BPMS:0.000=120.000;
#STOPS:;
#BGCHANGES:;
#ATTACKS:;

//---------------dance-single - Chewi----------------
#NOTES:
     dance-single:
     Chewi:
     Beginner:
     2:
     0.105,0.194,0.069,0.017,0.000:
0000
0000
0000
0000
,
0000
0000
0000
0000
,
0000
0000
0000
0000
,
0000
0000
0000
0000
,
0010
0000
0000
0000
,
0100
0000
0000
0000
,
0010
0000
0000
0000
,
0110
0000
0000
0000
,
1000
0000
0100
0000
,
0001
0000
0100
0000
,
0001
0000
0010
0000
,
1000
0000
0010
0000
,
0100
0000
0000
0000
,
0010
0000
0000
0000
,
0100
0000
0000
0000
,
1001
0000
0000
0000
,
0100
0000
0100
0000
,
1000
0000
1000
0000
,
0100
0000
0100
0000
,
0001
0000
0001
0000
,
1000
0000
1000
0000
,
0001
0000
0001
0000
,
0010
0000
0010
0000
,
0100
0000
0100
0000
,
1000
0000
0000
0000
,
0001
0000
0000
0000
,
1000
0000
0000
0000
,
0001
0000
0000
0000
,
0010
0010
0010
0000
,
1000
1000
1000
0000
,
1001
0000
0000
0000
,
0110
0000
0000
0000
,
0010
0000
0000
0000
,
0020
0000
0000
0030
,
0010
0000
0000
0000
,
0200
0000
0000
0300
,
0100
0000
0000
0000
,
0001
0000
0000
0000
,
0100
0000
0000
0000
,
0110
0000
0000
0000
,
0010
0000
0100
0000
,
0010
0000
0100
0000
,
0010
0000
1000
0000
,
1000
0000
0000
0000
,
0010
0000
0100
0000
,
0010
0000
0100
0000
,
0110
0000
0000
0000
,
0001
0000
0000
0000
,
0001
0000
0000
0000
,
1000
0000
0000
0000
,
1000
0000
0000
0000
,
1000
0000
0000
0000
,
0100
0000
0000
0000
,
1000
0000
0000
0000
,
0110
0000
0000
0000
,
1001
0000
0000
0001
,
0001
0000
0000
0000
;

//---------------dance-single - Chewphoria~----------------
#NOTES:
     dance-single:
     Chewphoria~:
     Easy:
     5:
     0.242,0.290,0.069,0.380,0.000:
0000
0000
0000
0000
,
0000
0000
0000
0000
,
0000
0000
0000
0000
,
0000
0000
0000
0000
,
0010
1000
0100
0000
,
0010
0001
0100
0000
,
0010
0100
0010
0100
,
0220
0000
0000
0330
,
1000
1000
0200
0300
,
0001
0001
0200
0300
,
0001
0001
0020
0030
,
1000
1000
0020
0030
,
0100
0010
1000
0001
,
0010
0100
1000
0001
,
0100
0010
2002
0000
,
0000
0000
0000
3003
,
0002
0000
0103
0000
,
0100
0010
1000
0000
,
2000
0000
3100
0000
,
0100
0010
0001
0000
,
0002
0000
1003
0000
,
0001
1000
0010
0000
,
0020
0000
0130
0100
,
0200
0000
0310
0010
,
2000
0100
0000
3100
,
0002
0010
0000
0013
,
2000
0010
0000
3010
,
0002
0100
0000
0103
,
0010
0100
0010
0100
,
1000
0001
1000
0001
,
2002
0000
0000
3003
,
0220
0000
0000
0330
,
0010
1000
0100
0001
,
0020
0000
0000
0030
,
0010
0001
0100
1000
,
0020
0000
0000
0030
,
0010
0100
0010
0100
,
0001
1000
0001
1000
,
0100
0000
0010
0100
,
0220
0000
0000
0330
,
0010
0001
0200
0300
,
0010
1000
0200
0300
,
0010
0100
2000
3000
,
1000
2000
3002
0003
,
0010
0001
0200
0300
,
0010
1000
0200
0300
,
0220
0000
0330
1000
,
0002
2003
3002
0003
,
0002
0000
1003
0000
,
1000
0001
0010
0100
,
2000
0000
3001
0000
,
1000
0001
0100
0010
,
0200
0000
0310
0000
,
1000
0100
0001
0010
,
0220
0000
0000
0330
,
2002
0000
3003
1000
,
0001
0000
0000
0000
;

//---------------dance-single - Chewphoria~----------------
#NOTES:
     dance-single:
     Chewphoria~:
     Medium:
     7:
     0.280,0.339,0.138,0.121,0.000:
0000
0000
0000
0000
,
0000
0000
0000
0000
,
0000
0000
0000
0000
,
0000
0000
0000
0000
,
1000
0000
0000
0100
0000
0000
0000
0000
,
0010
0000
0000
0001
0000
0000
0000
0000
,
0001
0000
0000
1000
0000
0000
0000
0000
,
2002
0000
0000
3003
,
0001
0100
1000
0010
,
0100
0010
0010
0100
,
1000
0100
0001
0010
,
0100
0010
0010
0100
,
0001
1000
0001
0000
2000
0000
3000
0000
,
1000
0001
1000
0000
0002
0000
0003
0000
,
1000
0100
0001
0010
,
0010
0000
0000
0000
,
0010
0000
0010
0100
0010
0000
0100
0000
,
0001
0010
1000
0100
,
0010
0000
0100
0010
0100
0000
0010
0000
,
0001
0100
1000
0010
,
0001
0000
1000
0001
1000
0000
0001
0000
,
1000
0100
0001
0010
,
1010
0000
1000
0000
,
1100
0000
0001
0000
,
0001
0100
0001
0100
0001
0000
1000
0000
,
0100
0001
0010
1000
,
0100
1000
0100
1000
0100
0000
1000
0000
,
0010
0001
0100
1000
,
0001
0000
0101
0000
1000
0001
1000
0000
,
1000
0000
1100
0000
0001
1000
0001
0000
,
1001
0000
0100
0010
,
0110
0000
0010
1000
,
1000
0000
1000
0001
1000
0000
0001
0000
,
0010
0100
1000
0100
,
0010
0000
0001
0100
0010
0000
1000
0000
,
0100
0001
0010
0100
,
0010
0000
1000
0001
1000
0000
0001
0000
,
0010
0100
1100
0101
,
0100
0010
0100
0000
0001
0000
0010
0000
,
2200
0000
0000
3300
,
1000
0010
1000
0100
1000
0000
0000
0000
,
0001
0010
0001
0100
0001
0000
0000
0000
,
0100
0000
0010
1000
0001
0000
0010
0000
,
0220
0000
0000
0330
,
0001
0000
0010
0100
1000
0000
0000
0000
,
1000
0000
0010
0100
0001
0000
0000
0000
,
0220
0000
0000
0330
,
0010
1000
0001
0000
1001
0000
0000
0000
,
0001
0000
0011
0000
0001
0010
0100
0000
,
1000
0010
0001
0100
,
0010
0000
0100
0000
0010
0100
0010
0000
,
0001
0000
1000
0000
0001
1000
0001
0000
,
1000
0000
0100
0000
1000
0001
0100
0000
,
0001
0000
0100
0000
0001
1000
0100
0000
,
2002
0000
0000
3003
,
0022
0000
0000
0033
,
0100
0000
0000
0000
;

//---------------dance-single - Chewphoria~----------------
#NOTES:
     dance-single:
     Chewphoria~:
     Hard:
     12:
     0.538,0.605,0.156,0.035,0.328: // measure 1
0000
0000
0000
0000
,  // measure 2
0000
0000
0000
0000
,  // measure 3
0000
0000
0000
0000
,  // measure 4
0000
0000
0000
0000
,  // measure 5
1000
0000
0000
0100
0000
0000
1000
0000
0000
0000
0000
0000
0000
0000
0000
0000
,  // measure 6
0100
0000
0000
0001
0000
0000
0010
0000
0000
1000
0000
0000
0000
0001
0000
0000
,  // measure 7
1000
0000
0000
0100
0000
0000
0001
0000
0000
0000
0000
0000
0000
0000
0020
0000
,  // measure 8
0200
0000
0000
0330
,  // measure 9
0010
1000
0100
0000
1000
0001
0100
0000
0101
0000
0000
0000
1001
0000
0000
0000
,  // measure 10
0010
1000
0001
0000
0010
0001
1000
0000
1001
0000
0000
0000
1100
0000
0000
0000
,  // measure 11
0001
0000
0010
0100
1000
0000
0010
0000
0100
0000
0001
0000
0010
0000
0000
0000
,  // measure 12
0100
0000
0000
0100
0000
0000
0100
0000
0000
0000
0010
0000
0001
0000
0100
0000
,  // measure 13
1000
0100
1000
0000
0010
0000
1000
0000
0100
0010
0000
0000
0010
0001
0000
0000
,  // measure 14
0001
0010
0100
0000
1000
0010
0100
0000
0001
0000
0100
0000
0010
0000
0000
0000
,  // measure 15
1000
0001
1000
0000
0001
1000
0001
0000
0020
0000
0000
0000
0000
0000
0000
0000
,  // measure 16
0200
0000
0330
0000
,  // measure 17
0010
0000
0000
0001
0100
0000
0010
0000
1000
0000
0000
0100
1000
0000
0010
0000
,  // measure 18
0100
0001
1000
0100
0010
0001
0100
0010
,  // measure 19
0100
0000
0000
0100
0001
0000
0010
0000
0100
0000
0000
0100
1000
0000
0010
0000
,  // measure 20
1000
0000
0001
0000
0010
0000
0100
0000
1000
0000
0001
0000
1000
0001
0000
0001
,  // measure 21
1000
0010
0100
0001
0100
0010
1001
0000
,  // measure 22
1000
0100
0001
1000
0100
0001
0010
0100
,  // measure 23
0001
0000
0000
0010
0000
0000
0100
0000
1000
0000
0100
0000
0001
0000
0100
0000
,  // measure 24
1000
0000
0000
0010
0000
0000
0100
0000
0001
0000
0010
0000
1000
0000
0010
0000
,  // measure 25
0001
1000
0001
0000
0010
0000
0100
0000
1000
0000
0010
1000
0100
0000
0010
0000
,  // measure 26
0001
0100
0010
0100
0001
1000
0100
0010
,  // measure 27
0001
0000
0010
0100
1000
0000
0010
0000
0100
0000
0001
0100
0010
0000
1000
0000
,  // measure 28
0001
0000
0001
0010
1000
0000
0100
0000
1000
0000
0001
0000
0100
0010
1000
0001
,  // measure 29
0010
0100
1000
0001
1000
0010
0101
0100
,  // measure 30
0010
1000
0001
0010
0100
1000
1010
0001
,  // measure 31
0010
0000
0000
1000
0000
0000
0100
0000
0001
0000
0010
0000
0001
0000
0100
0000
,  // measure 32
1000
0000
0000
0010
0000
0000
0001
0000
0100
0000
1000
0000
0010
0000
0100
0000
,  // measure 33
0001
0000
1000
0001
0010
0000
0100
0010
,  // measure 34
0001
1000
0001
1000
0010
0100
0001
0100
,  // measure 35
0010
0010
1000
0100
0001
0010
1000
0100
,  // measure 36
0001
1000
0100
0010
0001
0100
0010
0100
,  // measure 37
0001
1000
0100
0010
0001
0000
1000
0010
,  // measure 38
0100
0000
0001
0000
0100
0000
0010
0000
0000
0010
0000
0000
1000
0000
0001
0000
,  // measure 39
0010
0100
1000
0100
0001
0100
1000
0010
,  // measure 40
0001
0000
1000
0000
0010
0000
0001
0000
0010
0000
0100
0000
0010
0100
0010
0000
,  // measure 41
0010
0001
0100
0001
0010
0001
0100
0010
1000
0000
0000
0000
1001
0000
0000
0000
,  // measure 42
1000
0100
0010
0001
1000
0100
0010
0001
0100
0000
0010
0000
0100
0000
0001
0010
,  // measure 43
0100
1000
0001
0010
0100
1000
0010
0000
0100
0000
0000
0000
0101
0000
0000
0000
,  // measure 44
1010
0000
0000
1001
0000
0000
1100
0000
0000
0000
1000
0000
0001
0000
0010
0000
,  // measure 45
0100
0010
0001
0100
0010
0000
0100
0000
0001
0000
0010
0000
0100
0000
1000
0010
,  // measure 46
1000
0100
0010
0001
1010
0000
0011
0000
,  // measure 47
0001
0010
0100
1000
0010
0000
0100
0000
0001
0000
0000
0000
0100
0000
0000
0000
,  // measure 48
0010
1000
0001
1000
0010
1000
0001
1000
0010
0000
0000
0000
1010
0000
0000
0000
,  // measure 49
0101
0000
1000
0100
0010
0000
0001
0000
0010
0000
0100
1000
0010
0000
0100
0000
,  // measure 50
0001
0100
1000
0010
0001
0010
1000
0010
,  // measure 51
0100
0000
0001
0100
0010
0000
1000
0000
0001
0000
0010
0100
1000
0000
0010
0000
,  // measure 52
0100
0001
0100
0000
0010
1000
0010
0000
0001
0010
0001
0000
0100
1000
0010
1000
,  // measure 53
0100
0000
0010
0000
0001
0000
0100
0010
0100
0000
0001
0000
0010
0000
0100
0000
,  // measure 54
1000
0010
1000
0000
0001
0010
0001
0000
1000
0001
1000
0000
1010
0000
0001
0000
,  // measure 55
0010
0000
0100
1000
0000
0010
1000
0000
0100
0000
0010
0000
0001
0000
0100
0000
,  // measure 56
0010
0000
0100
0001
0000
0010
0001
0000
0010
0000
0100
0000
1000
0000
0001
0000
,  // measure 57
1001
0000
0000
0000
;
